#TITLE:INSERTiON;
#SUBTITLE:Machine Gun Kelly Mix;
#ARTIST:Thuggie D.;
#TITLETRANSLIT:;
#SUBTITLETRANSLIT:;
#ARTISTTRANSLIT:;
#GENRE:;
#CREDIT:;
#MUSIC:ins2_main.ogg;
#BANNER:ins2_th.png;
#BACKGROUND:ins2_bk.png;
#CDTITLE:;
#SAMPLESTART:27.098;
#SAMPLELENGTH:15.000;
#SELECTABLE:YES;
#OFFSET:0.000;
#BPMS:0.000=139.467
,128.000=69.948
,152.000=139.175
;
#STOPS:;
#DISPLAYBPM:69.000:139.000;
#Stops:;
#BGCHANGES:;
#FGCHANGES:;

//--------------- dance-single - ----------------
#NOTES:
     dance-single:
     :
     Easy:
     5:
     0,0,0,0,0:
0000
0000
0000
0000
,
0000
0000
0000
0000
,
0000
0000
0000
0000
,
0000
0000
0000
0000
,
1000
0010
0010
0000
,
1000
0010
0001
0000
,
1000
0010
0010
0000
,
1000
0010
1000
0100
,
1000
0010
0010
0000
,
1000
0010
0001
0000
,
1001
0010
0010
0000
,
1001
0010
1000
0100
,
1000
0010
0010
0000
,
1000
0010
0101
0000
,
1000
0010
0010
0000
,
1000
0010
1000
0100
,
1000
0010
0010
0000
,
1000
0010
0001
0100
,
1001
0000
0010
0000
,
0101
0000
0001
0000
,
1010
0000
0100
0000
,
0011
0000
1000
0000
,
0101
0000
0010
0000
,
1010
0000
0100
0000
,
0011
0000
1000
0000
,
0001
0000
0010
0000
,
1010
0000
0100
0000
,
0001
0000
1000
0000
,
1000
0010
0010
0000
,
1000
0010
1000
0100
,
1000
0010
0010
0000
,
1000
0010
0001
0000
,
1001
0000
0000
0000
,
0000
0000
0000
0000
1000
0010
0010
0000
,
0001
0000
0000
0000
,
0000
0000
0010
0010
0010
0000
0000
0000
1000
0000
0000
0000
0100
0000
0100
0000
,
0000
0100
0000
0000
0000
0000
0000
0000
0000
0000
0000
0000
0000
0000
0000
0000
,
0000
0000
0000
0000
,
0001
0010
0001
0100
,
0001
0010
0001
0100
,
0110
0000
0001
0010
,
0100
0000
0001
0010
,
0100
0000
0001
0010
,
0100
0000
0000
0100
,
1001
0000
0010
0000
,
1000
0000
0010
0100
,
1000
0000
0010
0000
,
1000
0000
0010
0100
,
1001
0000
1000
0000
,
1001
0010
1000
0000
,
1000
0010
1000
0100
,
0010
0000
0010
0000
,
0010
0010
0010
0010
,
1001
0000
0000
0000
;

//--------------- dance-single - ----------------
#NOTES:
     dance-single:
     :
     Medium:
     7:
     0,0,0,0,0:
0000
0000
0000
0000
,
0000
0000
0000
0000
,
0000
0000
0000
0000
,
0000
0000
0000
0000
,
1000
0010
0010
0001
,
1000
0010
0001
1010
,
1000
0010
0010
0001
,
1000
0010
1000
0100
,
1000
0000
0010
0010
0010
0000
0100
0000
,
1000
0010
0001
0000
,
1001
0010
0010
1001
,
0110
0010
1000
0100
,
1000
0010
0010
1001
,
1000
0000
0010
0000
0101
0100
0100
0000
,
1000
0010
0010
0001
,
1000
0010
1000
0100
,
1000
0000
0010
0010
0000
0010
0000
1000
,
1000
0010
0001
0100
,
1001
0000
0010
0010
0000
0010
0000
1000
,
1001
0001
0001
0100
,
1010
0000
0100
0100
0000
0100
0000
0010
,
0011
0100
1000
1000
,
0101
0000
0010
0010
0000
0010
0000
1000
,
1010
1000
0100
1001
,
0011
0000
1000
0000
,
0001
0000
0010
0000
,
1010
0000
1100
0000
,
0001
0000
1000
0000
,
1000
0010
0010
0001
,
1000
0010
1000
0100
,
1000
0010
0010
0001
,
1000
0010
0001
0000
,
1001
0000
0000
0000
,
0010
0000
0000
0000
1000
0010
0010
0000
,
0001
0000
0000
0000
,
0000
0000
0010
0010
0010
0000
0000
0000
1000
0000
0000
0000
0100
0000
0100
0000
,
0000
0100
0000
1000
0000
1000
0000
0000
0000
0000
0000
0000
0000
0000
0000
0000
,
0000
0000
0000
0000
,
1001
1010
0001
0100
,
0001
1010
0001
0100
,
0110
1010
0001
0010
,
0100
1010
0001
0010
,
0100
1010
0001
0010
,
0100
0000
0101
0100
,
1001
0010
0010
0001
,
1000
1010
0010
0100
,
1000
0011
0010
0000
,
0000
0000
1000
0000
0000
1000
0000
0000
0010
0000
0010
0000
0000
0000
0100
0000
,
0000
1000
0000
1000
0000
0000
0010
0000
0000
0010
0000
0010
0000
0100
0000
0000
,
1001
0010
1001
0000
,
1010
0010
1000
0100
,
1010
0001
0010
0000
,
0010
1010
0010
0010
,
1001
0000
0000
0000
;

//--------------- dance-single - ----------------
#NOTES:
     dance-single:
     :
     Hard:
     11:
     0,0,0,0,0:
0000
0000
0000
0000
,
0000
0000
0000
0000
,
0000
0000
0000
0000
,
0000
0000
0000
0000
,
1000
1000
0010
1000
0010
0000
0001
0000
,
1000
1000
0010
1000
0001
0000
1010
0010
,
1000
1000
0010
1000
0010
0000
0001
0001
,
1000
1000
0010
0010
1000
0000
0100
0100
,
1001
0010
0010
0100
,
1000
0010
0010
0000
0001
1000
0001
0000
,
1001
0010
0010
1001
,
0110
0010
1000
0100
,
1000
0000
0010
1000
0010
0000
1001
0000
,
1000
0100
0010
0000
0101
0100
0100
0000
,
1000
0001
0010
0010
0010
0000
0001
0000
,
1000
0010
1000
0100
,
1001
0000
0010
0010
0000
0010
0000
1000
,
0000
0000
0010
0000
0000
0000
0010
0000
0000
0100
0001
0000
0100
0000
1000
0000
,
1001
0000
0010
0010
0000
0010
0000
1000
,
0000
0000
0001
0000
0000
0000
0001
0000
0000
0100
0010
0000
0100
0000
0010
0000
,
1010
0000
0100
0100
0000
0100
0000
0010
,
0000
0000
0001
0000
0000
0000
0001
0000
0000
1000
0100
0000
1000
0000
0100
0000
,
0101
0000
0010
0010
0000
0010
0000
1000
,
0000
1010
0000
0010
0000
0001
0000
0001
,
0011
0000
1000
0000
,
0001
0000
0010
0000
,
1010
0000
1100
0000
,
0001
0000
0000
0000
0000
0000
0000
0000
1000
0000
0000
0000
0000
0010
0010
0010
,
1010
0010
0110
0011
,
1000
1010
1000
0101
,
1010
0010
0010
0001
,
1010
0010
0001
0000
,
1001
0000
0000
0000
,
0010
0000
0000
0000
1000
0010
0010
0000
,
0001
0000
0000
0000
,
0000
0000
0010
0010
0010
0000
0000
0000
0000
1000
0000
0000
0100
0000
0100
0000
,
0000
0100
1000
1000
0000
1000
0000
1000
0000
0000
0000
0000
0000
0000
0000
0000
,
0000
0000
0000
0001
,
1001
1000
1010
0010
1000
0000
0100
0100
,
0001
0001
1010
1000
0001
0000
0100
0100
,
0110
0000
1010
1000
0001
0000
0010
1000
,
0100
0000
1010
0010
0001
0000
0010
0000
,
0100
1010
0001
0010
,
0100
0100
0101
0100
,
1001
0010
0010
0001
,
1000
1010
0010
0100
,
1001
0011
0010
0000
,
0000
0000
1000
0000
0000
1000
0000
0000
0010
0000
0010
0000
0000
0100
0000
0000
,
0000
1000
0000
1000
0000
0000
0010
0000
0000
0010
0000
0010
0000
0100
0000
0000
,
1001
1000
0010
0000
1001
1000
0010
0000
,
1001
1000
0010
0000
1001
1000
0100
0000
,
1010
1000
0001
0000
0010
0010
0000
1000
,
0010
0010
1010
1000
0010
0010
0000
0000
,
1001
0000
0000
0000
;

//--------------- dance-double - ----------------
#NOTES:
     dance-double:
     :
     Easy:
     5:
     0,0,0,0,0:
00000000
00000000
00000000
00000000
,
00000000
00000000
00000000
00000000
,
00000000
00000000
00000000
00000000
,
00000000
00000000
00000000
00000000
,
00000001
00000010
00000100
00000000
,
00010000
00001000
00100000
00000000
,
00010000
00100000
00100000
00000000
,
10000000
00100000
10000000
01000000
,
10000000
00100000
01000000
00000000
,
00001000
00010000
00000100
00000000
,
00001001
00000010
00000010
00000000
,
00001100
00000010
00010000
00001000
,
01000000
00100000
00100000
00000000
,
10000000
00100000
01010000
00000000
,
10000000
00100000
00100000
00000000
,
10000000
00100000
10000000
01000000
,
10000000
00100000
01000000
00000000
,
00001000
00010000
00000010
00000100
,
00001001
00000000
00000010
00000000
,
00000101
00000000
00000001
00000000
,
00001010
00000000
00000100
00000000
,
00000011
00000000
00001000
00000000
,
00011000
00000000
00100000
00000000
,
00110000
00000000
01000000
00000000
,
10100000
00000000
10000000
00000000
,
00010000
00000000
00100000
00000000
,
10100000
00000000
01000000
00000000
,
00100000
00001000
00010000
00000100
,
00001000
00000010
00000010
00000000
,
00001000
00000010
00001000
00000100
,
00001000
00000010
00010000
00000000
,
10000000
00100000
00010000
00000000
,
10010000
00000000
00000000
00000000
,
00000000
00000000
00000000
00000000
10000000
00100000
00100000
00000000
,
00010000
00000000
00000000
00000000
,
00000000
00000000
00100000
00100000
00100000
00000000
00000000
00000000
10000000
00000000
00000000
00000000
01000000
00000000
01000000
00000000
,
00000000
01000000
00000000
00000000
00000000
00000000
00000000
00000000
00000000
00000000
00000000
00000000
00000000
00000000
00000000
00000000
,
00000000
00000000
00000000
00000000
,
10000000
01000000
10000000
00100000
,
00010000
00001000
00010000
00000010
,
00001001
00000000
00000100
00000001
,
00000010
00000000
00000001
00001000
,
00000100
00000000
00010000
00000010
,
00001000
00001000
00001000
00001000
,
01010000
00000000
00100000
00000000
,
10000000
00000000
00100000
01000000
,
10000000
00000000
00100000
00000000
,
10000000
00000000
00100000
01000000
,
10010000
00000000
10000000
00000000
,
10010000
00100000
10000000
00000000
,
00010000
00100000
00000010
00001000
,
00000010
00000000
00000001
00000000
,
00000010
00000001
00000010
00000010
,
00001001
00000000
00000000
00000000
;

//--------------- dance-double - ----------------
#NOTES:
     dance-double:
     :
     Medium:
     7:
     0,0,0,0,0:
00000000
00000000
00000000
00000000
,
00000000
00000000
00000000
00000000
,
00000000
00000000
00000000
00000000
,
00000000
00000000
00000000
00000000
,
00010000
00001000
00100000
00010000
,
10000000
00100000
00010000
10100000
,
10000000
00100000
01000000
00001000
,
00010000
00000010
00001000
00000100
,
00001000
00000000
00000010
00000010
00000010
00000000
00000100
00000000
,
00001000
00000010
00010000
00000000
,
00110000
01000000
10000000
10010000
,
01100000
00100000
10000000
01000000
,
10000000
00100000
00100000
10010000
,
00001000
00000000
00010000
00000000
00001100
00000100
00000100
00000000
,
00001000
00000010
00000010
00000001
,
00001000
00000010
00010000
00001000
,
01000000
00000000
00100000
00100000
00000000
00100000
00000000
10000000
,
10000000
00100000
00010000
01000000
,
10010000
00000000
00100000
00100000
00000000
00100000
00000000
10000000
,
10010000
00100000
00001000
00010000
,
00001100
00000000
00000100
00000100
00000000
00000100
00000000
00000010
,
00000011
00000100
00001000
00001000
,
00000101
00000000
00000010
00000010
00000000
00000010
00000000
00001000
,
00001010
00001000
00000100
00001000
,
00110000
00000000
10000000
00000000
,
00010000
00000000
00100000
00000000
,
00011000
00000000
00001100
00000000
,
00010000
00000000
00001000
00000000
,
01000000
00100000
00100000
00010000
,
10000000
00100000
10000000
01000000
,
10000000
00100000
00010000
00001000
,
00000100
00000010
00000001
00000000
,
00001001
00000000
00000000
00000000
,
00100000
00000000
00000000
00000000
10000000
00100000
00100000
00000000
,
00010000
00000000
00000000
00000000
,
00000000
00000000
00100000
00100000
00100000
00000000
00000000
00000000
10000000
00000000
00000000
00000000
01000000
00000000
01000000
00000000
,
00000000
01000000
00000000
10000000
00000000
10000000
00000000
00000000
00000000
00000000
00000000
00000000
00000000
00000000
00000000
00000000
,
00000000
00000000
00000000
00000000
,
00011000
00110000
10000000
01000000
,
00010000
10100000
00010000
01000000
,
00011000
00110000
00010000
00100000
,
00001000
01000000
00001000
00010000
,
00000100
00001010
00000001
00000010
,
00000001
00000100
00000101
00000100
,
00001001
00000010
00000010
00000100
,
00001000
00011000
00100000
01000000
,
10000000
00110000
00100000
00000000
,
00000000
00000000
10000000
00000000
00000000
10000000
00000000
00000000
00100000
00000000
00100000
00000000
00000000
00000000
01000000
00000000
,
00000000
10000000
00000000
10000000
00000000
00000000
00100000
00000000
00000000
00100000
00000000
00100000
00000000
01000000
00000000
00000000
,
10010000
00100000
00011000
00000000
,
00110000
00010000
10000000
01000000
,
10100000
00010000
00001000
00000000
,
00000010
00010010
00001000
00100000
,
00101000
00000000
00000000
00000000
;

//--------------- dance-double - ----------------
#NOTES:
     dance-double:
     :
     Hard:
     11:
     0,0,0,0,0:
00000000
00000000
00000000
00000000
,
00000000
00000000
00000000
00000000
,
00000000
00000000
00000000
00000000
,
00000000
00000000
00000000
00000000
,
00000010
00001000
00000010
00001000
00000100
00000000
00010000
00000000
,
00001000
00010000
00001000
00010000
00000100
00000000
00011000
00100000
,
00010000
10000000
01000000
00001000
00010000
00000000
00000010
00000010
,
00001000
00001000
00000100
00000100
00010000
00000000
00001000
01000000
,
00011000
00100000
00001000
00010000
,
00000100
00000010
00000010
00000000
00000001
00001000
00000001
00000000
,
00001001
00000100
00010000
00011000
,
00110000
01000000
10000000
01000000
,
10000000
00000000
00100000
10000000
00100000
00000000
10010000
00000000
,
01000000
00010000
00000010
00000000
00000101
00000100
00000100
00000000
,
00000001
00001000
00000010
00000010
00000010
00000000
00000001
00000000
,
00001000
00000010
00010000
00001000
,
00011000
00000000
00100000
00100000
00000000
10000000
00000000
00010000
,
00000000
00000000
00100000
00000000
00000000
00000000
10000000
00000000
00000000
01000000
00010000
00000000
01000000
00000000
00010000
00000000
,
10010000
00000000
00100000
00100000
00000000
00100000
00000000
10000000
,
00000000
00000000
00010000
00000000
00000000
00000000
00010000
00000000
00000000
01000000
00100000
00000000
01000000
00000000
00100000
00000000
,
10100000
00000000
01000000
01000000
00000000
01000000
00000000
00100000
,
00000000
00000000
00010000
00000000
00000000
00000000
00000010
00000000
00000000
00001000
00000100
00000000
00001000
00000000
00000100
00000000
,
00000011
00000000
00000010
00000100
00000000
00001000
00000000
00000100
,
00000000
00011000
00000000
01000000
00000000
00010000
00000000
00010000
,
00110000
00000000
01000000
00000000
,
00001000
00000000
00100000
00000000
,
00001010
00000000
00001100
00000000
,
00010000
00000000
00000000
00000000
00000000
00000000
00000000
00000000
00001000
00000000
00000000
00000000
00000000
00100000
00100000
00100000
,
00110000
00100000
01100000
10100000
,
10000000
10100000
10000000
01010000
,
10100000
00100000
01000000
00001000
,
00011000
00000010
00000001
00000000
,
00001001
00000000
00000000
00000000
,
00100000
00000000
00000000
00000000
10000000
00100000
00100000
00000000
,
00010000
00000000
00000000
00000000
,
00000000
00000000
00100000
00100000
00100000
00000000
00000000
00000000
00000000
10000000
00000000
00000000
01000000
00000000
01000000
00000000
,
00000000
01000000
10000000
10000000
00000000
10000000
00000000
10000000
00000000
00000000
00000000
00000000
00000000
00000000
00000000
00000000
,
00000000
00000000
00000000
00010000
,
10010000
10000000
10100000
00100000
00010000
00000000
01000000
01000000
,
00010000
00010000
10100000
10000000
00010000
00000000
01000000
01000000
,
01100000
00000000
10100000
01000000
00001000
00000000
00010000
00000010
,
00000100
00000000
00001010
00000100
00000001
00000000
00000010
00000000
,
00000100
00011000
00100000
00010000
,
01000000
01000000
01010000
01000000
,
10010000
00100000
00100000
00010000
,
10000000
10100000
00100000
01000000
,
10010000
00101000
00000010
00000000
,
00000000
00000000
00001000
00000000
00000000
00001000
00000000
00000000
00000010
00000000
00000010
00000000
00000000
00000100
00000000
00000000
,
00000000
00001000
00000000
00001000
00000000
00000000
00100000
00000000
00000000
00100000
00000000
00100000
00000000
01000000
00000000
00000000
,
10010000
10000000
00100000
00000000
10010000
10000000
00100000
00000000
,
10010000
10000000
00100000
00000000
10010000
10000000
01000000
00000000
,
10100000
10000000
00010000
00000000
00100000
00010000
00000000
00001000
,
00000010
00000010
00001010
00001000
00000010
00000010
00000000
00000000
,
00001001
00000000
00000000
00000000
;
