#TITLE:INFINITE PRAYER;
#SUBTITLE:;
#ARTIST:L.E.D. LIGHT feat. Goro;
#TITLETRANSLIT:;
#SUBTITLETRANSLIT:;
#ARTISTTRANSLIT:;
#GENRE:;
#CREDIT:;
#MUSIC:infi_main.ogg;
#BANNER:infi_th.png;
#BACKGROUND:infi_bk.png;
#CDTITLE:;
#SAMPLESTART:31.526;
#SAMPLELENGTH:15.000;
#SELECTABLE:YES;
#OFFSET:0.180;
#BPMS:0.000=134.579
,24.000=137.035
,259.000=155.172
;
#STOPS:;
#DISPLAYBPM:134.000:155.000;
#BGCHANGES:;
#FGCHANGES:;

//--------------- dance-single - ----------------
#NOTES:
     dance-single:
     :
     Easy:
     5:
     0,0,0,0,0:
0000
0000
0000
0000
,
0000
0000
0000
0000
,
0000
0000
0000
0000
,
0000
0000
0000
0000
,
0000
0000
0000
0000
,
0000
0000
0000
0000
,
1000
0000
0000
0000
,
0001
0000
0000
0000
,
1000
0000
0000
0000
,
0001
0000
0000
0000
,
1000
0000
0100
0000
,
0100
0000
0001
0000
,
1000
0000
0100
0000
,
0100
0000
0001
0000
,
0001
0000
0010
0000
,
0010
0000
1000
0000
,
0001
0000
0010
0000
,
0010
0000
0000
0000
,
0001
0100
0010
0100
,
0000
0100
0010
0100
,
0110
1000
0000
1000
,
0001
1000
0001
1000
,
0010
0000
1000
0010
,
1000
0010
1000
0010
,
0100
0000
0001
0100
,
0000
0000
0000
0000
,
1000
0100
0100
0100
,
0010
0010
0100
0010
,
0001
0100
0010
0100
,
0100
0000
0010
0000
,
1001
0100
0010
0100
,
0010
0100
0010
0100
,
1000
1000
0010
0001
,
0000
0000
0000
0000
,
0100
0100
0010
0010
,
0000
0100
0010
0010
,
0000
0100
0001
0001
,
0000
0100
0001
0001
,
0010
0100
0001
0100
,
0100
0000
0100
0000
,
0100
0000
0010
0000
,
0100
0000
0000
0000
0010
0000
0000
0000
0100
0000
0000
0100
0000
0000
0000
0000
,
0100
0000
0000
0000
,
0000
0000
0000
0000
,
0100
0000
0010
0100
,
0100
0000
0000
0000
,
0100
0000
0000
0000
,
0010
0000
0000
0000
,
0100
0000
0000
0000
,
0000
0000
0000
0000
,
1001
0000
0000
0000
0000
0000
0000
0100
,
0100
0000
0000
0000
0000
0000
0000
0010
,
0010
0000
0000
0000
,
1000
0010
0100
0010
,
0100
0000
1000
0010
,
1000
0010
1000
0010
,
0001
0000
0001
0100
,
0000
0000
0000
0000
,
1000
0100
0010
0100
,
0010
0000
0010
0100
,
0100
1000
0001
1000
,
0001
1000
0001
1000
,
0010
0000
1000
0010
,
1000
0010
1000
0010
,
0001
0000
0001
0100
;

//--------------- dance-single - ----------------
#NOTES:
     dance-single:
     :
     Medium:
     6:
     0,0,0,0,0:
0000
0000
0000
0000
,
0000
0000
0000
0000
,
0000
0000
0000
0000
,
0000
0000
0000
0000
,
0000
0000
0000
0000
,
0000
0000
0000
0000
,
1000
0000
0000
0000
,
0001
0000
0000
0000
,
1000
0000
0000
0000
,
0001
0000
0000
0000
,
1000
0000
0100
0000
,
0100
0000
0001
0000
,
1000
0000
0100
0000
,
0100
0000
0001
0000
,
0001
0000
0010
0000
,
0010
0000
1000
0000
,
0001
0000
0010
0000
,
0010
0000
0000
0000
,
1001
0100
0010
0100
,
0010
0100
0010
0100
,
0110
1000
0001
1000
,
0001
1000
0001
1000
,
1010
0000
1000
0010
,
1000
0010
1000
0010
,
0101
0000
0001
0100
,
0000
0000
0000
0000
,
1100
0100
0100
0100
,
0010
0010
0100
0010
,
0101
0100
0010
0100
,
0100
0010
0010
0010
,
1001
0100
0010
0100
,
0010
0100
0010
0100
,
1100
1000
0010
0001
,
0000
0000
0000
0000
,
0100
0100
0010
0010
,
0100
0100
0010
0010
,
0100
0100
0001
0001
,
0100
0100
0001
0001
,
1010
0100
0011
0100
,
0100
0000
0100
0000
,
0100
0000
0010
0000
,
0100
0000
0000
0000
0010
0000
0000
0000
0100
0000
0000
0100
0000
0010
0000
0000
,
0100
0000
0000
0000
,
0000
0000
0000
0000
,
0100
0000
0010
0100
,
0100
0000
0000
0000
,
0100
0000
0000
0000
,
0010
0000
0000
0000
,
0100
0000
0000
0000
,
0000
0000
0000
0000
,
1001
0000
0000
0000
0000
0000
0000
0100
,
0100
0000
0000
0000
0000
0000
0000
0010
,
0010
0000
0000
0000
0000
0000
0000
1000
,
1000
0000
0010
0000
0100
0000
0010
0100
,
0100
0000
1000
0010
,
1000
0010
1000
0010
,
0101
0000
0001
0100
,
0000
0000
0000
0000
,
1001
0100
0010
0100
,
0010
0100
0010
0100
,
0110
1000
0001
1000
,
0001
1000
0001
1000
,
1010
0000
1000
0010
,
1000
0010
1000
0010
,
0101
0000
0001
0100
;

//--------------- dance-single - ----------------
#NOTES:
     dance-single:
     :
     Hard:
     12:
     0,0,0,0,0:
0000
0000
0000
0000
,
0000
0000
0000
0000
,
0000
0000
0000
0000
,
0000
0000
0000
0000
,
0000
0000
0000
0000
,
0000
0000
0000
0000
,
1000
0100
0100
0100
0100
0100
0100
0100
,
0001
0010
0010
0010
0010
0010
0010
0010
,
1000
0001
0001
0001
0001
0001
0001
0001
,
0001
1000
1000
1000
1000
1000
1000
1000
,
1000
0000
0000
0100
0100
0000
0000
0000
,
0100
0000
0000
0000
0001
0001
0000
0000
,
1000
0000
0000
0000
0100
0100
0000
0000
,
0100
0000
0100
0000
0001
0000
0010
0010
,
0001
0000
0000
0001
0000
0000
0000
0000
0010
0000
0000
0001
0000
0000
0000
0000
,
0010
0000
0000
0010
0000
0000
0000
0000
1000
0000
0000
1000
0000
0000
0000
0000
,
0001
0000
0000
0001
0000
0000
0000
0000
0010
0000
0000
0010
0000
0000
0000
0000
,
0010
0000
0000
0000
,
1001
0000
0100
0000
0100
0000
0000
0000
0010
0000
0000
0010
0000
0000
0000
0000
,
0010
0000
0100
0000
0100
0000
0000
0000
0010
0000
0000
0010
0000
0000
0100
0000
,
0000
0000
0100
0000
1000
0000
0000
0010
0000
0000
0000
0000
1000
0000
0100
0000
,
0100
1000
0001
1000
,
1001
0000
0100
0000
0100
0000
0000
0000
0010
0000
0000
0010
0000
0000
0000
0000
,
0010
0000
0100
0000
0100
0000
0000
0000
0010
0000
0000
0010
0000
0000
0000
0000
,
0100
0000
0000
0000
1000
0000
0000
0010
0000
0000
0000
0000
1000
0000
0000
0000
,
1100
0000
0000
0000
,
1000
0000
0000
0100
0010
0000
0000
0000
0000
0000
0100
0000
0000
0000
0000
0000
,
0010
0000
0000
0000
0010
0000
0000
0010
0000
0000
0100
0000
0010
0000
0000
0000
,
0101
0000
0000
0010
0100
0000
0000
0000
0010
0000
0000
0100
0000
0000
0010
0000
,
0100
0000
0000
0000
0110
0000
0000
0100
0010
0000
0000
1000
0000
0000
0100
0000
,
1001
0000
0000
0010
0100
0000
0000
0000
0010
0000
0000
0010
0000
0000
0000
0000
,
0010
0000
0000
1000
0100
0000
0000
0000
0010
0000
0000
0001
0000
0000
0000
0000
,
1100
0000
0000
0100
1000
0000
0000
0010
0000
0000
0000
0001
0000
0000
0000
0000
,
0010
0000
0000
0000
,
0100
0000
0000
1000
0100
0000
0000
0000
0010
0000
0000
0000
0010
0000
0000
0100
,
0100
0000
0000
0100
0100
0000
0000
0001
0010
0000
0000
0001
0010
0000
0000
0000
,
0100
0000
0000
1000
0100
0000
0000
0010
0001
0000
0000
0000
0001
0000
0000
1000
,
0100
0000
0000
0000
0100
0000
0000
0000
0001
0000
0000
0010
0001
0000
0000
1000
,
1010
0000
0000
0000
0100
0000
0000
0000
0011
0000
0000
0100
0100
0000
0000
0010
,
0100
0000
0000
0000
0010
0000
0000
0010
0100
0000
0000
0000
1100
0000
0000
0010
,
0100
0000
0000
0000
0101
0000
0000
0000
0110
0000
0000
0000
0100
0000
0000
0010
,
0100
0110
0100
0000
,
0100
1000
1000
1000
0100
0010
0010
0010
,
0001
0100
1000
0010
0001
0100
1000
1000
,
1000
0100
0010
0001
0101
1000
0100
0010
,
0100
1000
1010
0100
1001
0100
0010
0000
,
1000
0100
0100
0100
0100
0100
0100
0100
,
0001
0010
0010
0010
0010
0010
0010
0010
,
1000
0001
0001
0001
0001
0001
0001
0001
,
0001
1000
1000
1000
1000
1000
1000
1000
,
1000
0000
0000
0100
0100
0000
0000
0000
,
0100
0000
0000
0000
0001
0001
0000
0000
,
1000
0000
0000
0000
0100
0100
0000
0000
,
0100
0000
0100
0000
0001
0000
0010
0010
,
0001
0000
0000
0001
0000
0000
0000
0000
0010
0000
0000
0000
0001
0000
0000
0000
,
0010
0000
0000
0010
0000
0000
0000
0000
1000
0000
0000
1000
0000
0000
0000
0000
,
0101
0000
0001
0100
,
0000
0000
0000
0000
,
1001
0000
0100
0000
0100
0000
0000
0000
0010
0000
0000
0010
0000
0000
0000
0000
,
0010
0000
0100
0000
0100
0000
0000
0000
0010
0000
0000
0010
0000
0000
0100
0000
,
0000
0000
0100
0000
1000
0000
0000
0010
0000
0000
0000
0000
1000
0000
0100
0000
,
0100
1000
0001
1000
,
1001
0000
0100
0000
0100
0000
0000
0000
0010
0000
0000
0010
0000
0000
0000
0000
,
0010
0000
0100
0000
0100
0000
0000
0000
0010
0000
0000
0010
0000
0000
0000
0000
,
0100
0000
0000
0000
1000
0000
0000
0010
0000
0000
0000
0000
1000
0000
0000
0000
,
1100
0000
0000
0000
;

//--------------- dance-double - ----------------
#NOTES:
     dance-double:
     :
     Easy:
     6:
     0,0,0,0,0:
00000000
00000000
00000000
00000000
,
00000000
00000000
00000000
00000000
,
00000000
00000000
00000000
00000000
,
00000000
00000000
00000000
00000000
,
00000000
00000000
00000000
00000000
,
00000000
00000000
00000000
00000000
,
10000000
00000000
00000000
00000000
,
00010000
00000000
00000000
00000000
,
10000000
00000000
00000000
00000000
,
00010000
00000000
00000000
00000000
,
00001000
00000000
00000100
00000000
,
00000100
00000000
00000001
00000000
,
00001000
00000000
00000100
00000000
,
00000010
00000000
00000100
00000000
,
00010000
00000000
00100000
00000000
,
00100000
00000000
10000000
00000000
,
00010000
00000000
00100000
00000000
,
00100000
00000000
00000000
00000000
,
00001000
00000100
00000010
00000100
,
00000010
00000100
00000010
00000100
,
00000100
00001000
00000001
00000000
,
00000001
00001000
00000000
00010000
,
00001000
00000000
01000000
00100000
,
10000000
00100000
10000000
00100000
,
01000000
00000000
00010000
01000000
,
00000000
00000000
00000000
00000000
,
00001000
00000100
00000100
00000000
,
00000010
00000010
00000100
00000000
,
00000001
00000100
00000010
00000100
,
00000100
00000010
00000010
00000000
,
00010000
01000000
00100000
01000000
,
00100000
01000000
00100000
01000000
,
10000000
10000000
00100000
00010000
,
00000000
00000000
00000000
00000000
,
00000100
00000100
00000010
00000010
,
00000100
00000100
00000010
00000000
,
00000100
00000100
00000001
00000001
,
00000100
00000000
00001000
00000000
,
00100000
01000000
00010000
01000000
,
01000000
00000000
01000000
00000000
,
00001000
00000000
00000010
00000000
,
00000100
00000000
00000000
00000000
00000010
00000000
00000000
00000000
00000100
00000000
00000000
00000100
00000000
00000000
00000000
00000000
,
00000100
00000000
00000000
00000000
,
00000000
00000000
00000000
00000000
,
01000000
00000000
00100000
01000000
,
01000000
00000000
00000000
00000000
,
01000000
00000000
00000000
00000000
,
00000010
00000000
00000000
00000000
,
00000100
00000000
00000000
00000000
,
00000000
00000000
00000000
00000000
,
00001001
00000000
00000000
00000000
00000000
00000000
00000000
01000000
,
01000000
00000000
00000000
00000000
00000000
00000000
00000000
00100000
,
00100000
00000000
00000000
00000000
,
10000000
00100000
01000000
00100000
,
01000000
00000000
00001000
00000010
,
00001000
00000010
00001000
00000010
,
00000001
00000000
00000001
00000100
,
00000000
00010000
00000000
00000000
,
00011000
00000000
01000000
00100000
,
01000000
00100000
01000000
00000000
,
01100000
00000000
00010000
00001000
,
00000010
00000001
00001000
00000001
,
00000010
00000000
00000100
00000010
,
00000001
00000000
00001000
00000010
,
00010000
00000000
00001000
01000000
;

//--------------- dance-double - ----------------
#NOTES:
     dance-double:
     :
     Medium:
     7:
     0,0,0,0,0:
00000000
00000000
00000000
00000000
,
00000000
00000000
00000000
00000000
,
00000000
00000000
00000000
00000000
,
00000000
00000000
00000000
00000000
,
00000000
00000000
00000000
00000000
,
00000000
00000000
00000000
00000000
,
00010000
00000000
00000000
00000000
,
10000000
00000000
00000000
00000000
,
00010000
00000000
00000000
00000000
,
01000000
00000000
00000000
00000000
,
00001000
00000000
00010000
00000000
,
00000100
00000000
00001000
00000000
,
00000001
00000000
00000100
00000000
,
00010000
00000000
00001000
00000000
,
00010000
00000000
00000100
00000000
,
00010000
00000010
00000000
00000000
,
00000100
00000000
00000010
00000000
,
00001000
00000000
00000000
00000000
,
00011000
01000000
00100000
01000000
,
00100000
01000000
00100000
01000000
,
01100000
00001000
00010000
00001000
,
00010000
00001000
00010000
00001000
,
00011000
00000000
00001000
00000010
,
00001000
00000010
00001000
00000010
,
00000101
00000000
00000001
00000100
,
00000000
00000000
00000000
00000000
,
00011000
01000000
01000000
01000000
,
00100000
00100000
01000000
00100000
,
01010000
01000000
00100000
01000000
,
00001000
00010000
00000010
00001000
,
00001001
00000100
00000010
00000100
,
00000010
00000100
00000010
00000100
,
00000101
00000010
00010000
00001000
,
00000000
00000000
00000000
00000000
,
01000000
01000000
00100000
00100000
,
10000000
10000000
00010000
00010000
,
01000000
01000000
00001000
00001000
,
00010000
00010000
00000100
00000100
,
00001100
00000010
00000011
00000010
,
00000010
00000000
00000100
00000000
,
00010000
00000000
00001000
00000000
,
01000000
00000000
00000000
00000000
00100000
00000000
00000000
00000000
01000000
00000000
00000000
01000000
00000000
00100000
00000000
00000000
,
01000000
00000000
00000000
00000000
,
00000000
00000000
00000000
00000000
,
00001000
00000000
00010000
00000100
,
00000100
00000000
00000000
00000000
,
00000100
00000000
00000000
00000000
,
00010000
00000000
00000000
00000000
,
00000010
00000000
00000000
00000000
,
00000000
00000000
00000000
00000000
,
00011000
00000000
00000000
00000000
00000000
00000000
00000000
01000000
,
01000000
00000000
00000000
00000000
00000000
00000000
00000000
00100000
,
00100000
00000000
00000000
00000000
00000000
00000000
00000000
00001000
,
00001000
00000000
00010000
00000000
00000100
00000000
00000010
00000100
,
00000100
00000000
00001000
00000010
,
00001000
00000010
00001000
00000010
,
00001100
00000000
00100000
00001000
,
00000000
00000000
00000000
00000000
,
00110000
01000000
00100000
01000000
,
00100000
01000000
00100000
01000000
,
01100000
00010000
00100000
00001000
,
00010010
00000000
00001000
00000001
,
00001010
00000000
00001000
00000010
,
00001000
00000010
00010000
00001000
,
01010000
00000000
00010000
01000000
;

//--------------- dance-double - ----------------
#NOTES:
     dance-double:
     :
     Hard:
     12:
     0,0,0,0,0:
00000000
00000000
00000000
00000000
,
00000000
00000000
00000000
00000000
,
00000000
00000000
00000000
00000000
,
00000000
00000000
00000000
00000000
,
00000000
00000000
00000000
00000000
,
00000000
00000000
00000000
00000000
,
10000000
01000000
01000000
01000000
01000000
01000000
01000000
01000000
,
10000000
00100000
00100000
00100000
00100000
00100000
00100000
00100000
,
01000000
00001000
00001000
00001000
00001000
00001000
00001000
00001000
,
00010000
00000000
00000100
00000100
00000100
00000100
00000100
00000100
,
00000100
00000000
00000000
00000010
00000010
00000000
00000000
00000000
,
00010000
00000000
00000000
00000000
00001000
00001000
00000000
00000000
,
00100000
00000000
00000000
00000000
01000000
01000000
00000000
00000000
,
01000000
00000000
01000000
00000000
00100000
00000000
00001000
00010000
,
00000010
00000000
00000000
00000100
00000000
00000000
00000000
00000000
00000010
00000000
00000000
00001000
00000000
00000000
00000000
00000000
,
00000010
00000000
00000000
00000010
00000000
00000000
00000000
00000000
00001000
00000000
00000000
00001000
00000000
00000000
00000000
00000000
,
00000001
00000000
00000000
00000001
00000000
00000000
00000000
00000000
00000010
00000000
00000000
00000010
00000000
00000000
00000000
00000000
,
00010000
00000000
00000000
00000000
,
00011000
00000000
01000000
00000000
01000000
00000000
00000000
00000000
00100000
00000000
00000000
00100000
00000000
00000000
00000000
00000000
,
00100000
00000000
01000000
00000000
01000000
00000000
00000000
00000000
00100000
00000000
00000000
00100000
00000000
00000000
01000000
00000000
,
00000000
00000000
01000000
00000000
00001000
00000000
00000000
00010000
00000000
00000000
00000000
00000000
00000010
00000000
00000100
00000000
,
00000100
00000001
00001000
00000001
,
00001001
00000000
00000100
00000000
00000100
00000000
00000000
00000000
00001000
00000000
00000000
00001000
00000000
00000000
00000000
00000000
,
00000100
00000000
00010000
00000000
00001000
00000000
00000000
00000000
00100000
00000000
00000000
00100000
00000000
00000000
00000000
00000000
,
01000000
00000000
00000000
00000000
10000000
00000000
00000000
00100000
00000000
00000000
00000000
00000000
10000000
00000000
00000000
00000000
,
11000000
00000000
00000000
00000000
,
00100000
00000000
00000000
00001000
00010000
00000000
00000000
00000000
00000000
00000000
00000100
00000000
00000000
00000000
00000000
00000000
,
00000010
00000000
00000000
00000000
00000010
00000000
00000000
00000010
00000000
00000000
00000100
00000000
00000010
00000000
00000000
00000000
,
00001100
00000000
00000000
00000010
00000100
00000000
00000000
00000000
00000010
00000000
00000000
00000100
00000000
00000000
00000010
00000000
,
00000100
00000000
00000000
00000000
00000110
00000000
00000000
00000100
00000010
00000000
00000000
00000001
00000000
00000000
00000100
00000000
,
00001010
00000000
00000000
00000100
00010000
00000000
00000000
00000000
00001000
00000000
00000000
00100000
00000000
00000000
00000000
00000000
,
00010000
00000000
00000000
10000000
01000000
00000000
00000000
00000000
00100000
00000000
00000000
00010000
00000000
00000000
00000000
00000000
,
11000000
00000000
00000000
01000000
10000000
00000000
00000000
00100000
00000000
00000000
00000000
00010000
00000000
00000000
00000000
00000000
,
00000010
00000000
00000000
00000000
,
00000100
00000000
00000000
00000001
00000100
00000000
00000000
00000000
00000010
00000000
00000000
00000000
00000010
00000000
00000000
00000100
,
00000100
00000000
00000000
00000100
00000100
00000000
00000000
00000001
00000010
00000000
00000000
00000001
00000010
00000000
00000000
00000000
,
00000100
00000000
00000000
00010000
00001000
00000000
00000000
00100000
00010000
00000000
00000000
00000000
00010000
00000000
00000000
10000000
,
01000000
00000000
00000000
00000000
01000000
00000000
00000000
00000000
00100000
00000000
00000000
00010000
10000000
00000000
00000000
10000000
,
10100000
00000000
00000000
00000000
01000000
00000000
00000000
00000000
01010000
00000000
00000000
00010000
00010000
00000000
00000000
00100000
,
00000100
00000000
00000000
00000000
00010000
00000000
00000000
00000010
00000100
00000000
00000000
00000000
00000101
00000000
00000000
00000010
,
00000100
00000000
00000000
00000000
00000101
00000000
00000000
00000000
00000010
00000000
00000000
00000000
00000100
00000000
00000000
00000010
,
00000100
00000010
00001000
00000000
,
00000100
00010000
00001000
00010000
00001000
00100000
00100000
00100000
,
00010000
01000000
00010000
10000000
00100000
01000000
00010000
00010000
,
00010000
01000000
00100000
00000000
01010000
10000000
01000000
00100000
,
01000000
10000000
10100000
01000000
00010000
01000000
00001000
00000000
,
00010000
00000100
00000100
00000100
00000100
00000100
00000100
00000100
,
00001000
00000010
00000010
00000010
00000010
00000010
00000010
00000010
,
00000100
00000001
00000001
00000001
00000001
00000001
00000001
00000001
,
00001000
00000100
00000100
00000100
00000100
00000100
00000100
00000100
,
00001000
00000000
00000000
00000010
00000100
00000000
00000000
00000000
,
00010000
00000000
00000000
00000000
00001000
00001000
00000000
00000000
,
00100000
00000000
00000000
00000000
00010000
00010000
00000000
00000000
,
01000000
00000000
00001000
00000000
00010000
00000000
00000010
00000010
,
00001000
00000000
00000000
00000001
00000000
00000000
00000000
00000000
00000010
00000000
00000000
00000000
00000001
00000000
00000000
00000000
,
00000010
00000000
00000000
00000010
00000000
00000000
00000000
00000000
00001000
00000000
00000000
00000001
00000000
00000000
00000000
00000000
,
00000101
00000000
00000001
00000100
,
00000000
00000000
00000000
00000000
,
00011000
00000000
01000000
00000000
01000000
00000000
00000000
00000000
00100000
00000000
00000000
00100000
00000000
00000000
00000000
00000000
,
00100000
00000000
01000000
00000000
01000000
00000000
00000000
00000000
00100000
00000000
00000000
00100000
00000000
00000000
01000000
00000000
,
00000000
00000000
01000000
00000000
10000000
00000000
00000000
00100000
00000000
00000000
00000000
00000000
10000000
00000000
01000000
00000000
,
01000000
00100000
00001000
00010000
,
00011000
00000000
00001000
00000000
00010000
00000000
00000000
00000000
00000010
00000000
00000000
00000010
00000000
00000000
00000000
00000000
,
00000010
00000000
00000100
00000000
00000100
00000000
00000000
00000000
00000010
00000000
00000000
00000010
00000000
00000000
00000000
00000000
,
00010000
00000000
00000000
00000000
00001000
00000000
00000000
00100000
00000000
00000000
00000000
00000000
00001000
00000000
00000000
00000000
,
00011000
00000000
00000000
00000000
;
