#TITLE:groove 2ØØ1;
#SUBTITLE:;
#ARTIST:Sho-T feat. BREnda;
#TITLETRANSLIT:groove 2001;
#SUBTITLETRANSLIT:;
#ARTISTTRANSLIT:;
#GENRE:;
#CREDIT:;
#MUSIC:groo_main.ogg;
#BANNER:groo_th.png;
#BACKGROUND:groo_bk.png;
#CDTITLE:;
#SAMPLESTART:56.860;
#SAMPLELENGTH:15.000;
#SELECTABLE:YES;
#OFFSET:-1.950;
#BPMS:0.000=138.462
,8.000=139.896
,32.000=140.078
,80.000=139.969
,200.000=141.361
;
#STOPS:;
#DISPLAY:138:141;
#Stops:;
#BGCHANGES:;
#FGCHANGES:;

//--------------- dance-single - ----------------
#NOTES:
     dance-single:
     :
     Easy:
     5:
     0,0,0,0,0:
0000
0000
0000
0000
,
0000
0000
0000
0000
,
0010
1000
1000
0100
,
0000
0001
0100
0100
,
0010
1000
1000
0100
,
0000
0001
0100
0100
,
0010
1000
1000
0100
,
1001
0000
0000
0000
,
1000
0001
1000
0010
,
0100
0010
0001
0100
,
1000
0100
1000
1000
,
0001
0100
0001
0001
,
0010
0100
1000
1000
,
0001
1000
0001
0010
,
0100
0010
0001
0100
,
0000
0000
0000
0000
,
0100
0000
0000
0000
,
0001
0000
1000
0000
,
0010
0000
1000
0000
,
0001
0001
1000
1000
,
0010
0001
0100
0001
,
1000
0100
0100
1001
,
0010
0001
0100
0001
,
1000
0100
0100
1000
,
0010
0001
0100
0001
,
1000
0100
0100
1000
,
0010
0001
0100
0001
,
1000
0100
0100
1000
,
0010
0001
0010
1000
,
0001
1000
0100
1001
,
0010
0001
0010
1000
,
0001
1000
0100
1000
,
1001
0001
1000
0010
,
0100
0010
0001
0100
,
1000
0100
1000
1000
,
0001
0100
0001
0001
,
0010
0100
1000
1000
,
0001
1000
0001
0010
,
0100
0010
0001
0100
,
1001
0000
0000
0000
,
1000
0001
1000
0010
,
0100
0010
0001
0100
,
1000
0100
1000
1000
,
0001
0100
0001
0001
,
0010
0100
1000
1000
,
0001
1000
0001
0010
,
0100
0010
0001
0100
,
1001
0000
0000
0000
,
0011
0000
0000
0000
,
1001
0000
0000
0000
,
1001
0000
0000
0000
;

//--------------- dance-single - ----------------
#NOTES:
     dance-single:
     :
     Medium:
     9:
     0,0,0,0,0:
0000
0000
0000
0000
,
0000
0000
0000
0000
,
0010
1000
1010
0110
,
0001
0001
0100
0110
,
0010
1000
1001
0100
,
0000
0001
0100
0100
,
0010
1000
1000
0100
,
1001
0000
0000
0000
,
1000
0000
0001
0000
1000
0010
0010
0000
,
0100
0010
0001
0100
,
1000
0000
0100
1000
1000
1000
1100
0000
,
0001
0000
0100
0000
0001
0001
0001
0000
,
0010
0100
1000
1001
,
0001
0000
1100
0000
0001
0001
0010
0000
,
0100
0010
0001
0100
,
1001
0000
0000
1001
1001
0000
0000
1000
,
0100
0000
0000
0000
,
0011
0000
1001
0000
,
0011
0000
1001
0000
,
0001
0001
1000
1000
,
0010
0011
0100
1000
,
1010
0000
0100
0100
0100
0000
1001
0000
,
0010
0011
0100
0001
,
1010
0000
0100
0100
0100
0000
1001
0000
,
0010
0011
0100
0001
,
1010
0000
0100
0100
0100
0000
1001
0000
,
0010
0011
0100
0001
,
1010
0000
0100
0100
0100
0000
1001
0000
,
0010
0011
0100
1100
,
0001
0001
1001
0000
0100
0000
1001
0000
,
0010
0001
0010
1010
,
0001
1000
0100
1000
,
1001
0000
0001
0000
1000
0000
0010
0010
,
0100
0010
0001
0100
,
1000
0000
0100
1000
1000
1000
1100
0000
,
0001
0000
0100
0000
0001
0001
0001
0000
,
0010
0100
1000
1010
,
0001
0001
1000
0000
1001
0000
0010
0000
,
0100
0010
0001
0100
,
1001
1001
0000
1001
0000
1001
0000
0000
,
1000
0000
0001
0000
1000
0010
0010
0000
,
0100
0010
1001
0100
,
1000
0000
0100
1000
1000
1000
1100
0000
,
0001
0000
0100
0000
0001
0001
0001
0000
,
0010
0100
1000
1010
,
0001
0001
1000
0000
1001
0000
0010
0000
,
0100
0010
0001
0100
,
1001
1001
1001
1001
0000
0000
0000
0000
,
0011
0011
0011
0011
0000
0000
0000
0000
,
1001
1001
1001
1001
0000
0000
0000
0000
,
1001
0000
0000
0000
;

//--------------- dance-single - ----------------
#NOTES:
     dance-single:
     :
     Hard:
     13:
     0,0,0,0,0:
0000
0000
0000
0000
,
0000
0000
0000
0000
,
0010
0000
0000
0000
1000
0010
0000
0000
1010
0000
0000
0000
0110
0000
0000
0000
,
0001
0001
0101
0000
0100
0000
0110
0010
,
0010
0000
1000
1000
1001
0000
0100
0100
,
0000
1000
0000
0000
0001
0000
0000
0000
0100
0000
0100
0000
0100
0000
0000
0000
,
0010
0000
1000
1000
1000
0000
0100
0000
,
1001
0000
0000
0000
,
1010
0000
0001
1000
1000
0010
0010
0000
,
0100
0010
0010
0001
0001
0000
0100
0000
,
1000
0000
0100
1000
1000
1000
1100
0000
,
0001
0000
0100
0000
0001
0001
0001
0000
,
1010
0000
0100
1000
1000
1001
1000
0000
,
0001
0000
1100
0000
0001
0001
0010
0100
,
0100
0010
0010
0000
0001
0000
0100
0000
,
1001
0001
0000
1000
0000
0001
1000
0001
1000
0001
1000
0000
0000
1000
0000
0000
,
0100
0000
0000
0000
,
0011
0000
1001
0000
,
0011
0000
1001
0000
,
0011
1001
1001
1100
,
0010
0011
0100
1000
,
1010
0000
0100
0100
0100
0000
1001
0000
,
0010
0010
0011
0000
0100
0000
0001
0000
,
1010
0000
0100
0100
0100
0000
1001
0000
,
0010
0010
0011
0000
0100
0000
0001
0000
,
1010
0000
0100
0100
0100
0000
1001
0000
,
0010
0011
0101
0001
,
1000
0100
0100
0000
0100
0000
0100
0100
0100
0100
0100
0000
0100
0000
0000
0000
,
1001
0000
0011
0000
0100
0100
1100
0000
,
0001
0001
1001
0000
0100
0000
1001
0000
,
1010
0000
0001
0000
0010
0010
1010
0000
,
0001
1000
0100
1010
,
1001
0000
0001
0000
1000
0000
0010
0010
,
0100
0010
1001
0100
,
1100
0000
0100
1000
1000
1000
1100
0000
,
0001
0000
0100
0000
0001
0001
0001
0000
,
0010
0000
0100
0000
1000
1000
1010
0000
,
0001
0001
1000
0000
1001
0000
0010
0000
,
0101
0010
1001
0100
,
1001
0001
1000
0001
0000
1000
0001
1000
0000
0000
1001
0000
1001
0000
0000
0000
,
1000
0000
0001
0000
1000
0010
0010
0000
,
0100
0010
1001
0100
,
1000
0000
0100
1000
1000
1000
1100
0000
,
0001
0000
0101
0000
0001
0001
0001
0000
,
0010
0101
1000
1010
,
0001
0001
1000
0000
1001
0000
1010
0000
,
0100
0010
0001
0100
,
1001
0000
1001
0000
1001
0000
1001
0001
1000
0001
1000
0001
0000
0000
0011
0000
,
0011
0000
0011
0000
0011
0000
0010
0001
0010
0001
0010
0001
0000
0000
1001
0000
,
1001
0000
1001
0000
1001
0000
1000
0001
1000
0001
1000
0001
0000
0000
1001
0000
,
1001
0000
0000
0000
;

//--------------- dance-double - ----------------
#NOTES:
     dance-double:
     :
     Easy:
     5:
     0,0,0,0,0:
00000000
00000000
00000000
00000000
,
00000000
00000000
00000000
00000000
,
00100000
10000000
10000000
01000000
,
00000000
00010000
01000000
01000000
,
00100000
10000000
00010000
01000000
,
00000000
00001000
00010000
00000100
,
00000010
00001000
00001000
00000100
,
00001001
00000000
00000000
00000000
,
00000100
00010000
00001000
00100000
,
01000000
00100000
00010000
01000000
,
00010000
01000000
00001000
00010000
,
00000100
00000010
00000001
00000001
,
00000010
00000100
00001000
00001000
,
00000010
00010000
00001000
00100000
,
01000000
00100000
00010000
01000000
,
00000000
00000000
00000000
00000000
,
01000000
00000000
00000000
00000000
,
00001000
00000000
00000001
00000000
,
00000010
00000000
00000100
00000000
,
00010000
00001000
01000000
00010000
,
00100000
00010000
01000000
00010000
,
10000000
01000000
01000000
10010000
,
00100000
00010000
01000000
00010000
,
10000000
00010000
01000000
00001000
,
00010000
00000010
00000100
00000001
,
00001000
00000100
00000100
00001000
,
00000010
00000001
00000100
00000001
,
00001000
00000100
00000100
00001000
,
00000010
00001000
00000100
00010000
,
00001000
00100000
00010000
10010000
,
00100000
00010000
00100000
10000000
,
00010000
10000000
01000000
10000000
,
10010000
00010000
10000000
00100000
,
01000000
00001000
00010000
00000100
,
00001000
00000100
00001000
00001000
,
00000001
00000100
00000001
00000001
,
00000010
00000100
00010000
00001000
,
00100000
01000000
10000000
00100000
,
01000000
00100000
10000000
01000000
,
10010000
00000000
00000000
00000000
,
10000000
00010000
10000000
00100000
,
01000000
00001000
00010000
00000100
,
00001000
00000100
00001000
00001000
,
00000001
00000100
00000001
00000001
,
00000010
00000100
00010000
00001000
,
01000000
00100000
10000000
00100000
,
01000000
00100000
00010000
01000000
,
10010000
00000000
00000000
00000000
,
00110000
00000000
00000000
00000000
,
00011000
00000000
00000000
00000000
,
00001010
00000000
00000000
00000000
;

//--------------- dance-double - ----------------
#NOTES:
     dance-double:
     :
     Medium:
     9:
     0,0,0,0,0:
00000000
00000000
00000000
00000000
,
00000000
00000000
00000000
00000000
,
00000010
00001000
00001010
00000110
,
00000001
00000001
00000100
00000110
,
00000010
00001000
00001001
00000100
,
00000000
00010000
00001000
01000000
,
00100000
10000000
10000000
01000000
,
10010000
00000000
00000000
00000000
,
10000000
00000000
00010000
00000000
10000000
00100000
00100000
00000000
,
01000000
00100000
00010000
01000000
,
10000000
00000000
00010000
01000000
01000000
01000000
01010000
00000000
,
00001000
00000000
00010000
00000000
00000100
00000100
00000100
00000000
,
00000010
00000100
00001000
00001001
,
00000001
00000000
00001100
00000000
00010000
00001000
00100000
00000000
,
01000000
00100000
00010000
01000000
,
10010000
00000000
00000000
10010000
10010000
00000000
00000000
10000000
,
01000000
00000000
00000000
00000000
,
00000011
00000000
00001001
00000000
,
00000011
00000000
00001001
00000000
,
00000000
00000100
00010000
00001000
,
00100000
00110000
01000000
10000000
,
10100000
00000000
01000000
01000000
01000000
00000000
10010000
00000000
,
00100000
00110000
01000000
00010000
,
10100000
00000000
01000000
01000000
01000000
00000000
10010000
00000000
,
00100000
00110000
00001000
00010000
,
00001010
00000000
00000100
00000100
00000100
00000000
00001001
00000000
,
00000010
00000011
00000100
00000001
,
00001010
00000000
00000100
00000100
00000100
00000000
00001001
00000000
,
00000010
00001010
00011000
00100000
,
00010000
00010000
10010000
00000000
01000000
00000000
10010000
00000000
,
00100000
00010000
00100000
10100000
,
00010000
10000000
01000000
10010000
,
01010000
00000000
00001000
00000000
00010000
00000000
00000010
00000010
,
00000100
00000010
00000001
00000100
,
00001000
00000000
00000100
00001000
00001000
00001000
00001100
00000000
,
00010000
00000000
00011000
00000000
01000000
00100000
01000000
00000000
,
00100000
01000000
10000000
10100000
,
00010000
00010000
10000000
00000000
10010000
00000000
00100000
00000000
,
01000000
00100000
00010000
01000000
,
10010000
10010000
00000000
10010000
00000000
01010000
00000000
00000000
,
00011000
00000000
00000010
00000000
00001000
00000010
00000010
00000000
,
00000100
00000010
00001001
00000100
,
00001000
00000000
00000100
00001000
00001000
00001000
00001100
00000000
,
00010000
00000000
00001000
00000000
00100000
00010000
10000000
00000000
,
00100000
01000000
10000000
10100000
,
00010000
00010000
10000000
00000000
10010000
00000000
00100000
00000000
,
01000000
00100000
00010000
01000000
,
10010000
10010000
10010000
10010000
00000000
00000000
00000000
00000000
,
00110000
00110000
00110000
00110000
00000000
00000000
00000000
00000000
,
10010000
10010000
10010000
10010000
00000000
00000000
00000000
00000000
,
00011000
00000000
00000000
00000000
;

//--------------- dance-double - ----------------
#NOTES:
     dance-double:
     :
     Hard:
     13:
     0,0,0,0,0:
00000000
00000000
00000000
00000000
,
00000000
00000000
00000000
00000000
,
00100000
00000000
00000000
00000000
10000000
00100000
00000000
00000000
10100000
00000000
00000000
00000000
01100000
00000000
00000000
00000000
,
00010000
00010000
01010000
00000000
01000000
00000000
01100000
00100000
,
00100000
00000000
10000000
10000000
10010000
00000000
01000000
01000000
,
00000000
10000000
00000000
00000000
00010000
00000000
00000000
00000000
01000000
00000000
01000000
00000000
01000000
00000000
00000000
00000000
,
00100000
00000000
10000000
10000000
10000000
00000000
01000000
00000000
,
10010000
00000000
00000000
00000000
,
10100000
00000000
00010000
10000000
10000000
00100000
00100000
00000000
,
01000000
00100000
00100000
00010000
00010000
00000000
01000000
00000000
,
10000000
00000000
01000000
10000000
10000000
10000000
01010000
00000000
,
00001000
00000000
00010000
00000000
00000010
00000100
00000010
00000000
,
00001010
00000000
00000100
00001000
00001000
00001001
00001000
00000000
,
00000100
00000000
00011000
00000000
00100000
00010000
00100000
01000000
,
01000000
00100000
00100000
00000000
00010000
00000000
01000000
00000000
,
10010000
00010000
00000000
10000000
00000000
00010000
10000000
00010000
10000000
00010000
10000000
00000000
00000000
00010000
00000000
00000000
,
01000000
00000000
00000000
00000000
,
00011000
00000000
00001100
00000000
,
00001001
00000000
00001010
00000000
,
00011000
01000000
01010000
10010000
,
00100000
00110000
01000000
10000000
,
10100000
00000000
01000000
01000000
01000000
00000000
10010000
00000000
,
00100000
00100000
00110000
00000000
00001000
00000000
00010000
00000000
,
00001010
00000000
00000100
00000100
00000100
00000000
00001001
00000000
,
00000010
00000010
00000011
00000000
00000100
00000000
00000001
00000000
,
00001010
00000000
00000100
00000100
00000100
00000000
00011000
00000000
,
00100000
00110000
01010000
00010000
,
10000000
01000000
01000000
00000000
01000000
00000000
01000000
01000000
01000000
01000000
01000000
00000000
01000000
00000000
00000000
00000000
,
10010000
00000000
00110000
00000000
01000000
01000000
11000000
00000000
,
00010000
00010000
10010000
00000000
01000000
00000000
10010000
00000000
,
10100000
00000000
00010000
00000000
00100000
00100000
10100000
00000000
,
00010000
10000000
01000000
10100000
,
10010000
00000000
00010000
00000000
10000000
00000000
00010000
01000000
,
00001000
00010000
00001100
00000100
,
00001100
00000000
00000100
00001000
00001000
00001000
00001100
00000000
,
00010000
00000000
00001000
00000000
00100000
00010000
10000000
00000000
,
00100000
00000000
01000000
00000000
10000000
10000000
10100000
00000000
,
00010000
00010000
10000000
00000000
10010000
00000000
00100000
00000000
,
01010000
00100000
10010000
01000000
,
10010000
00010000
10000000
00010000
00000000
10000000
00010000
10000000
00000000
00000000
10010000
00000000
10010000
00000000
00000000
00000000
,
10000000
00000000
00010000
00000000
10000000
00100000
00100000
00000000
,
01000000
00100000
10010000
01000000
,
10000000
00000000
01000000
10000000
10000000
10000000
11000000
00000000
,
00010000
00000000
01010000
00000000
01000000
00001000
00010000
00000000
,
00000010
00001000
00001001
00001010
,
00000001
00000001
00001000
00000000
00001001
00000000
00001100
00000000
,
00010000
00001000
00100000
00010000
,
10010000
00000000
10010000
00000000
10010000
00000000
10010000
00010000
10000000
00010000
10000000
00010000
00000000
00000000
00110000
00000000
,
00110000
00000000
00110000
00000000
00110000
00000000
00100000
00010000
00100000
00010000
00100000
00010000
00000000
00000000
10010000
00000000
,
10010000
00000000
10010000
00000000
10010000
00000000
10000000
00010000
10000000
00010000
10000000
00010000
00000000
00000000
10010000
00000000
,
10010000
00000000
00000000
00000000
;
