#TITLE:Castles In The Sky;
#SUBTITLE:;
#ARTIST:Ian Van Dahl feat. Marsha;
#TITLETRANSLIT:;
#SUBTITLETRANSLIT:;
#ARTISTTRANSLIT:;
#GENRE:;
#CREDIT:;
#MUSIC:cast_main.ogg;
#BANNER:cast_th.png;
#BACKGROUND:cast_bk.png;
#CDTITLE:;
#SAMPLESTART:62.138;
#SAMPLELENGTH:15.000;
#SELECTABLE:YES;
#OFFSET:-1.720;
#BPMS:0.000=140.015;
#STOPS:;
#DISPLAYBPM:140.000;
#BGCHANGES:;
#FGCHANGES:;

//--------------- dance-single - ----------------
#NOTES:
     dance-single:
     :
     Easy:
     4:
     0,0,0,0,0:
0000
0000
0000
0000
,
1000
0000
0100
0000
,
0100
0000
0000
0000
,
1000
0000
0100
0000
,
0001
0000
0000
0000
,
1000
0000
1001
0000
,
0100
0000
0000
0000
,
0100
0000
0100
0000
,
0010
0000
0000
0000
,
1000
0000
1000
0000
,
0010
0000
0000
0000
,
1000
0000
1000
0000
,
0001
0000
0100
0000
,
1000
0000
1000
0000
,
0001
0000
0100
0000
,
1000
0000
1000
0000
,
0001
0000
0100
0000
,
1000
0000
1000
0000
,
0001
0000
0100
0000
,
2002
0000
0000
0000
,
0003
0000
3000
0000
,
2002
0000
0000
0000
,
3000
0000
0003
0000
,
2002
0000
0000
0000
,
0003
0000
3000
0000
,
2002
0000
0000
0000
,
3000
0000
0003
0000
,
0000
0000
0000
0000
,
2002
0000
0000
0000
,
0003
0000
3000
0000
,
2002
0000
0000
0000
,
3000
0000
0003
0000
,
1000
0000
0010
0000
,
1000
0000
0001
0000
,
1000
0000
0010
0000
,
1000
0001
1000
0001
,
1000
1000
0000
0001
,
1000
1000
0000
0100
,
0100
0100
0000
1000
,
0010
0001
0000
0010
,
1000
0010
0000
0100
,
0001
0010
0000
0100
,
1000
1000
0001
0000
,
1000
1000
0000
0100
,
1000
1000
0000
0001
,
1000
1000
0000
0100
,
0100
0100
0000
1000
,
0010
0001
0000
0010
,
1000
0010
0000
0100
,
0001
0010
0000
0100
,
1000
1000
0001
0000
,
1000
1000
0000
0100
,
1000
1000
0001
0001
,
1000
1000
0001
0100
,
0100
0100
0000
1000
,
0010
0001
1000
0010
,
1000
0010
0000
0100
,
0001
0010
0000
0100
,
1000
0001
1000
0100
,
1000
1000
0000
0100
,
1001
0000
0000
0000
;

//--------------- dance-single - ----------------
#NOTES:
     dance-single:
     :
     Medium:
     11:
     0,0,0,0,0:
0000
0000
0000
0000
,
1000
0100
0100
0010
,
0100
0001
1001
0000
,
1000
1000
0101
0001
,
1001
0010
0010
0001
,
1001
0010
1001
0010
,
0100
0100
0101
0010
,
0100
0000
0100
0010
,
0010
1000
0010
0010
,
1001
0000
1000
0000
,
0010
0000
0000
0000
0000
0000
0000
0000
0010
0000
0100
0000
0000
0100
0000
0000
,
1000
1000
1000
0101
,
0001
1001
0010
0010
,
0001
1001
0010
1001
,
0010
0100
0100
0101
,
0010
0100
0000
0100
,
0010
0010
1000
0010
,
0010
1001
0000
1000
,
0000
0010
0000
0010
,
2002
0000
0000
0000
,
3000
0000
0003
0000
,
2002
0000
0000
0000
,
3000
0000
0003
0000
,
2002
0000
0000
0000
,
0003
0000
3000
0000
,
2002
0000
0000
0000
,
3000
0000
0003
0100
,
0100
0000
0100
0100
0100
0010
0100
0000
,
2002
0000
0000
0000
,
0003
0000
0000
0000
3000
0001
0100
0000
,
2002
0000
0000
0000
,
3000
0000
0003
0000
,
1000
0001
1000
0001
,
1000
0001
1000
0001
1000
0001
1000
0001
,
1000
0001
1000
0001
1000
0001
1000
0001
,
1000
0001
1000
0001
1000
0001
1000
0001
1000
0001
1000
0001
1000
0001
0000
0000
,
1000
0000
0000
0000
1000
0000
0010
0010
1000
0000
0000
0000
0001
0000
0000
0000
,
1000
0001
1000
0000
0000
0000
0100
0000
,
0100
0000
0100
0000
0000
0100
1000
0100
,
0010
0001
0000
0010
,
1001
0000
0010
0001
0000
0000
0110
0000
,
0001
0000
0010
0001
1000
0000
0100
0000
,
1000
0000
1000
0010
0001
0000
0100
0000
,
1000
0100
1000
0000
0100
0000
0100
0000
,
1000
0010
1000
0000
0100
0000
0001
0000
,
1000
0001
1000
0000
0000
0000
0100
0000
,
0100
1000
0100
0000
0010
0000
1001
0000
,
0010
1000
0001
0000
0100
0000
0010
0000
,
1000
0000
0010
0000
0010
0000
0100
0010
,
0001
0010
0000
0100
,
1000
1000
0001
0010
,
1000
0100
1000
0000
0010
0010
0100
0000
,
1000
0000
1000
0000
0001
0100
0001
0000
,
1000
0100
1000
0000
0001
0010
0100
0000
,
0100
0010
0100
0000
0000
0000
1000
0000
,
0010
0000
0001
0100
1000
0000
0010
0000
,
1000
0100
0010
0000
0010
0001
0100
0000
,
0001
0000
0010
0000
1000
0000
0100
0010
,
1000
0000
0001
0100
1000
0010
0100
0000
,
1000
0010
1000
0100
0010
0100
0100
0001
,
1001
0000
0000
0000
;

//--------------- dance-single - ----------------
#NOTES:
     dance-single:
     :
     Hard:
     14:
     0,0,0,0,0:
0000
0000
0000
0000
,
1000
1000
0100
1000
0100
0100
0010
0100
,
0100
1000
0001
0001
1001
1000
0000
0000
,
0100
1000
0000
1000
0000
0101
0001
0001
,
0100
1001
0000
0010
0000
0010
0000
0001
,
0000
1001
0100
0010
0000
1001
0000
0010
,
0010
0100
0000
0100
0000
0101
0000
0000
,
0110
0110
0000
0000
0000
0100
0000
0010
,
0000
0010
0000
1000
0000
0010
0000
0010
,
0000
1001
0000
0000
0000
1000
0000
0000
,
0000
0000
0010
0000
0000
0000
0000
0000
0000
0000
0010
0000
0000
0100
0000
0000
,
1000
0002
1000
0000
1000
0003
0202
0000
,
0000
0000
0000
0300
1000
0000
0000
0000
0210
0000
0000
0000
0010
0000
0000
0000
,
0300
1000
0010
1003
,
0010
0100
0100
0101
,
0020
0100
0000
0130
,
0010
0010
1000
0010
,
0010
1001
0000
1000
,
0002
0010
0100
0013
,
2002
0000
0000
0000
,
3000
0000
0003
0000
,
2002
0000
0000
0000
,
3000
0000
0003
0000
,
2002
0000
0000
0000
,
0003
0000
3000
0000
,
2002
0000
0000
0000
,
3000
0000
0003
0100
,
0100
0000
0100
0100
0100
0010
0100
0000
,
2002
0000
0000
0000
,
0003
0000
0000
0000
3000
0001
0100
0000
,
2002
0000
0000
0000
,
3000
0000
0003
0000
,
1000
0001
1000
0001
,
1000
0001
1000
0001
1000
0001
1000
0001
,
1000
0001
1000
0001
1000
0001
1000
0001
,
1000
0001
1000
0001
1000
0001
1000
0001
1000
0001
1000
0001
1000
0001
0000
0000
,
1000
0000
0000
0000
1000
0000
0010
0010
1000
0000
0000
0000
0001
0000
0000
0000
,
1000
0001
1100
0000
0000
0000
1100
0010
,
0100
0000
0010
0000
0100
0010
0000
0010
0010
0000
0100
0000
1000
0000
0100
0000
,
0010
0000
0100
0000
0001
0000
0001
0100
0001
0000
0000
0000
0010
0000
0000
0100
,
1001
0000
0100
0000
0010
0000
0001
1000
1100
0000
0000
0000
0110
0000
0010
0000
,
0001
1000
0000
1000
0010
0000
0001
0000
1000
0000
0010
0000
0100
0000
0000
0100
,
1010
0000
0100
0000
1000
0000
0010
0000
0001
0000
0000
0010
0100
0000
0000
0000
,
1000
0000
0100
0000
1000
0000
0000
0010
0100
0000
0000
0000
0100
0000
0000
0000
,
1000
0000
0010
0000
1000
0000
0000
0010
0100
0000
0000
0000
0001
0000
0000
0000
,
1000
0000
0001
0000
1000
0000
0001
0000
0001
0000
0000
0010
0100
0000
0000
0000
,
0100
0000
1000
0000
0100
0000
0000
0000
0010
0000
0000
1000
1001
0000
0000
0000
,
0010
0000
1000
0000
0001
0000
0000
0000
0100
0000
0000
0010
0010
0000
0000
1000
,
1000
0000
0000
0000
0010
0000
0000
0000
0010
0000
0000
0100
0100
0000
0010
0001
,
0001
0000
0000
0010
0010
0000
0000
0000
0000
0000
0000
0100
0100
0000
0000
0000
,
1000
0000
0000
1000
1000
0000
0000
0001
0001
0000
0000
0010
0010
0000
0000
0000
,
1000
1000
0100
0000
1000
0000
0000
0000
0010
0010
0010
0000
0100
0000
0000
0000
,
1000
0000
0000
0000
1000
0000
0000
0000
0001
0000
0100
0001
0001
0000
0000
0000
,
1000
0000
0100
0000
1000
0000
0000
0001
0001
0000
0010
0000
0100
0000
0000
0000
,
0100
0000
0010
0100
0100
0000
0000
0000
0000
0000
0000
1000
1000
0000
0000
0010
,
0010
0000
0000
0000
0001
0000
0100
0000
1000
0000
0000
0010
0010
0000
0000
0000
,
1000
0000
0110
0000
0010
0000
0000
0000
0010
0000
0001
0000
0100
0100
0000
0001
,
0001
0000
0000
0000
0010
0000
0000
1000
1000
0000
0000
0100
0100
0000
0010
0000
,
1000
0000
0000
0001
0001
0000
0100
1000
1000
0000
0010
0000
0100
0000
0000
1000
,
1000
0000
0010
0000
1000
0000
0100
0000
0010
0000
0100
0000
0100
0000
0001
1000
,
1001
0000
0000
0000
;

//--------------- dance-double - ----------------
#NOTES:
     dance-double:
     :
     Easy:
     6:
     0,0,0,0,0:
00000000
00000000
00000000
00000000
,
00001000
00000000
00000100
00000000
,
00000100
00000000
00000000
00000000
,
10000000
00000000
01000000
00000000
,
00010000
00000000
00000000
00000000
,
00001000
00000000
00011000
00000000
,
01000000
00000000
00000000
00000000
,
01000000
00000000
01000000
00000000
,
00100000
00000000
00000000
00000000
,
00001000
00000000
00001000
00000000
,
00000010
00000000
00000000
00000000
,
00001000
00000000
00001000
00000000
,
00000001
00000000
00000100
00000000
,
00001000
00000000
00001000
00000000
,
00010000
00000000
01000000
00000000
,
10000000
00000000
10000000
00000000
,
00010000
00000000
01000000
00000000
,
10000000
00000000
10000000
00000000
,
00010000
00000000
00000100
00000000
,
00002002
00000000
00000000
00000000
,
00000003
00000000
00003000
00000000
,
20020000
00000000
00000000
00000000
,
30000000
00000000
00030000
00000000
,
20020000
00000000
00000000
00000000
,
00030000
00000000
30000000
00000000
,
00002002
00000000
00000000
00000000
,
00003000
00000000
00000003
00000000
,
00000000
00000000
00000000
00000000
,
20020000
00000000
00000000
00000000
,
00030000
00000000
30000000
00000000
,
20020000
00000000
00000000
00000000
,
30000000
00000000
00030000
00000000
,
00001000
00000000
00000010
00000000
,
00001000
00000000
00000001
00000000
,
00001000
00000000
00100000
00000000
,
10000000
00010000
10000000
00010000
,
10000000
10000000
00000000
00010000
,
10000000
10000000
00000000
01000000
,
01000000
01000000
00000000
00001000
,
00000010
00000001
00000000
00000010
,
00001000
00000010
00000000
00000100
,
00000001
00000010
00000000
00000100
,
00001000
00001000
00010000
00000000
,
10000000
10000000
00000000
01000000
,
10000000
10000000
00000000
00010000
,
10000000
10000000
00000000
01000000
,
01000000
01000000
00000000
00001000
,
00000010
00000001
00000000
00000010
,
00001000
00000010
00000000
00000100
,
00000001
00000010
00000000
00000100
,
00001000
00001000
00000001
00000000
,
00001000
00001000
00000000
00000100
,
10000000
10000000
00010000
00010000
,
10000000
10000000
00010000
01000000
,
01000000
01000000
00000000
10000000
,
00100000
00010000
10000000
00100000
,
10000000
00100000
00000000
01000000
,
00010000
00000010
00000000
00000100
,
00001000
00000001
00001000
00000100
,
00001000
00001000
00000000
00000100
,
00011000
00000000
00000000
00000000
;

//--------------- dance-double - ----------------
#NOTES:
     dance-double:
     :
     Medium:
     12:
     0,0,0,0,0:
00000000
00000000
00000000
00000000
,
10000000
01000000
01000000
00100000
,
01000000
00010000
10010000
00000000
,
10000000
10000000
01010000
00010000
,
00001001
00000010
00000010
00000001
,
00001001
00000010
00001001
00000010
,
00000100
00000100
00000101
00000010
,
00000100
00000000
00000100
00000010
,
00000010
00001000
00000010
00000010
,
00011000
00000000
10000000
00000000
,
00100000
00000000
00000000
00000000
00000000
00000000
00000000
00000000
00100000
00000000
01000000
00000000
00000000
01000000
00000000
00000000
,
10000000
10000000
10000000
01010000
,
00010000
10010000
00100000
00100000
,
00010000
10010000
00100000
10010000
,
00100000
01000000
01000000
01010000
,
00000010
00000100
00000000
00000100
,
00000010
00000010
00001000
00000010
,
00000010
00001001
00000000
00001000
,
00000000
00000010
00000000
00000010
,
00002002
00000000
00000000
00000000
,
00003000
00000000
00000003
00000000
,
20020000
00000000
00000000
00000000
,
30000000
00000000
00030000
00000000
,
20020000
00000000
00000000
00000000
,
00030000
00000000
30000000
00000000
,
20020000
00000000
00000000
00000000
,
30000000
00000000
00030000
00000100
,
00000100
00000000
00000100
00000100
00000100
00000010
00000100
00000000
,
00002002
00000000
00000000
00000000
,
00000003
00000000
00000000
00000000
00003000
00000001
00000100
00000000
,
00002002
00000000
00000000
00000000
,
00003000
00000000
00000003
00000000
,
00001000
00000001
00001000
00010000
,
10000000
00010000
10000000
00010000
10000000
00010000
10000000
00010000
,
10000000
00010000
10000000
00010000
10000000
00010000
10000000
00010000
,
10000000
00010000
10000000
00010000
10000000
00010000
10000000
00010000
10000000
00010000
10000000
00010000
10000000
00010000
00000000
00000000
,
10000000
00000000
00000000
00000000
10000000
00000000
00100000
00100000
10000000
00000000
00000000
00000000
00010000
00000000
00000000
00000000
,
10000000
00010000
10000000
00000000
00000000
00000000
01000000
00000000
,
01000000
00000000
01000000
00000000
00000000
01000000
10000000
01000000
,
00100000
00010000
00000000
00000010
,
00001001
00000000
00000010
00000001
00000000
00000000
00000110
00000000
,
00000001
00000000
00000010
00000001
00001000
00000000
00000100
00000000
,
00001000
00000000
00001000
00000010
00000001
00000000
00000100
00000000
,
00001000
00000100
00001000
00000000
00000100
00000000
00000100
00000000
,
10000000
00100000
10000000
00000000
01000000
00000000
00010000
00000000
,
10000000
00010000
10000000
00000000
00000000
00000000
01000000
00000000
,
01000000
10000000
01000000
00000000
00100000
00000000
10010000
00000000
,
00100000
10000000
00010000
00000000
01000000
00000000
00100000
00000000
,
10000000
00000000
00100000
00000000
00100000
00000000
01000000
00100000
,
00010000
00000010
00000000
00000100
,
00001000
00001000
00000001
00000010
,
00001000
00000100
00001000
00000000
00000010
00000010
00000100
00000000
,
00001000
00000000
00001000
00000000
00000001
00000100
00000001
00000000
,
00001000
00000100
00001000
00000000
00000001
00000010
00000100
00000000
,
00000100
00000010
00000100
00000000
00000000
00000000
00001000
00000000
,
00100000
00000000
00010000
01000000
10000000
00000000
00100000
00000000
,
10000000
01000000
00100000
00000000
00100000
00010000
01000000
00000000
,
00010000
00000000
00000010
00000000
00001000
00000000
00000100
00000010
,
00001000
00000000
00000001
00000100
00001000
00000010
00000100
00000000
,
00001000
00000010
00001000
00000100
00000010
00000100
00000100
00000001
,
00001001
00000000
00000000
00000000
;

//--------------- dance-double - ----------------
#NOTES:
     dance-double:
     :
     Hard:
     14:
     0,0,0,0,0:
00000000
00000000
00000000
00000000
,
00001000
00001000
00000100
00001000
00000100
00000100
00000010
00000100
,
00000100
00001000
00000001
00000001
00001001
00001000
00000000
00000000
,
00000100
00001000
00000000
00001000
00000000
01010000
00010000
00010000
,
01000000
10010000
00000000
00100000
00000000
00100000
00000000
00010000
,
00000000
10010000
01000000
00100000
00000000
10010000
00000000
00100000
,
00100000
01000000
00000000
01000000
00000000
01010000
00000000
00000000
,
01100000
01100000
00000000
00000000
00000000
00000100
00000000
00000010
,
00000000
00000010
00000000
00001000
00000000
00000010
00000000
00000010
,
00000000
00001001
00000000
00000000
00000000
00001000
00000000
00000000
,
00000000
00000000
00000010
00000000
00000000
00000000
00000000
00000000
00000000
00000000
00000010
00000000
00000000
00000100
00000000
00000000
,
00001000
00020000
10000000
00000000
10000000
00030000
02020000
00000000
,
00000000
00000000
00000000
03000000
10000000
00000000
00000000
00000000
02100000
00000000
00000000
00000000
00100000
00000000
00000000
00000000
,
03000000
10000000
00100000
00031000
,
00000010
00000100
00000100
00000101
,
00000020
00000100
00000000
00000130
,
00000010
00000010
00001000
00000010
,
00000010
00001001
00000000
00001000
,
00020000
00100000
01000000
00130000
,
20020000
00000000
00000000
00000000
,
30000000
00000000
00030000
00000000
,
20020000
00000000
00000000
00000000
,
30000000
00000000
00030000
00000000
,
00002002
00000000
00000000
00000000
,
00000003
00000000
00003000
00000000
,
00002002
00000000
00000000
00000000
,
00003000
00000000
00000003
00000100
,
00000100
00000000
00000100
00000100
00000100
00000010
00000100
00000000
,
20020000
00000000
00000000
00000000
,
00030000
00000000
00000000
00000000
30000000
00010000
01000000
00000000
,
20020000
00000000
00000000
00000000
,
30000000
00000000
00030000
00000000
,
00001000
00000001
00001000
00000001
,
00001000
00000001
00001000
00000001
00001000
00000001
00001000
00000001
,
00001000
00000001
00001000
00000001
00001000
00000001
00001000
00000001
,
00001000
00000001
00001000
00000001
00001000
00000001
00001000
00000001
00001000
00000001
00001000
00000001
00001000
00000001
00000000
00000000
,
00001000
00000000
00000000
00000000
00001000
00000000
00000010
00000010
00001000
00000000
00000000
00000000
00010000
00000000
00000000
00000000
,
10000000
00010000
11000000
00000000
00000000
00000000
11000000
00100000
,
01000000
00000000
00100000
00000000
01000000
00100000
00000000
00100000
00100000
00000000
01000000
00000000
10000000
00000000
01000000
00000000
,
00100000
00000000
01000000
00000000
00010000
00000000
00010000
01000000
00010000
00000000
00000000
00000000
00000010
00000000
00000000
00000100
,
00001001
00000000
00000100
00000000
00000010
00000000
00000001
00001000
00001100
00000000
00000000
00000000
00000110
00000000
00000010
00000000
,
00000001
00001000
00000000
00001000
00000010
00000000
00000001
00000000
00001000
00000000
00000010
00000000
00000100
00000000
00000000
00000100
,
00001010
00000000
00000100
00000000
00001000
00000000
00000010
00000000
00000001
00000000
00000000
00000010
00000100
00000000
00000000
00000000
,
00001000
00000000
00000100
00000000
00001000
00000000
00000000
00000010
00000100
00000000
00000000
00000000
00000100
00000000
00000000
00000000
,
00001000
00000000
00000010
00000000
00001000
00000000
00000000
00000010
00000100
00000000
00000000
00000000
00010000
00000000
00000000
00000000
,
10000000
00000000
00010000
00000000
10000000
00000000
00010000
00000000
00010000
00000000
00000000
00100000
01000000
00000000
00000000
00000000
,
01000000
00000000
10000000
00000000
01000000
00000000
00000000
00000000
00100000
00000000
00000000
10000000
10010000
00000000
00000000
00000000
,
00100000
00000000
10000000
00000000
00010000
00000000
00000000
00000000
01000000
00000000
00000000
00100000
00100000
00000000
00000000
00001000
,
00000000
00000000
00000000
00000000
00000000
00000000
00000000
00000000
00000010
00000000
00000000
00000100
00000100
00000000
00000010
00000001
,
00000001
00000000
00000000
00000010
00000010
00000000
00000000
00000000
00000000
00000000
00000000
00000100
00000100
00000000
00000000
00000000
,
00001000
00000000
00000000
00001000
00001000
00000000
00000000
00000001
00000001
00000000
00000000
00000010
00000010
00000000
00000000
00000000
,
00001000
00001000
00000100
00000000
00001000
00000000
00000000
00000000
00000010
00000010
00000010
00000000
00000100
00000000
00000000
00000000
,
00001000
00000000
00000000
00000000
00001000
00000000
00000000
00000000
00000001
00000000
00000100
00000001
00000001
00000000
00000000
00000000
,
00001000
00000000
00000100
00000000
00001000
00000000
00000000
00000001
00000001
00000000
00000010
00000000
00000100
00000000
00000000
00000000
,
00000100
00000000
00000010
00000100
00000100
00000000
00000000
00000000
00000000
00000000
00000000
00001000
00001000
00000000
00000000
00100000
,
00100000
00000000
00000000
00000000
00010000
00000000
01000000
00000000
10000000
00000000
00000000
00100000
00100000
00000000
00000000
00000000
,
10000000
00000000
01100000
00000000
00100000
00000000
00000000
00000000
00100000
00000000
00010000
00000000
01000000
01000000
00000000
00010000
,
00010000
00000000
00000000
00000000
00100000
00000000
00000000
10000000
10000000
00000000
00000000
01000000
01000000
00000000
00100000
00000000
,
10000000
00000000
00000000
00010000
00010000
00000000
01000000
10000000
10000000
00000000
00100000
00000000
01000000
00000000
00000000
10000000
,
10000000
00100000
10000000
01000000
00100000
01000000
01000000
00010000
,
00011000
00000000
00000000
00000000
;
