#TITLE:ABSOLUTE;
#SUBTITLE:Cuff -N- Stuff It Mix;
#ARTIST:Thuggie D;
#TITLETRANSLIT:;
#SUBTITLETRANSLIT:;
#ARTISTTRANSLIT:;
#GENRE:;
#CREDIT:;
#MUSIC:abs2_main.ogg;
#BANNER:abs2_th.png;
#BACKGROUND:abs2_bk.png;
#CDTITLE:;
#SAMPLESTART:0.000;
#SAMPLELENGTH:15.000;
#SELECTABLE:YES;
#OFFSET:-1.650;
#BPMS:0.000=141.732
,4.000=144.000
,212.000=134.328
,216.000=148.352
,219.000=139.535
,223.000=147.103
;
#STOPS:;
#DISPLAYBPM:134.000:148.000;
#BGCHANGES:;
#FGCHANGES:;

//--------------- dance-single - ----------------
#NOTES:
     dance-single:
     :
     Easy:
     4:
     0,0,0,0,0:
0000
0000
0000
0000
,
1000
0001
0000
0010
,
0001
0000
0001
0000
,
1000
0001
0000
0010
,
0001
0000
0001
0000
,
0001
1000
0000
0010
,
1000
0000
0001
0000
,
1001
0000
0000
0000
,
0110
0000
0000
0000
,
1001
0000
0000
0000
,
0110
0000
0001
1000
,
0010
0000
0010
0000
,
0110
0000
1000
0001
,
0100
0000
0100
0000
,
1010
0000
0001
1000
,
0001
0000
1000
0000
,
0101
0000
1000
0001
,
1000
0000
0001
0000
,
1001
0000
0110
0001
,
1000
0000
0001
0000
,
1001
0000
0110
1000
,
0001
0000
1000
0000
,
1001
0000
0010
1000
,
0001
0000
0100
0000
,
0001
0000
1000
0000
,
0100
0000
0010
0000
,
0001
0000
0010
0000
,
0100
0000
1000
0000
,
0100
0000
1000
0000
,
0001
0000
0100
0000
,
0001
0000
0100
0000
,
1001
0000
0000
0100
,
0010
1000
0000
0010
,
1000
0100
0000
1000
,
0100
0010
0000
0100
,
0010
0001
0000
0010
,
0001
0100
0000
0001
,
0100
0010
0000
0100
,
0010
1000
0000
0010
,
1000
1000
0000
0001
,
1001
0000
0000
0100
,
0010
0000
0000
0010
,
1010
0000
0000
0100
,
0010
0000
0000
0100
,
0101
0000
0000
0001
,
1000
0001
0000
1000
,
0001
0000
0000
0010
,
0100
1000
0000
1001
,
1001
0001
0000
0001
,
1010
1000
0000
1000
,
0101
0100
0000
0100
,
1010
0010
0000
0010
,
0110
0100
0000
0100
,
0101
0000
1001
0010
,
0010
0000
0000
0100
,
0000
0000
0000
1001
;

//--------------- dance-single - ----------------
#NOTES:
     dance-single:
     :
     Medium:
     7:
     0,0,0,0,0:
0000
0000
0000
0000
,
1000
0000
0001
0000
0000
0000
0010
0001
,
0001
0000
0001
0000
,
1000
0000
0001
0000
0000
0000
0010
0001
,
0001
0000
0001
0000
,
0001
0000
1000
0000
0000
0000
0010
1000
,
1000
0000
0001
0000
,
1001
0000
0000
0000
0000
0000
0000
0001
,
0100
0000
0000
0000
0000
0000
0000
0010
,
1000
0000
0001
1000
,
0010
1001
0000
1000
,
0010
0001
0010
0001
,
0010
1001
0000
0001
,
0100
0010
0100
0001
,
0010
1001
0000
1000
,
0011
0001
0010
0001
,
0010
1001
0000
0001
,
0100
0010
0100
0010
,
1001
0000
0010
0001
,
1000
0001
1000
0001
,
1001
0000
0100
1000
,
0001
1000
0001
1000
,
1001
0000
0000
0000
0010
0000
0001
1000
,
0001
0010
0100
1000
,
0001
0010
0100
1000
,
0010
0100
0001
1000
,
0100
0010
0001
1000
,
0100
0010
0000
0001
1000
0000
0000
0000
,
0100
0010
0000
0001
1000
0000
0001
0000
,
1000
0010
0000
0100
0010
0000
0000
0000
,
1000
0001
0000
1000
0001
0000
0010
0000
,
1001
0000
0000
0000
0000
0100
1000
0000
,
0001
0010
0001
0000
0000
0000
0010
0000
,
0001
1000
0100
0000
0000
0000
1000
0000
,
0001
0100
0010
0000
0000
0000
0100
0000
,
0010
0100
0001
0000
0000
0000
0010
0000
,
1000
0001
0100
0000
0000
0000
0001
0000
,
1000
0100
0010
0000
0000
0000
0100
0000
,
0010
0001
1000
0000
0000
0000
0010
0000
,
1000
0001
1000
0001
0000
0000
1000
0001
,
1001
0000
0010
0000
0000
0000
0100
0001
,
0010
0000
1001
0000
0000
0000
0010
0001
,
1000
0000
0000
0000
0001
0000
0100
0001
,
0010
0000
0000
0000
1000
0000
0100
0010
,
0100
0000
0000
0000
0010
0000
1000
0010
,
1000
0000
0000
0000
0001
0000
1000
0100
,
0010
0000
0000
0000
0000
0000
0001
0010
,
0100
0000
1000
0000
0000
0000
0001
1000
,
0001
0000
0001
1000
0001
0000
0000
0000
,
1000
0100
1000
0000
1000
0010
0100
0000
,
0100
0001
0100
0000
0010
1000
0100
0000
,
1000
0000
0010
1000
0010
0000
0000
0000
,
0010
0000
0100
0001
0100
0000
0000
0100
,
0001
0000
0000
0000
1001
0000
0010
0010
,
0010
0000
0000
0100
,
0000
0000
0000
1001
;

//--------------- dance-single - ----------------
#NOTES:
     dance-single:
     :
     Hard:
     11:
     0,0,0,0,0:
0000
0000
0000
0000
,
1000
0001
0001
0000
0010
0000
0010
0001
,
0001
0101
0001
0000
,
1000
0001
0001
0000
0010
0000
0010
0001
,
0001
0101
0001
0000
,
0001
1000
1000
0000
0010
0000
0010
1000
,
1000
1100
0001
0000
,
1001
0000
0110
0000
1000
0000
0001
0001
,
0100
0000
1001
0000
0110
0000
1000
0010
,
1001
0010
0001
1010
,
0110
0100
1000
0000
1001
0001
0110
0000
,
0001
1000
0001
0000
0010
0001
0001
0000
,
0010
0001
1000
0000
0100
0010
0001
0000
,
0100
0001
0010
0000
0100
1000
0001
0000
,
0010
0001
1001
0000
0010
0100
1000
0000
,
0001
0010
0001
0000
0001
0100
0001
0000
,
0100
0001
1000
0000
1000
0100
0010
0000
,
0100
0000
0010
0001
0100
0000
0001
0000
,
1001
0000
0010
1000
0010
0000
1000
0001
,
1000
0000
0001
1000
0100
0000
0001
0010
,
0001
0000
0001
1000
0100
0000
1000
0010
,
1000
0000
0001
1000
0001
0000
1000
0001
,
1000
0000
0000
0000
0010
0001
0001
1000
,
0001
0001
0010
0100
0100
0000
1000
0000
,
0001
0001
0010
0100
0100
0000
1000
0000
,
0010
0010
0100
0001
0001
0000
1000
0000
,
0100
0100
0010
0001
0001
0000
1000
0000
,
0100
1000
0001
1000
0001
0000
0000
0000
,
0100
0010
1000
0010
1000
0000
0001
0000
,
1000
0010
0100
0010
0100
0000
0000
0000
,
0001
1000
0001
1000
0001
0000
0010
0000
,
1001
0000
0010
1000
0010
0100
0100
0000
,
0010
0010
1000
0000
0000
1001
0001
0000
,
1000
1000
0100
0000
0000
0001
1000
0000
,
0100
0100
0011
0000
0000
1000
0100
0000
,
0010
0010
0001
0000
0000
0001
0010
0000
,
0001
0001
1000
0000
0000
0010
0001
0000
,
0100
0100
0010
0000
0000
0001
0100
0000
,
0010
0010
1000
0000
0000
0100
0010
0000
,
1000
0001
1000
0001
0000
0000
0001
1000
,
0001
1000
0010
0100
0000
0000
0010
1000
,
0010
1000
0001
0100
0000
0000
0010
0001
,
0010
0001
1000
0010
0000
0000
0100
0010
,
0100
0010
1000
0001
0000
0000
0100
0010
,
0101
0001
1000
0010
0000
0000
1000
0100
,
1000
0001
0010
0100
0000
0000
1000
0100
,
0010
0001
0010
0100
0000
0000
0010
0010
,
0100
1000
1000
0000
0000
0000
0001
1000
,
0001
1000
0001
0000
0001
0001
1000
0000
,
1000
0100
1000
0000
1000
0010
0100
0000
,
0100
0001
0100
0000
0010
1000
0100
0000
,
0010
0001
0010
0000
0010
0100
1000
0000
,
0010
1000
0100
0000
0100
0100
0100
0000
,
1100
0000
0101
0001
1001
0000
0010
0010
,
0010
0000
0000
0100
,
0000
0000
0000
1001
;

//--------------- dance-double - ----------------
#NOTES:
     dance-double:
     :
     Easy:
     5:
     0,0,0,0,0:
00000000
00000000
00000000
00000000
,
10000000
00100000
00000000
01000000
,
00010000
00000000
00100000
00000000
,
00001000
00010000
00000000
00000010
,
00000100
00000000
00000001
00000000
,
00001000
00000010
00000000
00010000
,
01000000
00000000
10000000
00000000
,
01010000
00000000
00000000
00000000
,
00011000
00000000
00000000
00000000
,
00001100
00000000
00000000
00000000
,
00110000
00000000
00001000
00100000
,
00010000
00000000
10000000
00000000
,
11000000
00000000
00100000
01000000
,
00001000
00000000
00010000
00000000
,
00001010
00000000
00000001
00000010
,
00000100
00000000
00010000
00000000
,
00011000
00000000
00001000
00100000
,
00010000
00000000
10000000
00000000
,
10100000
00000000
01010000
01000000
,
00010000
00000000
00001000
00000000
,
00001010
00000000
00000101
00000010
,
00001000
00000000
00000100
00000000
,
00001001
00000000
00000010
00001000
,
00000100
00000000
00010000
00000000
,
00100000
00000000
10000000
00000000
,
01000000
00000000
00100000
00000000
,
00010000
00000000
00000010
00000000
,
00000001
00000000
00001000
00000000
,
00000100
00000000
00010000
00000000
,
00100000
00000000
10000000
00000000
,
00010000
00000000
01000000
00000000
,
10010000
00000000
00100000
00010000
,
00001000
00000100
00000000
00000010
,
00001000
00000100
00000000
00001000
,
00010000
00100000
00000000
01000000
,
00100000
00010000
00000000
00100000
,
00010000
00001000
00000000
00000010
,
00000001
00000100
00000000
00000100
,
00000010
00000001
00000000
00000100
,
00010000
00001000
00000000
00110000
,
00011000
00000000
00000000
00000100
,
00000010
00000000
00000000
00001000
,
00011000
00000000
00000000
00010000
,
00100000
00000000
00000000
01000000
,
00010000
00000000
00000000
00010000
,
00001000
00000010
00000000
00000001
,
00001000
00000000
00000000
00000010
,
00000100
00000001
00000000
00001001
,
00001001
00000100
00010000
00000000
,
00110000
10000000
10000000
00000000
,
01010000
00001000
00001000
00000000
,
00001010
00000010
00000010
00000000
,
00000110
00000100
00001000
00000000
,
01010000
00000000
00110000
00001000
,
00001000
00000000
00000000
00000100
,
00000000
00000000
00000000
00001010
;

//--------------- dance-double - ----------------
#NOTES:
     dance-double:
     :
     Medium:
     7:
     0,0,0,0,0:
00000000
00000000
00000000
00000000
,
10000000
00000000
01000000
00000000
00000000
00000000
00010000
00001000
,
00001000
00000000
00000100
00000000
,
00001000
00000000
00000010
00000000
00000000
00000000
00000100
00000001
,
00000001
00000000
00000001
00000000
,
00000010
00000000
00000100
00000000
00000000
00000000
00010000
01000000
,
01000000
00000000
10000000
00000000
,
11000000
00000000
00000000
00000000
00000000
00000000
00000000
00100000
,
00010000
00000000
00000000
00000000
00000000
00000000
00000000
00000010
,
00001000
00000000
00000100
00010000
,
00001000
00110000
00000000
10000000
,
00100000
01000000
00010000
00000010
,
00000001
00001001
00000000
00000001
,
00000100
00000010
00010000
00001000
,
00100000
10010000
00000000
01000000
,
01010000
00001000
00000010
00000001
,
00000100
00001001
00000000
00000001
,
00000100
00000010
00001000
00010000
,
10010000
00000000
00100000
00010000
,
10000000
00010000
01000000
00001000
,
00010000
00000000
00000100
00001000
,
00000001
00001000
00000001
00001000
,
00001001
00000000
00000000
00000000
00000010
00000000
00001000
00000100
,
00010000
00001000
00100000
01000000
,
00010000
00100000
01000000
10000000
,
00100000
01000000
00001000
00010000
,
00000100
00000010
00000001
00001000
,
00000100
00000010
00000000
00000001
00001000
00000000
00000000
00000000
,
00010000
00100000
00000000
00010000
10000000
00000000
00010000
00000000
,
00001000
00000100
00000000
00000010
00000100
00000000
00000000
00000000
,
00001000
00000001
00000000
00001000
00000001
00000000
00001000
00000000
,
00010000
00000000
00000000
00000000
00000000
10000000
00100000
00000000
,
00010000
00001000
00000010
00000000
00000000
00000000
00000010
00000000
,
00000001
00001000
00000100
00000000
00000000
00000000
00010000
00000000
,
00001000
01000000
00100000
00000000
00000000
00000000
01000000
00000000
,
00100000
01000000
00010000
00000000
00000000
00000000
00001000
00000000
,
00000001
00001000
00000100
00000000
00000000
00000000
00000010
00000000
,
00000001
00000100
00001000
00000000
00000000
00000000
01000000
00000000
,
00100000
01000000
00010000
00000000
00000000
00000000
00100000
00000000
,
00010000
10000000
01000000
00100000
00000000
00000000
00001000
00000000
,
00010000
00000000
00000100
00000000
00000000
00000000
00001000
00000001
,
00000010
00000000
00000011
00000000
00000000
00000000
00000010
00000001
,
00001010
00000000
00000000
00000000
00001000
00000000
00000010
00000001
,
00000010
00000000
00000000
00000000
00001000
00000000
00010000
00100000
,
01000000
00000000
00000000
00000000
10000000
00000000
00010000
01000000
,
10000000
00000000
00000000
00000000
00010000
00000000
00001000
00000001
,
00001000
00000000
00000000
00000000
00000000
00000000
00000001
00000010
,
00000100
00000000
00001000
00000000
00000000
00000000
00000001
00001000
,
00000001
00000000
00000010
00001000
00000010
00000000
00000000
00000000
,
00010000
00001000
00010000
00000000
00100000
00010000
00100000
00000000
,
01000000
00001000
00010000
00000000
00001000
00000010
00000100
00000000
,
00001000
00000000
00001000
00000010
00001000
00000000
00000000
00000000
,
00010000
00000000
00010000
00000100
00001000
00000000
00000000
01000000
,
00010000
00000000
00000000
00000000
10010000
00000000
00100000
00001000
,
00010000
00000000
00000000
00001000
,
00000000
00000000
00000000
00110000
;

//--------------- dance-double - ----------------
#NOTES:
     dance-double:
     :
     Hard:
     11:
     0,0,0,0,0:
00000000
00000000
00000000
00000000
,
00100000
10000000
10000000
00000000
01000000
00000000
00100000
00010000
,
00010000
00011000
00001000
00000000
,
00000010
00000001
00000001
00000000
00000100
00000000
00000010
00001000
,
00001000
00000101
00000010
00000000
,
00001000
00000000
00010000
00000000
01000000
00000000
00100000
10000000
,
10000000
11000000
00100000
00000000
,
00001000
00000000
00000010
00000000
00000001
00000000
00001001
00000001
,
00000010
00000000
00000001
00000000
00000100
00000000
00001001
00000010
,
00001000
00000100
00010000
10100000
,
01000000
00100000
10000000
00000000
10000000
00010000
01000000
00000000
,
00100000
00010000
00000000
00000000
00001000
00000100
00000001
00000000
,
00001000
00000010
00000001
00000000
00001000
00000010
00000001
00000000
,
00000100
00010000
00100000
00000000
01000000
10000000
00010000
00000000
,
00100000
00010000
10010000
00000000
00100000
00001000
00010000
00000000
,
00001000
00000010
00000001
00000000
00000010
00000001
00000100
00000000
,
00000100
00000001
00001000
00000000
00001000
00000100
00000010
00000000
,
00000100
00000000
00001000
00010000
00100000
00000000
00001000
00000000
,
00011000
00000000
00100000
10000000
00100000
00000000
00010000
01000000
,
00010000
00000000
00010000
00100000
00001000
00000000
00000010
00010000
,
00001000
00000000
00000001
00001000
00000100
00000000
00000010
00001000
,
00000001
00000000
00000010
00001000
00000100
00000000
00000100
00010000
,
00001000
00000000
00000000
00000000
00001000
00010000
00001000
00100000
,
00010000
00010000
01000000
01000000
00001000
00000000
00010000
00000000
,
00000010
00000010
00001000
00000100
00000100
00000000
00000010
00000000
,
00000001
00000001
00000100
00000010
00000010
00000000
00001000
00000000
,
00010000
00010000
00100000
01000000
01000000
00000000
10000000
00000000
,
00100000
01000000
00010000
01000000
00010000
00000000
00000000
00000000
,
00100000
00010000
00100000
00010000
00100000
00000000
00001000
00000000
,
00010000
00000010
00000100
00000010
00000100
00000000
00000000
00000000
,
00000010
00001000
00000010
00001000
00000010
00000000
00000001
00000000
,
00001100
00000000
00000100
00010000
00100000
01000000
01000000
00000000
,
00100000
00100000
00010000
00000000
00000000
00010000
00000010
00000000
,
00001000
00001000
00000100
00000000
00000000
00000001
00001000
00000000
,
00000100
00000100
00000011
00000000
00000000
00001000
01000000
00000000
,
00100000
00100000
10000000
00000000
00000000
00010000
00100000
00000000
,
00010000
00010000
10000000
00000000
00000000
00100000
00010000
00000000
,
00000100
00000100
00000010
00000000
00000000
00000001
00000100
00000000
,
00000010
00000010
00001000
00000000
00000000
00000100
00000010
00000000
,
00000001
00000100
00000001
00000100
00000000
00000000
00000010
00000000
,
00001000
00000001
00000010
00000100
00000000
00000000
00010000
00000000
,
00001000
00100000
00010000
01000000
00000000
00000000
00100000
10000000
,
00100000
10000000
00010000
00100000
00000000
00000000
00010000
00100000
,
00010000
00100000
00010000
00001000
00000000
00000000
00000100
00000010
,
00001000
00000100
00001000
00000001
00000000
00000000
00000001
00000010
,
00000001
00000100
00000010
00001000
00000000
00000000
00010000
00100000
,
00010000
01000000
00100000
10000000
00000000
00000000
00100000
01000000
,
00010000
10000000
01000000
00000000
00000000
00000000
00010000
00001000
,
00010000
00001000
00010000
00000000
00000001
00001000
00000100
00000000
,
00000010
00001000
00000010
00000000
00001000
00010000
01000000
00000000
,
01000000
10000000
01000000
00000000
00100000
10000000
01000000
00000000
,
00010000
00100000
00010000
00000000
00100000
01000000
10010000
00000000
,
00100000
00100000
00001000
00000000
00010000
00010000
00000100
00000000
,
00001100
00000000
00000101
00000001
00000011
00000000
00000100
00000100
,
00000100
00000000
00000000
00010000
,
00000000
00000000
00000000
00011000
;
