#TITLE:Stereo Love;
#SUBTITLE:;
#ARTIST:Edward Maya & Vika Jigulina;
#TITLETRANSLIT:27;
#SUBTITLETRANSLIT:;
#ARTISTTRANSLIT:;
#GENRE:;
#CREDIT:SpyHunter29;
#MENUCOLOR:;
#BANNER:Stereo Love.png;
#DISC:Stereo Love.png;
#BACKGROUND:Stereo Love-BG.png;
#PREVIEW:Stereo Love-BG.png;
#LYRICSPATH:;
#CDTITLE:;
#MUSIC:Stereo Love.mp3;
#METERTYPE:DDR X;
#SAMPLESTART:15.110;
#SAMPLELENGTH:15.000;
#SELECTABLE:YES;
#OFFSET:-0.020;
#BPMS:0.000=127.000;
#STOPS:;
#BGCHANGES:-0.020=Stereo Love.avi=1.000=0=0=1,
99999=-nosongbg-=1.000=0=0=0 // don't automatically add -songbackground-;

//---------------dance-single - BEGINNER----------------
#NOTES:
     dance-single:
     BEGINNER:
     Beginner:
     1:
     0.120,0.154,0.083,0.000,0.000: // measure 1
0000
0000
0000
0000
,  // measure 2
0000
0000
0000
0000
,  // measure 3
0000
0000
0000
0000
,  // measure 4
0000
0000
0000
0000
,  // measure 5
1000
0000
0000
0000
,  // measure 6
0001
0000
0000
0000
,  // measure 7
1000
0000
0000
0000
,  // measure 8
0001
0000
0000
0000
,  // measure 9
1000
0000
1000
0000
,  // measure 10
0001
0000
0001
0000
,  // measure 11
0100
0000
0000
0000
,  // measure 12
0010
0000
0000
0000
,  // measure 13
1000
0000
1000
0000
,  // measure 14
0001
0000
0001
0000
,  // measure 15
0010
0000
0000
0000
,  // measure 16
0100
0000
0000
0000
,  // measure 17
1001
0000
0000
0000
,  // measure 18
1001
0000
0000
0000
,  // measure 19
1000
0000
0000
0000
,  // measure 20
0001
0000
0000
0000
,  // measure 21
1001
0000
0000
0000
,  // measure 22
1001
0000
0000
0000
,  // measure 23
0001
0000
0000
0000
,  // measure 24
1000
0000
0000
0000
,  // measure 25
0000
0000
0100
0100
,  // measure 26
0000
0000
0010
0010
,  // measure 27
0000
0000
0100
0100
,  // measure 28
0000
1000
0000
0011
,  // measure 29
0000
0000
0100
0100
,  // measure 30
0000
0000
0010
0010
,  // measure 31
0000
0000
0100
0100
,  // measure 32
0000
0001
0000
1000
,  // measure 33
0000
0001
0000
0010
,  // measure 34
0000
0100
0000
1000
,  // measure 35
0000
0100
0000
0100
,  // measure 36
0000
0010
0010
0010
,  // measure 37
0000
0001
0000
0100
,  // measure 38
0000
0010
0000
1000
,  // measure 39
0000
0001
0001
0001
,  // measure 40
0000
1000
1000
0000
,  // measure 41
1000
0000
1000
0000
,  // measure 42
0001
0000
0001
0000
,  // measure 43
0010
0000
0000
0000
,  // measure 44
0100
0000
0000
0000
,  // measure 45
1000
0000
1000
0000
,  // measure 46
0001
0000
0001
0000
,  // measure 47
0100
0000
0000
0000
,  // measure 48
0010
0000
0000
0000
,  // measure 49
1001
0000
0000
0000
,  // measure 50
1001
0000
0000
0000
,  // measure 51
0010
0000
0010
0000
,  // measure 52
0100
0000
0100
0000
,  // measure 53
0110
0000
0000
0000
,  // measure 54
0110
0000
0000
0000
,  // measure 55
0001
0000
0001
0000
,  // measure 56
1000
0000
1000
0000
;

//---------------dance-single - BASIC----------------
#NOTES:
     dance-single:
     BASIC:
     Easy:
     4:
     0.251,0.233,0.000,0.139,0.000: // measure 1
0000
0000
0000
0000
,  // measure 2
0000
0000
0000
0000
,  // measure 3
0000
0000
0000
0000
,  // measure 4
0000
0000
0000
0000
,  // measure 5
0002
0000
0000
0000
0000
0003
0000
0000
,  // measure 6
0200
0000
0300
0000
,  // measure 7
0020
0000
0030
0000
,  // measure 8
2000
0000
3000
0000
,  // measure 9
0001
0000
0000
0000
0001
1000
0001
0000
,  // measure 10
1000
0010
0100
0001
,  // measure 11
1000
0100
1000
1000
,  // measure 12
0001
0100
0001
0001
,  // measure 13
0010
0000
0000
0000
0100
1000
0100
0000
,  // measure 14
1000
0100
0010
0001
,  // measure 15
1000
0010
1000
1000
,  // measure 16
0001
0010
0001
0001
,  // measure 17
2000
3000
0100
0010
,  // measure 18
0002
0003
0010
0100
,  // measure 19
0010
0001
0100
0010
,  // measure 20
1000
0000
0100
0100
,  // measure 21
0020
0030
0001
0100
,  // measure 22
0020
0030
1000
0010
,  // measure 23
0100
0001
0010
0001
,  // measure 24
0200
0000
0000
0000
0000
0300
0000
0000
,  // measure 25
0000
1000
0100
1000
,  // measure 26
0001
0100
0001
1000
,  // measure 27
0001
0010
0001
0100
,  // measure 28
0001
0010
1000
0100
,  // measure 29
0001
1000
0100
1000
,  // measure 30
0010
1000
0100
0010
,  // measure 31
0001
0100
0001
1000
,  // measure 32
0001
0010
0100
1000
,  // measure 33
0000
0100
0010
0001
,  // measure 34
1000
0100
0010
0001
,  // measure 35
1000
0010
0100
0010
,  // measure 36
0000
0100
0010
0100
,  // measure 37
0000
0001
0010
0001
,  // measure 38
0100
1000
0010
1000
,  // measure 39
0100
0000
0001
1000
,  // measure 40
0000
1000
0001
0100
,  // measure 41
0010
0000
0000
0000
1000
0010
0100
0000
,  // measure 42
0010
1000
0100
1000
,  // measure 43
0010
0100
0001
0001
,  // measure 44
0100
0010
1000
1000
,  // measure 45
0100
0000
0000
0000
1000
0001
0010
0000
,  // measure 46
0001
0010
0100
1000
,  // measure 47
0010
1000
0100
0100
,  // measure 48
0010
0001
0100
0100
,  // measure 49
0020
0030
1000
0001
,  // measure 50
0200
0300
0001
1000
,  // measure 51
0010
1000
0100
0010
,  // measure 52
0001
0000
1000
1000
,  // measure 53
0002
0003
0001
0010
,  // measure 54
0200
0300
0100
1000
,  // measure 55
0010
0100
0001
1000
,  // measure 56
0020
0000
0200
0000
,  // measure 57
0330
0000
0000
0000
;

//---------------dance-single - DIFFICULT----------------
#NOTES:
     dance-single:
     DIFFICULT:
     Medium:
     6:
     0.321,0.285,0.074,0.185,0.019: // measure 1
0000
0000
0000
0000
,  // measure 2
0000
0000
0000
0000
,  // measure 3
0000
0000
0000
0000
,  // measure 4
0000
0000
0000
0000
,  // measure 5
0020
0000
0030
0000
0100
1000
0100
0000
,  // measure 6
0020
0000
0030
0000
0001
0010
0001
0000
,  // measure 7
0100
0000
0000
0001
0000
0000
0100
0000
0000
0001
0000
0000
0000
0000
0000
0000
,  // measure 8
0010
0000
0000
1000
0000
0000
0010
0000
0000
1000
0000
0000
0000
0000
0000
0000
,  // measure 9
0020
0000
0030
0000
1000
0001
0100
0000
,  // measure 10
0001
0010
0100
1000
,  // measure 11
0001
0000
0100
0000
0001
0010
0001
0000
,  // measure 12
1000
0000
0100
0000
1000
0010
1000
0000
,  // measure 13
0200
0000
0300
0000
0100
0010
0001
0000
,  // measure 14
1000
0010
0100
0001
,  // measure 15
1000
0000
0010
0000
1000
0100
1000
0000
,  // measure 16
0001
0100
0010
1000
,  // measure 17
0002
0003
1000
0110
,  // measure 18
0002
0003
0001
0110
,  // measure 19
1000
0000
0100
1000
0010
0000
1000
0000
,  // measure 20
0100
0000
0000
0000
0010
0001
0010
0000
,  // measure 21
0200
0300
0010
1001
,  // measure 22
0200
0300
0100
1001
,  // measure 23
0010
0000
1000
0010
0100
0000
0001
0000
,  // measure 24
2000
0001
0000
3001
,  // measure 25
1000
0000
0100
0000
1000
0001
1000
0000
,  // measure 26
0001
0000
0100
0000
0001
1000
0001
0000
,  // measure 27
1000
0000
0001
0000
0001
1000
0100
0000
,  // measure 28
2000
0100
0010
3001
,  // measure 29
0100
0000
0001
0010
0001
0000
1000
0000
,  // measure 30
0100
0000
1000
0010
1000
0000
0100
0000
,  // measure 31
0010
0000
0001
1000
0001
0000
0100
0000
,  // measure 32
0002
0100
1000
0013
,  // measure 33
0000
0001
0000
0010
0000
0100
0000
1000
,  // measure 34
0000
0001
0000
0010
0000
0100
0000
1000
,  // measure 35
0000
0000
0001
0000
0100
0001
1000
0000
,  // measure 36
0000
0000
1000
0000
0100
1000
0001
0000
,  // measure 37
0000
1000
0000
0100
0000
0010
0000
0001
,  // measure 38
0000
1000
0000
0100
0000
0010
0000
0001
,  // measure 39
0000
0000
0100
0000
0001
1000
0010
0000
,  // measure 40
0000
0000
1000
0000
0010
1000
0100
0000
,  // measure 41
0020
0000
0030
0000
0001
0010
0100
0000
,  // measure 42
1000
0100
0010
0001
,  // measure 43
0100
0000
0010
0000
1000
0001
1000
0000
,  // measure 44
0100
0000
0010
0000
0001
1000
0001
0000
,  // measure 45
0020
0000
0030
0000
0001
0010
0100
0000
,  // measure 46
1000
0100
0010
0001
,  // measure 47
0100
0000
0010
0000
0100
0010
1000
0000
,  // measure 48
0100
0000
0010
0000
0100
0010
0001
0000
,  // measure 49
0200
0300
0001
0110
,  // measure 50
2000
3000
1000
0110
,  // measure 51
0010
0000
1000
0000
0010
1000
0100
0000
,  // measure 52
2000
0000
3000
0000
0001
1000
0100
0000
,  // measure 53
0002
0003
1000
0110
,  // measure 54
0002
0003
0001
0110
,  // measure 55
1000
0000
0010
1000
0001
0000
0100
0000
,  // measure 56
0020
0100
0000
0200
,  // measure 57
0330
0000
0000
0000
;

//---------------dance-single - EXPERT----------------
#NOTES:
     dance-single:
     EXPERT:
     Hard:
     11:
     0.484,0.466,0.185,0.167,0.056: // measure 1
0000
0000
0000
0000
,  // measure 2
0000
0000
0000
0000
,  // measure 3
0000
0000
0000
0000
,  // measure 4
0000
0000
0000
0000
,  // measure 5
1000
0000
0000
0100
0000
0000
0010
0000
0000
0000
0001
0000
0000
0000
1000
0000
,  // measure 6
0001
0000
0000
0100
0000
0000
0010
0000
0000
0000
1000
0000
0000
0000
1000
0000
,  // measure 7
0001
0000
0000
0101
0000
0000
0100
0000
0000
0000
0110
0000
0000
0000
0010
0000
,  // measure 8
1000
0000
0000
1001
0000
0000
0010
0000
0000
0000
0110
0000
0000
0000
0010
0000
,  // measure 9
0001
0000
0000
1000
0100
0000
1000
0000
0001
0000
0100
0000
0010
0000
0100
0000
,  // measure 10
0001
0010
0100
0010
0001
0100
0010
1000
,  // measure 11
0001
1000
0010
1000
0001
0100
0001
0000
,  // measure 12
1000
0100
0010
0001
0100
0010
1000
0000
,  // measure 13
1000
0000
0000
0001
0100
0000
0010
0000
0100
0000
0001
0000
0010
0000
0001
0000
,  // measure 14
1000
0010
1000
0100
0010
0100
0010
0001
,  // measure 15
0010
0001
0100
0010
1000
0001
0100
0000
,  // measure 16
0001
0000
0000
0100
0000
0000
0010
0000
0000
0000
1000
0000
0000
0000
1000
0000
,  // measure 17
0220
0000
0330
1000
0100
0010
0001
0000
,  // measure 18
2002
0000
3003
0001
0010
0100
1000
0001
,  // measure 19
0100
0000
0001
0100
0001
1000
0010
1000
,  // measure 20
0001
0000
1000
0100
0010
0001
1000
0000
,  // measure 21
2002
0000
3003
1000
0010
0100
0001
0000
,  // measure 22
0220
0000
0330
0010
0100
0001
1000
0100
,  // measure 23
0010
0000
0001
0010
0001
1000
0100
1000
,  // measure 24
0001
0000
0000
0100
0000
0000
0001
0000
0000
0000
1000
0000
0000
0000
1000
0000
,  // measure 25
0100
0000
0100
1000
0100
0010
0001
0100
,  // measure 26
0010
0000
0010
0100
0010
1000
0001
0010
,  // measure 27
0100
0000
1000
0001
1000
0100
0010
0001
,  // measure 28
0000
0100
0000
0010
0000
1000
0000
0001
,  // measure 29
0100
0000
0100
0001
0010
0001
1000
0010
,  // measure 30
0100
0000
0100
0010
1000
0001
1000
0100
,  // measure 31
0010
0000
0001
1000
0001
0010
0100
1000
,  // measure 32
0000
0010
0000
0100
0000
0001
0000
0100
,  // measure 33
0000
0100
0010
1000
0000
1010
0000
0101
,  // measure 34
0000
0100
0010
0001
0000
1100
0000
0011
,  // measure 35
0000
1000
0100
1000
0001
0100
0010
1000
,  // measure 36
0000
0001
0010
0001
0100
0010
0100
0001
,  // measure 37
0000
1000
0001
0010
0000
0101
0000
0011
,  // measure 38
0000
0001
1000
0010
0000
1010
0000
1100
,  // measure 39
0000
1000
0100
0010
0001
0100
0010
1000
,  // measure 40
0000
1000
0001
0100
0001
1000
0100
1000
,  // measure 41
0001
0000
0000
1000
0100
0000
0010
0000
0100
0000
1000
0000
0010
0000
0100
0000
,  // measure 42
0010
1000
0001
0010
0001
1000
0010
0100
,  // measure 43
0001
1000
0100
0010
0001
0100
0010
0000
,  // measure 44
1000
0100
1000
0010
0100
0001
0010
0000
,  // measure 45
0001
0000
0000
0010
1000
0000
0010
0000
0100
0000
0001
0000
0010
0000
0100
0000
,  // measure 46
1000
0010
0100
0001
0010
0100
1000
0100
,  // measure 47
0010
0001
0100
0001
1000
0100
0010
0000
,  // measure 48
0001
0000
0000
0100
0000
0000
0010
0000
0000
0000
1000
0000
0001
0000
0000
0000
,  // measure 49
2020
0000
3030
1000
0010
1000
0001
0000
,  // measure 50
0202
0000
0303
0001
0100
0010
1000
0001
,  // measure 51
0100
0000
0001
0100
0010
1000
0001
0010
,  // measure 52
0100
0000
1000
0100
0010
0001
1000
0000
,  // measure 53
0220
0000
0330
0010
0100
0001
1000
0000
,  // measure 54
2002
0000
3003
1000
0001
0010
0100
0010
,  // measure 55
0001
0000
0001
1000
0100
0010
0100
1000
,  // measure 56
0001
0000
0000
0100
0000
0000
0010
0000
0000
0000
2000
0000
0002
0000
0000
0000
,  // measure 57
3003
0000
0000
0000
;
