#TITLE:Like A G6;
#SUBTITLE:;
#ARTIST:Far East Movement ft. Cataracs & Dev;
#TITLETRANSLIT:19;
#SUBTITLETRANSLIT:;
#ARTISTTRANSLIT:;
#GENRE:;
#CREDIT:SpyHunter29;
#MENUCOLOR:;
#BANNER:Like A G6.png;
#DISC:Like A G6.png;
#BACKGROUND:Like A G6-BG.png;
#PREVIEW:Like A G6-BG.png;
#LYRICSPATH:;
#CDTITLE:;
#MUSIC:Like A G6.mp3;
#SAMPLESTART:0.000;
#SAMPLELENGTH:15.000;
#SELECTABLE:YES;
#OFFSET:-0.500;
#BPMS:0.000=125.000;
#STOPS:;
#BGCHANGES:-7.000=X2_Yuni.avi=1.125=0=0=1,
99999=-nosongbg-=1.000=0=0=0 // don't automatically add -songbackground-;

//---------------dance-single - BEGINNER----------------
#NOTES:
     dance-single:
     BEGINNER:
     Beginner:
     1:
     0.124,0.179,0.000,0.011,0.000:
0000
0000
0000
0000
,
0000
0000
0000
0000
,
0000
0000
0000
0000
,
0000
0000
0000
0000
,
0001
0000
0001
0000
,
1000
0000
1000
0000
,
0000
0000
0001
0000
,
1000
0000
0001
0000
,
0000
1000
0000
1000
,
0000
0001
0000
0001
,
0001
0001
0000
0001
,
0000
1000
0000
1000
,
0000
0010
0000
0010
,
0000
0100
0000
0100
,
0100
0100
0000
0100
,
0000
0010
0000
0000
,
0010
0000
0000
0000
,
0100
0000
0000
0000
,
0001
0000
0000
0000
,
1000
0000
0000
0000
,
0001
0000
0000
0000
,
0100
0000
0000
0000
,
0010
0000
0000
0000
,
1000
0000
0000
0000
,
0002
0000
0003
0000
,
0001
0001
0001
0000
,
1000
0000
0000
0000
,
1000
0000
0000
0000
,
0010
0010
0010
0000
,
0100
0100
0100
0000
,
0010
0000
0100
0000
,
0001
0001
0001
0000
,
1000
0000
0000
0000
,
0001
0000
0001
0000
,
1000
0000
0000
0000
,
1000
0000
1000
0000
,
0100
0000
0000
0000
,
0010
0000
0010
0000
,
0001
0000
0000
0000
,
0100
0000
0010
0000
,
0000
1000
0000
0001
,
0000
1000
0000
0001
,
0001
0001
0000
1000
,
0000
0100
0000
0010
,
0000
0001
0000
0100
,
0000
0010
0000
1000
,
1000
1000
0000
0100
,
0000
0010
0010
0010
;

//---------------dance-single - BASIC----------------
#NOTES:
     dance-single:
     BASIC:
     Easy:
     4:
     0.253,0.332,0.096,0.075,0.000:
0000
0000
0000
0000
,
0000
0000
0000
0000
,
0000
0000
0000
0000
,
0000
0000
0000
0000
,
0001
0000
0001
0000
,
1000
0000
1000
0000
,
1000
0000
0001
0000
,
2002
0000
3003
0000
,
0100
0010
1000
1000
,
0100
0001
0001
0010
,
0001
0100
0010
1000
,
0001
0100
0010
0010
,
1000
0100
1001
1001
,
0100
1001
1001
0010
,
0100
0010
1000
0100
,
0010
0001
1001
1001
,
1000
0100
2000
3000
,
0001
0100
0002
0003
,
1000
0100
0010
0000
,
0010
0001
0100
0000
,
0010
0100
0010
1000
,
0100
0010
0001
0000
,
0100
0010
0100
0001
,
1000
0100
0010
0000
,
0020
0000
0030
0200
0000
0300
1000
0000
,
0100
1000
0001
0001
,
1000
0010
0100
0001
,
1000
0100
1000
0000
,
0001
0100
1001
0000
,
1000
0100
1001
0000
,
1000
0010
1000
0001
,
0010
0010
0100
0100
,
0010
1000
0100
0000
,
1000
0001
0100
0000
,
0001
0100
0010
1000
,
0100
0010
0001
0000
,
1000
0100
0010
0000
,
0001
0010
0001
0001
,
0000
0010
0100
1000
,
0001
0100
1000
1000
,
0000
0010
1000
1000
,
0010
0001
0001
0010
,
1000
0100
1000
0010
,
1000
0100
0010
0001
,
0000
0100
1000
1000
,
0100
0001
0001
1000
,
0100
1000
0001
0010
,
0001
0200
0010
0310
;

//---------------dance-single - DIFFICULT----------------
#NOTES:
     dance-single:
     DIFFICULT:
     Medium:
     7:
     0.377,0.357,0.235,0.128,0.000: // measure 1
0000
0000
0000
0000
,  // measure 2
0000
0000
0000
0000
,  // measure 3
0000
0000
0000
0000
,  // measure 4
0000
0000
0000
0000
,  // measure 5
0001
1000
0100
1000
0002
0000
0003
0000
,  // measure 6
0100
0010
1000
0001
,  // measure 7
0000
0000
0010
0001
1000
0001
0100
0000
,  // measure 8
0010
0100
0001
1000
,  // measure 9
0000
0100
1100
1100
,  // measure 10
0100
0000
0101
0000
0101
0000
0001
0100
,  // measure 11
1000
0100
0001
0000
1000
0000
0100
0000
,  // measure 12
0010
0000
0001
1000
0020
0000
0200
0000
,  // measure 13
0330
0010
1010
1010
,  // measure 14
0010
0000
0011
0000
0011
0000
0010
0001
,  // measure 15
0100
0001
0010
0000
0001
0000
0100
0000
,  // measure 16
0010
0000
1000
0001
0200
0000
0310
0000
,  // measure 17
1000
0100
1000
0100
0020
0000
0030
0000
,  // measure 18
0001
0010
0001
0010
0200
0000
0300
0000
,  // measure 19
1000
0100
1000
0100
1000
0000
0001
0000
,  // measure 20
1000
0010
1000
0010
1000
0000
0100
0000
,  // measure 21
0010
0001
0100
0010
,  // measure 22
1000
0010
0100
0001
0000
0100
0000
0100
,  // measure 23
0010
0100
0010
0000
1000
0001
1000
0000
,  // measure 24
0010
0100
0010
0000
0001
1000
0001
0000
,  // measure 25
0020
0000
0030
0200
0000
0300
0001
0100
,  // measure 26
0001
0000
0100
0000
0001
0100
0001
0000
,  // measure 27
1000
0100
1000
0000
0001
0100
0001
0000
,  // measure 28
1000
0100
0010
0001
0200
0000
0310
0000
,  // measure 29
1000
0010
0100
0001
2000
0000
3000
0000
,  // measure 30
0001
0010
0100
1000
0002
0000
0003
0000
,  // measure 31
1000
0100
0010
0001
,  // measure 32
0010
0100
1000
0100
0020
0000
0031
0000
,  // measure 33
1000
0010
1000
0001
0100
0000
0000
0000
,  // measure 34
0001
0100
0010
1000
,  // measure 35
0000
0000
0001
1000
0010
0100
0010
0000
,  // measure 36
1000
0100
0010
0001
,  // measure 37
0010
0001
1000
0001
0100
0000
0000
0000
,  // measure 38
0100
0010
1010
0101
,  // measure 39
0000
0000
0001
0010
0100
1000
0001
0000
,  // measure 40
1000
0100
1100
0011
,  // measure 41
0000
0100
0011
0101
,  // measure 42
0100
0000
1010
0000
1100
0000
0010
0100
,  // measure 43
1000
0100
0010
0000
0001
0000
1000
0000
,  // measure 44
0010
0000
1000
0000
0001
0000
1000
0001
,  // measure 45
1000
0010
0101
1010
,  // measure 46
0010
0000
1100
0000
0011
0000
1000
0100
,  // measure 47
0010
0100
1000
0000
0001
0010
0001
0000
,  // measure 48
0100
0000
0010
0100
0110
0000
1001
0000
;

//---------------dance-single - EXPERT----------------
#NOTES:
     dance-single:
     EXPERT:
     Hard:
     10:
     0.499,0.485,0.278,0.150,0.128:
0000
0000
0000
0000
,
0000
0000
0000
0000
,
0000
0000
0000
0000
,
0000
0000
0000
0000
,
0001
1000
0100
1000
0001
0000
0010
0100
,
1000
0001
0101
1100
,
0000
0000
1000
0010
0100
0001
1000
0000
,
0010
0000
0100
0010
0110
0000
1001
0000
,
0102
0000
0003
1000
2100
0000
3001
0000
,
0002
0000
0100
0000
0103
0000
0000
0000
1000
0000
0000
0000
0100
0000
1000
0100
,
0000
1000
0100
0000
0010
0000
0001
0000
0010
0000
0100
0000
1000
0000
0000
0000
,
0010
0000
0000
0000
0100
0000
0010
0000
1000
0000
0000
0001
1000
0001
1000
0001
,
1000
0000
0001
1000
0101
0000
1100
0000
,
0001
0000
1000
0000
1100
0000
0000
0000
0101
0000
0000
0000
1000
0000
0001
0100
,
0000
0010
1000
0000
0010
0000
0100
0000
0001
0000
0100
0000
0010
0000
0000
0000
,
1001
0000
0100
0010
0110
0000
0110
0000
,
0010
0000
0100
0000
0001
0000
0100
0000
0020
0000
0000
1000
0030
0000
0000
0000
,
1000
0000
0100
0000
0010
0000
0001
0000
0020
0000
0000
0001
0030
0000
0000
0000
,
0001
0010
0100
1000
0100
0000
1000
0001
,
0100
0000
0010
0100
0000
0001
1000
0000
0000
0000
1000
0001
0000
0100
0010
0000
,
0100
0010
1000
0100
0010
0001
0100
0010
,
1000
0100
1000
0001
0000
0100
0000
0100
,
0010
0100
0001
0010
0001
1000
0100
0010
,
0001
0100
1000
0000
0001
0010
1000
0000
,
0220
0000
0330
2002
0000
3003
1000
0001
,
1000
0000
0100
0000
0001
1000
0001
0000
,
1000
0100
1000
0100
0010
0100
1000
0010
,
0100
0000
0010
0000
1000
0000
0100
0000
0010
0000
0000
0001
0100
0001
0100
0001
,
0100
0010
1000
0010
0200
0000
0301
0100
,
0010
1000
0100
0010
0002
0000
0013
0100
,
1000
0001
1000
0100
1000
0010
1000
0001
,
1000
0010
0100
0001
0010
0010
0100
0100
,
1000
0001
1000
0100
1000
0000
0001
0010
,
0001
0000
1000
0100
0010
0001
0100
0010
,
1000
0000
1000
0010
0100
0001
0010
0100
,
0010
0000
0000
0000
0001
0000
0100
0000
0010
0000
1000
0000
0001
0100
0100
0000
,
0001
1000
0100
1000
0001
0000
0100
0001
,
2000
0010
0001
3100
,
0001
0000
0010
0100
1000
0100
0010
0000
,
0002
0000
0100
0100
2000
0000
3003
0000
,
1001
0000
0100
0010
0110
0000
1010
0000
,
0100
0000
0010
0000
0110
0000
0000
0000
0011
0000
0000
0000
1000
0000
0100
1000
,
0000
0001
0010
0000
0001
0000
1000
0000
0100
0000
0010
0000
0001
0000
0000
0000
,
0100
0000
0000
0000
0010
0000
0100
0000
0001
0000
0000
1000
0010
1000
0010
1000
,
0010
0000
1000
0100
1100
0000
0101
0000
,
0001
0000
0100
0000
0101
0000
0000
0000
1100
0000
0000
0000
1000
0000
0001
0100
,
0000
1000
0100
0000
0010
0000
0001
0000
1000
0000
0100
0000
0010
0000
0000
0000
,
0001
0000
1000
0001
0110
0000
0110
0000
;
