#TITLE:I Like It;
#SUBTITLE:;
#ARTIST:Enrique Iglesias featuring Pitbull;
#TITLETRANSLIT:16;
#SUBTITLETRANSLIT:;
#ARTISTTRANSLIT:;
#GENRE:;
#CREDIT:SpyHunter29;
#MENUCOLOR:;
#BANNER:I Like It.png;
#DISC:I Like It.png;
#BACKGROUND:I Like It-BG.png;
#PREVIEW:I Like It-BG.png;
#LYRICSPATH:;
#CDTITLE:;
#METERTYPE:DDR X;
#MUSIC:I Like It.mp3;
#SAMPLESTART:51.400;
#SAMPLELENGTH:15.000;
#SELECTABLE:YES;
#OFFSET:-0.040;
#BPMS:0.000=129.000;
#STOPS:;
#BGCHANGES:-0.000=I Like It.avi=1.125=0=0=1,
99999=-nosongbg-=1.000=0=0=0 // don't automatically add -songbackground-;

//---------------dance-single - BEGINNER----------------
#NOTES:
     dance-single:
     BEGINNER:
     Beginner:
     1:
     0.127,0.176,0.000,0.087,0.000:
0000
0000
0000
0000
,
0000
0000
0000
0000
,
0000
0000
0000
0000
,
0000
0000
0000
0000
,
1000
0000
0000
0000
,
0001
0000
0000
0000
,
0010
0000
0000
0000
,
0100
0000
0000
0000
,
0001
0000
0001
0000
,
1000
0000
1000
0000
,
0001
0000
0001
0000
,
1000
1000
1000
0000
,
0001
0000
0000
0000
,
0001
0001
0001
0000
,
1000
0000
0000
0000
,
1000
1000
1000
0000
,
0100
0000
0000
0000
,
0100
0100
0000
0000
,
0010
0000
0000
0000
,
0010
0010
0010
0010
,
0000
0000
0000
0001
,
0000
0000
0000
0000
,
1000
0000
0100
0000
,
1000
0000
0100
0100
,
0000
0000
0000
1000
,
0000
0000
0000
0000
,
0001
0000
0010
0000
,
0001
0000
0010
0000
,
0010
0010
0000
0000
,
0100
0000
1000
0000
,
0001
0001
0000
0000
,
0010
0000
0100
0000
,
0010
0010
0000
0000
,
1000
0000
0001
0000
,
0010
0020
0030
0000
,
0100
0200
0300
0000
,
1000
1000
0000
0000
,
0010
0000
0001
0000
,
0010
0010
0000
0000
,
0100
0000
1000
0000
,
0100
0100
0000
0000
,
1000
0000
0001
0000
,
1000
2000
3000
0000
,
0001
0002
0003
0000
,
0000
1000
0000
0100
,
0000
0001
0000
0000
,
2000
3000
0000
0000
,
0002
0003
0000
0000
,
0000
0001
0000
0010
,
0000
1000
0000
0000
,
2000
3000
0000
0000
,
0002
0003
0000
0000
,
0200
0300
0000
0000
;

//---------------dance-single - BASIC----------------
#NOTES:
     dance-single:
     BASIC:
     Easy:
     3:
     0.187,0.226,0.019,0.087,0.000:
0000
0000
0000
0000
,
0000
0000
0000
0000
,
0000
0000
0000
0000
,
0000
0000
0000
0000
,
1000
0001
0000
0000
,
0001
1000
0000
0000
,
0010
0010
0000
0000
,
0100
0100
0000
0000
,
0001
0000
0001
0000
,
1000
0000
1000
0000
,
0001
0000
0001
0000
,
1000
1000
1000
0000
,
0001
0000
0001
0000
,
0001
1000
0100
0000
,
1000
0000
1000
0000
,
0001
1000
0010
0000
,
0100
0001
0100
0000
,
0001
1000
0001
0000
,
1000
0010
1000
0000
,
0010
0100
0010
1000
,
0000
1000
0000
0001
,
0000
0001
0000
1000
,
1000
0100
1000
0100
,
1000
0001
0100
0001
,
0000
0001
0000
1000
,
0000
1000
0000
0001
,
0001
0010
0100
0010
,
0001
1000
0100
0000
,
0110
0110
0000
0001
,
0100
0010
1000
0000
,
0001
1000
0000
0001
,
0010
0100
1000
0000
,
0010
0100
0000
0100
,
0010
1000
0001
0000
,
0010
0020
0030
0000
,
0100
0200
0300
0000
,
1000
1000
0000
0100
,
0010
0001
1000
0000
,
0010
0010
0000
0100
,
0010
1000
0001
0000
,
0010
0100
0000
1000
,
0100
0010
0001
0000
,
1000
2000
3000
0000
,
0001
0002
0003
0000
,
0000
1000
0000
0100
,
0000
0001
0000
0100
,
2000
3001
0000
0000
,
0002
1003
0000
0000
,
0000
0001
0000
0010
,
0000
1000
0000
0010
,
2000
3001
0000
0000
,
0002
1003
0000
0000
,
0200
0310
0000
0000
;

//---------------dance-single - DIFFICULT----------------
#NOTES:
     dance-single:
     DIFFICULT:
     Medium:
     6:
     0.351,0.381,0.337,0.173,0.000:
0000
0000
0000
0000
,
0000
0000
0000
0000
,
0000
0000
0000
0000
,
0000
0000
0000
0000
,
1100
1100
0000
0001
,
0101
0101
0000
0100
,
1010
1010
0000
0010
,
0011
0011
0000
0010
,
2000
3000
1000
0100
,
2000
3000
0001
0100
,
0002
0003
0001
0100
,
0001
1000
0001
0000
,
0010
0000
0010
0000
0100
1000
0100
0000
,
1000
0001
0100
0000
,
0001
0000
0001
0000
0100
0010
0100
0000
,
0001
1000
0010
0000
,
1000
0000
0100
1000
0100
0000
0010
0001
,
0010
0001
0100
0000
,
0001
0000
0100
0001
0100
0000
0010
1000
,
0010
0000
1000
0000
0100
0000
0010
0010
,
0000
0000
0001
0001
0000
0000
1000
1000
,
0000
0000
0100
0100
0000
0000
0110
0000
,
0001
0100
0001
0000
1000
0100
1000
0000
,
0010
0000
0100
0000
0001
0000
0010
0010
,
0000
0000
0001
0001
0000
0000
0100
0100
,
0000
0000
1000
1000
0000
0000
0100
0000
,
1000
0010
1000
0000
0001
0010
0001
0000
,
0010
0001
0200
0310
,
0110
0000
1002
0000
0003
1000
0100
1000
,
0001
1000
0010
0100
,
0101
0000
0210
0000
0300
0010
0100
0010
,
1000
0001
0010
0100
,
1100
0000
2010
0000
3000
0001
1000
0100
,
1000
0000
0001
0000
0010
0001
0100
0000
,
0101
0000
0101
0000
0000
0010
0100
0000
,
1010
0000
0101
0000
0000
1000
0100
0000
,
1100
0000
1020
0000
0030
1000
0100
0010
,
0001
0100
0010
1000
,
0101
0000
1200
0000
0300
0010
0001
0010
,
0100
1000
0001
0100
,
0101
0000
0120
0000
1030
0000
0001
0100
,
0010
1000
0100
0010
,
0011
0000
1100
0000
0000
0100
1000
0000
,
1010
0000
0101
0000
0000
0100
0010
0000
,
1000
0000
0100
0200
0000
0300
1000
2000
,
0000
3000
0010
0020
0000
0030
1000
1000
,
0001
1000
0100
0110
,
0001
1000
0010
0110
,
0001
0000
0100
0200
0000
0300
0001
0002
,
0000
0003
1000
2000
0000
3000
0010
0010
,
1000
0100
0001
1001
,
0001
0100
1000
1001
,
0110
0220
0000
0330
;

//---------------dance-single - EXPERT----------------
#NOTES:
     dance-single:
     EXPERT:
     Hard:
     9:
     0.517,0.511,0.453,0.048,0.120: // measure 1
0000
0000
0000
0000
,  // measure 2
0000
0000
0000
0000
,  // measure 3
0000
0000
0000
0000
,  // measure 4
0000
0000
0000
0000
,  // measure 5
0101
0000
0000
0000
0101
0000
0000
0000
0100
0000
0010
1000
0000
0010
1000
0000
,  // measure 6
1100
0000
0000
0000
1100
0000
0000
0000
1000
0000
0001
0010
0000
0001
0010
0000
,  // measure 7
0101
0000
0000
0000
0011
0000
0000
0000
0001
0000
0100
0010
0000
1000
0001
0000
,  // measure 8
0101
0000
0000
0000
0110
0000
0000
0000
0100
0000
0010
1000
0000
0001
0100
0000
,  // measure 9
0010
1000
0000
0001
0000
0100
0000
0001
,  // measure 10
0010
1000
0000
1000
0000
0100
0000
1000
,  // measure 11
0010
1000
0000
0010
0000
0100
0000
0100
,  // measure 12
0001
0000
0100
0000
0001
0000
1000
0000
0010
0000
1000
0000
0001
1000
0001
0000
,  // measure 13
1000
0000
1000
0100
0010
0001
1000
0100
,  // measure 14
0010
0001
1000
0100
1000
0001
0100
0000
,  // measure 15
0010
0100
0001
0001
0010
0100
0010
0001
,  // measure 16
1000
0010
1000
0001
0100
0010
1000
0000
,  // measure 17
1001
0100
0010
0100
0001
0000
1000
0100
,  // measure 18
2000
3002
0203
0310
,  // measure 19
1000
0010
0100
0001
0010
0001
1000
0100
,  // measure 20
1000
0001
0010
0100
1000
0000
1100
1000
,  // measure 21
0001
0000
0101
0001
1000
0000
1010
1000
,  // measure 22
0001
0000
0011
0001
1000
0000
1000
0001
,  // measure 23
1000
0100
1000
0010
1000
0001
0010
0100
,  // measure 24
0010
0001
0100
0010
1000
0000
1100
0100
,  // measure 25
0010
0000
0011
0001
0100
0000
0110
1000
,  // measure 26
0001
0000
0110
0001
1000
0001
0100
0000
,  // measure 27
1000
0100
1000
0000
0001
0100
0001
0000
,  // measure 28
1000
1000
0001
0001
0100
0010
0100
0001
,  // measure 29
0011
0000
1100
0000
0010
0100
1000
0100
,  // measure 30
0010
0001
1000
0100
0000
1000
0010
0100
,  // measure 31
0101
0000
0110
0000
0010
1000
0001
1000
,  // measure 32
0010
1000
0001
0010
0000
0100
0010
0001
,  // measure 33
0101
0000
1010
0000
1000
0100
1000
0001
,  // measure 34
0010
0100
1000
0001
0000
1000
0001
0100
,  // measure 35
1100
0000
0101
0000
0001
0010
0010
0001
,  // measure 36
0011
0000
1010
0000
1000
0010
1000
0100
,  // measure 37
1100
0000
1010
0000
1000
0010
0100
0001
,  // measure 38
0010
0100
1000
0001
0000
1000
0100
1000
,  // measure 39
1001
0000
0101
0000
0001
0100
0010
1000
,  // measure 40
0001
0010
0100
1000
0000
0001
0001
1000
,  // measure 41
1100
0000
0011
0000
0010
0100
1000
0001
,  // measure 42
1000
0100
0010
0001
0000
0100
0010
1000
,  // measure 43
1010
0000
0101
0000
0010
0100
0100
0001
,  // measure 44
0011
0000
1100
0000
0010
0100
1000
0001
,  // measure 45
0010
0000
0000
0001
0100
0000
0001
0000
1000
0000
0000
0010
0100
0000
0010
0000
,  // measure 46
1000
0000
0000
0100
0010
0000
0001
0000
0100
0000
0000
0010
0100
0000
0001
0000
,  // measure 47
0101
0000
0000
0000
1010
0000
0000
0000
0100
0000
0010
0100
0000
0001
1000
0000
,  // measure 48
1100
0000
0000
0000
0011
0000
0000
0000
0100
0000
0010
0001
0000
1000
0100
0000
,  // measure 49
0010
0000
0000
0001
0010
0000
0001
0000
0100
0000
0000
1000
0010
0000
1000
0000
,  // measure 50
0100
0000
0000
0010
0100
0000
1000
0000
0001
0000
0000
0010
0100
0000
0001
0000
,  // measure 51
0101
0000
0000
0000
1100
0000
0000
0000
1000
0000
0001
0100
0000
1000
0100
0000
,  // measure 52
1100
0000
0000
0000
1010
0000
0000
0000
1000
0000
0001
0010
0000
1000
0010
0000
,  // measure 53
1010
0202
0000
0000
,  // measure 54
0303
0000
0000
0000
;
