#TITLE:California Gurls;
#SUBTITLE:;
#ARTIST:Katy Perry feat. Snoop Dogg;
#TITLETRANSLIT:04;
#SUBTITLETRANSLIT:;
#ARTISTTRANSLIT:;
#GENRE:;
#CREDIT:SpyHunter29;
#MENUCOLOR:;
#BANNER:California Gurls.png;
#DISC:;
#BACKGROUND:California Gurls-BG.png;
#PREVIEW:;
#LYRICSPATH:;
#CDTITLE:;
#METERTYPE:DDR X;
#MUSIC:California Gurls.mp3;
#SAMPLESTART:53.800;
#SAMPLELENGTH:15.000;
#SELECTABLE:YES;
#OFFSET:-0.020;
#BPMS:0.000=125.000;
#STOPS:;
#BGCHANGES:-0.200=California Gurls.avi=1.125=0=0=1,
99999=-nosongbg-=1.000=0=0=0 // don't automatically add -songbackground-;

//---------------dance-single - BEGINNER----------------
#NOTES:
     dance-single:
     BEGINNER:
     Beginner:
     1:
     0.105,0.128,0.000,0.030,0.000: // measure 1
0000
0000
0000
0000
,  // measure 2
0000
0000
0000
0000
,  // measure 3
0000
0000
0000
0000
,  // measure 4
0000
0000
0000
0000
,  // measure 5
1000
0000
0000
0000
,  // measure 6
0001
0000
0000
0000
,  // measure 7
1000
0000
1000
0000
,  // measure 8
0000
0000
0000
0000
,  // measure 9
0100
0000
0000
0000
,  // measure 10
0010
0000
0000
0000
,  // measure 11
0100
0000
0010
0000
,  // measure 12
0000
0000
0000
0000
,  // measure 13
0001
0000
0000
0000
,  // measure 14
1000
0000
0000
0000
,  // measure 15
0001
0000
1000
0000
,  // measure 16
0000
0000
0000
0000
,  // measure 17
0010
0000
0000
0000
,  // measure 18
0100
0000
0000
0000
,  // measure 19
0010
0000
0100
0000
,  // measure 20
0000
0000
0000
0000
,  // measure 21
1000
0000
0100
0000
,  // measure 22
1000
0000
0000
0000
,  // measure 23
0010
0000
0001
0000
,  // measure 24
0010
0000
0000
0000
,  // measure 25
0001
0000
0100
0000
,  // measure 26
0001
0000
0000
0000
,  // measure 27
1000
0000
0010
0000
,  // measure 28
1000
0000
0000
0000
,  // measure 29
0001
0000
0001
0000
,  // measure 30
1000
0000
1000
0000
,  // measure 31
0001
0000
1000
0000
,  // measure 32
0001
0000
0001
0000
,  // measure 33
0100
0000
0010
0000
,  // measure 34
0100
0000
0010
0000
,  // measure 35
2000
0000
3000
0000
,  // measure 36
0002
0000
0003
0000
,  // measure 37
0001
0000
0001
0000
,  // measure 38
1000
0000
1000
0000
,  // measure 39
0010
0000
0100
0000
,  // measure 40
0010
0000
0010
0000
,  // measure 41
1000
0000
0001
0000
,  // measure 42
0001
0000
1000
0000
,  // measure 43
0002
0000
0003
0000
,  // measure 44
0001
0000
1000
0000
,  // measure 45
1000
0000
1000
0000
,  // measure 46
0000
0000
0001
0000
,  // measure 47
0001
0000
0001
0000
,  // measure 48
0100
0000
0010
0000
,  // measure 49
0010
0000
0010
0000
,  // measure 50
0000
0000
0100
0000
,  // measure 51
0100
0000
0100
0000
,  // measure 52
1000
0000
1000
0000
,  // measure 53
0001
0000
0000
0000
;

//---------------dance-single - BASIC----------------
#NOTES:
     dance-single:
     BASIC:
     Easy:
     3:
     0.162,0.232,0.000,0.049,0.000: // measure 1
0000
0000
0000
0000
,  // measure 2
0000
0000
0000
0000
,  // measure 3
0000
0000
0000
0000
,  // measure 4
0000
0000
0000
0000
,  // measure 5
0010
0000
0000
0000
,  // measure 6
0100
0000
0000
0000
,  // measure 7
0001
1000
0001
1000
,  // measure 8
0000
0000
0000
0000
,  // measure 9
0001
0000
0000
0000
,  // measure 10
1000
0000
0000
0000
,  // measure 11
0100
0010
0100
0010
,  // measure 12
0000
0000
0000
0000
,  // measure 13
0001
0100
0000
1000
,  // measure 14
0100
0000
0000
0000
,  // measure 15
0001
0010
0001
0010
,  // measure 16
0000
0000
0000
0000
,  // measure 17
0001
0010
0000
1000
,  // measure 18
0010
0000
0000
0000
,  // measure 19
0001
0100
0001
0100
,  // measure 20
0001
0001
1000
1000
,  // measure 21
0001
1000
0001
0100
,  // measure 22
0001
0000
0000
0000
,  // measure 23
1000
1000
0010
0000
,  // measure 24
0001
0001
0010
0000
,  // measure 25
1000
0001
1000
0100
,  // measure 26
1000
0000
0000
0000
,  // measure 27
0010
0010
0100
0000
,  // measure 28
0001
0001
1000
0000
,  // measure 29
1000
0000
0001
0000
,  // measure 30
1000
0000
0001
0000
,  // measure 31
0010
0000
0100
0000
,  // measure 32
0010
0010
0010
0000
,  // measure 33
0001
0000
1000
0000
,  // measure 34
0001
0000
1000
0001
,  // measure 35
0000
0100
0000
0010
,  // measure 36
0000
0100
0000
0010
,  // measure 37
2000
3000
2000
3000
,  // measure 38
0002
0003
0002
0003
,  // measure 39
0010
0100
0010
0000
,  // measure 40
0100
0100
0010
0000
,  // measure 41
1000
0000
0001
0000
,  // measure 42
1000
0000
0001
0000
,  // measure 43
0010
0010
0010
0000
,  // measure 44
0100
0100
0100
0000
,  // measure 45
1000
0000
0001
0000
,  // measure 46
0000
0000
0010
0100
,  // measure 47
0010
0000
0001
0000
,  // measure 48
0100
0000
0001
1000
,  // measure 49
0001
0000
1000
0000
,  // measure 50
0000
0000
0100
0010
,  // measure 51
0100
0000
1000
0000
,  // measure 52
0020
0000
0030
0000
,  // measure 53
1000
0000
0000
0001
0000
0000
0000
0000
;

//---------------dance-single - DIFFICULT----------------
#NOTES:
     dance-single:
     DIFFICULT:
     Medium:
     5:
     0.292,0.412,0.138,0.256,0.000: // measure 1
0000
0000
0000
0000
,  // measure 2
0000
0000
0000
0000
,  // measure 3
0000
0000
0000
0000
,  // measure 4
0000
0000
0000
0000
,  // measure 5
0001
0000
0000
0000
0000
0000
1000
0100
,  // measure 6
1000
0000
0000
0000
,  // measure 7
0002
0100
1000
0103
,  // measure 8
0000
0010
0000
0100
,  // measure 9
0010
0000
0000
0000
0000
0000
1000
0010
,  // measure 10
1000
0000
0000
0000
,  // measure 11
2000
0010
0001
3010
,  // measure 12
1000
0100
0010
0001
,  // measure 13
0100
0001
0000
0010
,  // measure 14
1000
0000
0100
0000
,  // measure 15
0002
0103
2000
3100
,  // measure 16
0001
0010
0100
1000
,  // measure 17
0001
0010
0000
0100
,  // measure 18
1000
0000
0001
0000
,  // measure 19
0200
0301
0020
1030
,  // measure 20
0100
0000
0100
0000
0010
0100
0010
0000
,  // measure 21
0001
0100
0010
1000
,  // measure 22
0002
0000
0003
0000
,  // measure 23
1000
0100
1000
0000
0010
0000
0000
0000
,  // measure 24
0002
0103
0020
0030
,  // measure 25
1000
0010
0100
0001
,  // measure 26
2000
0000
3000
0000
,  // measure 27
0100
1000
0100
0000
0010
0000
0000
0000
,  // measure 28
0011
0010
1100
0100
,  // measure 29
0101
0001
0101
0100
,  // measure 30
0001
0000
0010
0000
0001
1000
0001
0000
,  // measure 31
2000
3010
2000
3100
,  // measure 32
1000
0100
0020
0000
0031
0000
0000
0000
,  // measure 33
0101
0010
1100
0010
,  // measure 34
0001
0000
0010
0000
0100
1000
0001
0000
,  // measure 35
0000
1000
0000
0100
0000
0010
0000
0001
,  // measure 36
0000
1000
0000
0010
0000
0100
0100
0000
,  // measure 37
0020
1030
0020
0031
,  // measure 38
1000
0000
0100
0000
0001
1000
0001
0000
,  // measure 39
1100
1100
0101
0101
,  // measure 40
0100
0010
0100
0000
2002
0000
3003
0000
,  // measure 41
0010
0010
0100
0100
,  // measure 42
1000
0100
1000
0000
0001
0000
0100
0000
,  // measure 43
0000
0001
0000
0100
0000
0010
0000
1000
,  // measure 44
0000
0001
0000
0100
0010
0000
1000
0000
,  // measure 45
0002
0000
0200
0303
,  // measure 46
0001
1000
1010
1000
,  // measure 47
0200
0000
2000
3300
,  // measure 48
0010
0100
1001
1000
,  // measure 49
0200
0000
0020
0330
,  // measure 50
0001
1000
0110
0010
,  // measure 51
2000
0000
0002
3003
,  // measure 52
0001
0100
0010
1000
,  // measure 53
0002
0000
0000
1003
0000
0000
0000
0000
;

//---------------dance-single - EXPERT----------------
#NOTES:
     dance-single:
     EXPERT:
     Hard:
     8:
     0.420,0.441,0.197,0.285,0.059: // measure 1
0000
0000
0000
0000
,  // measure 2
0000
0000
0000
0000
,  // measure 3
0000
0000
0000
0000
,  // measure 4
0000
0000
0000
0000
,  // measure 5
0100
0000
0000
0000
0100
0000
0000
0010
0000
0000
0010
0000
0000
0000
0001
0000
,  // measure 6
1000
0000
0000
0000
0001
0000
0000
1000
0000
0000
1000
0000
0000
0000
0001
0000
,  // measure 7
1000
0100
1000
0001
0100
0000
0001
0000
,  // measure 8
0010
0000
0000
0000
0100
0000
0000
0010
0000
0000
0010
0000
0001
0000
0000
0000
,  // measure 9
0100
0000
0000
0000
0001
0000
0000
1000
0000
0000
0010
0000
1000
0000
0000
0000
,  // measure 10
0100
0000
0000
0000
1000
0000
0000
0001
0000
0000
0010
0000
0001
0000
0000
0000
,  // measure 11
1000
0010
0100
0010
1000
0000
0001
0000
,  // measure 12
0100
0000
0000
0000
0010
0000
0000
1000
0001
0000
1000
0000
0010
0000
0000
0000
,  // measure 13
1000
0100
0010
0000
0000
0001
0010
0100
,  // measure 14
1000
0000
0000
0000
0001
0000
0000
0100
0000
0000
0001
0000
1000
0000
0000
0000
,  // measure 15
0010
0100
0001
0100
0010
0000
1000
0000
,  // measure 16
0001
0000
0000
0000
0100
0000
0000
0001
0000
0000
1000
0000
0010
0000
0000
0000
,  // measure 17
1000
0000
0000
0000
0100
0000
0000
0010
0000
0000
0001
0000
0010
0000
0000
0000
,  // measure 18
0001
0000
0000
0000
0100
0000
0000
0010
0000
0000
1000
0000
0001
0000
0000
0000
,  // measure 19
0100
0010
1000
0001
0010
0000
0100
0000
,  // measure 20
0010
0000
0000
0000
0100
0000
0000
1000
0001
0000
1000
0000
0100
0000
0010
0000
,  // measure 21
0001
0000
0001
0010
0100
1000
0010
0100
,  // measure 22
0001
0000
1000
0100
0010
0001
0100
0000
,  // measure 23
0010
1000
0010
0000
0100
0000
0001
0100
,  // measure 24
0002
0013
2000
3100
,  // measure 25
0001
0000
0010
0100
0010
0001
0100
0010
,  // measure 26
1000
0000
0001
0100
0010
1000
0001
0000
,  // measure 27
0010
0001
1000
0000
0001
0000
0100
0000
,  // measure 28
0110
0000
0001
1000
0001
1000
0001
0000
,  // measure 29
2001
3100
1002
0103
,  // measure 30
0010
0100
0001
1000
0100
0010
0001
0000
,  // measure 31
1100
0000
1010
0000
0101
0000
0010
2000
,  // measure 32
0000
3001
0020
0000
0230
0000
0300
0000
,  // measure 33
0210
1300
0210
0301
,  // measure 34
1000
0010
1000
0001
0010
0001
1000
0000
,  // measure 35
0000
0001
0100
0010
1000
0010
0000
1000
,  // measure 36
0000
1000
0100
0010
0001
0010
0100
0000
,  // measure 37
2100
3001
0102
1003
,  // measure 38
1000
0100
1000
0001
0010
0100
1000
0000
,  // measure 39
1010
0000
0101
0000
1001
0000
0001
0200
,  // measure 40
0000
0310
2000
0000
3001
0100
0001
0000
,  // measure 41
2010
3001
0012
1003
,  // measure 42
0001
0010
0100
1000
0001
0000
1000
0000
,  // measure 43
0000
0001
0100
0010
0100
0001
0000
1000
,  // measure 44
0000
1000
0100
0010
0100
0000
1000
0000
,  // measure 45
2020
0030
0002
3003
,  // measure 46
0101
0000
0001
0000
1000
0001
0100
0000
,  // measure 47
0202
0300
0020
0033
,  // measure 48
1000
0000
1000
0000
1000
0001
0100
0000
,  // measure 49
0220
0300
2000
3030
,  // measure 50
1000
0000
0100
0000
0010
0001
1000
0000
,  // measure 51
2020
0030
0002
3003
,  // measure 52
0100
0000
0000
0000
0010
0000
0000
0100
0010
0000
0001
0000
1000
0000
0000
0000
,  // measure 53
0020
0000
0000
0200
0000
0000
0330
0000
;
