#TITLE:isabel;
#SUBTITLE:;
#ARTIST:Sonitus Vir VS Azrael;
#TITLETRANSLIT:;
#SUBTITLETRANSLIT:;
#ARTISTTRANSLIT:;
#CREDIT:Unknown StepMaker;
#BANNER:isabel.png;
#BACKGROUND:isabel-bg.png;
#LYRICSPATH:;
#CDTITLE:;
#MUSIC:isabel.mp3;
#OFFSET:-0.046;
#SAMPLESTART:6.777;
#SAMPLELENGTH:15.000;
#SELECTABLE:YES;
#BPMS:0.000=180.000,0.000=180.000,0.000=180.000,0.000=180.000,0.000=180.000;
#STOPS:;
#BGCHANGES:;

//---------------dance-single - ----------------
#NOTES:
     dance-single:
     :
     Beginner:
     1:
     0.075,0.138,0.000,0.000,0.000:
0000
0000
0000
0000
,
0000
0000
0000
0000
,
0000
0000
0000
0000
,
0000
0000
0000
0000
,
0000
0000
0000
0000
,
1000
0000
0001
0000
,
1000
0000
0100
0000
,
0000
1000
0000
0000
,
0100
0000
0000
1000
,
0000
0001
0000
0000
,
1000
0000
0000
0100
,
0000
0000
1000
0000
,
0000
0001
0000
1000
,
0000
0000
0000
0000
,
0000
0100
0000
0000
,
0000
0000
0000
0000
,
0000
0001
0000
0000
,
0000
1000
0000
0000
,
0000
0000
0000
0001
,
0000
0000
0000
0000
,
0000
0000
0000
0010
,
0000
0000
0000
0000
,
0000
0000
0000
1000
,
0000
0000
0000
0000
,
0000
0000
0010
0000
,
0000
0000
0000
0000
,
0000
0000
0000
0000
,
1000
0000
0000
0000
,
0000
0000
0000
0100
,
0000
0000
0000
0000
,
0000
0000
0000
1000
,
0000
0000
0000
0000
,
0000
0000
0000
0100
,
0000
0000
0000
0000
,
0010
0000
0000
0000
,
1000
0000
0000
0000
,
0100
0000
0000
0001
,
0000
0000
0000
1000
,
0000
0000
0000
0000
,
0100
0000
0000
0000
,
0010
0000
0000
0000
,
0100
0000
0000
0000
,
0000
1000
0000
0000
,
0000
0001
0000
0000
,
0000
1000
0000
0000
,
0000
0100
0000
0000
,
0000
1000
0000
0000
,
0001
0000
0000
0000
,
0000
0000
0000
1000
,
0000
0000
0000
0000
,
0000
0000
0000
0000
,
0000
0100
0000
0000
,
0000
0000
0000
0001
,
0000
0000
0000
0000
,
0000
0000
0000
1000
,
0000
0000
0000
0000
,
0000
0000
0000
0100
,
0000
0000
0000
0000
,
0000
0000
0000
0000
,
0010
0000
0000
0000
,
0000
0000
0000
0100
,
0000
0000
1000
0000
,
0000
0000
0100
0000
,
0000
0100
0000
0000
;

//---------------dance-single - ----------------
#NOTES:
     dance-single:
     :
     Easy:
     3:
     0.199,0.276,0.000,0.000,0.000:
0000
0000
0000
0000
,
0000
0000
0000
0000
,
0000
0000
0000
0000
,
0000
0000
0000
0000
,
0000
0000
0000
0000
,
1000
0001
1000
0000
,
0100
1000
0100
1000
,
0000
0000
0001
1000
,
0000
0000
1000
1000
,
0000
0000
1000
0100
,
0000
0000
0001
1000
,
0000
0000
0100
1000
,
0100
1000
0100
0000
,
1000
0100
0010
0001
,
1000
0000
0000
0000
,
1000
0100
0010
0001
,
1000
0000
0000
0000
,
1000
0000
1000
0000
,
0100
0000
0100
0000
,
0001
0000
0001
0000
,
1000
0000
0100
0000
,
0010
0000
0010
0000
,
0100
0000
0100
0000
,
1000
0000
1000
0000
,
0001
0000
0001
0000
,
1000
0000
1000
0000
,
0100
0000
0100
0000
,
0010
0000
0010
0000
,
0001
0000
0001
0000
,
1000
0000
1000
0000
,
0100
0000
0100
0000
,
0010
0000
0010
0000
,
0001
0000
0001
0000
,
1000
0000
0100
0000
,
0010
0000
1000
0001
,
0000
0000
1000
0001
,
0000
0000
1000
0000
,
1000
0000
0100
0000
,
1000
0000
1000
0100
,
0000
0000
1000
0100
,
0000
0000
0001
0000
,
1000
0000
0100
0000
,
0010
0000
0000
0000
,
1000
0000
0100
0000
,
0010
0000
0000
0000
,
1000
0000
1000
0000
,
0100
0000
0100
0010
,
0000
0000
1000
0000
,
1000
0100
0010
0000
,
1000
0000
1000
0000
,
1000
0000
1000
0100
,
0010
0000
1000
0000
,
1000
0100
0010
0000
,
1000
0000
0001
0000
,
1000
0100
0001
0000
,
1000
0000
1000
0000
,
0001
0100
1000
0000
,
0001
0000
0001
0000
,
1000
0100
0001
0000
,
0001
0000
0001
0000
,
0001
0010
1000
0000
,
1000
0000
1000
0000
,
0100
0000
0000
0000
,
0100
0000
0000
0000
;

//---------------dance-single - ----------------
#NOTES:
     dance-single:
     :
     Medium:
     6:
     0.347,0.381,0.022,0.000,0.000:
0000
0000
0000
0000
,
0000
0000
0000
0000
,
0000
0000
0000
0000
,
0000
0000
0000
0000
,
0000
0000
0000
0000
,
1000
0001
1000
0010
,
1000
0010
1000
0100
,
1000
0100
1000
0100
,
0010
0000
0001
0000
0010
1000
0010
0000
,
0100
1000
0100
0010
,
0001
0010
0001
0010
,
0100
0010
0100
0010
,
0100
1000
0100
0000
0001
0000
0010
0000
,
0001
0010
0100
0010
,
0010
0000
0000
0000
,
1000
0100
1000
0000
0100
0000
0010
0000
,
0001
0000
0000
0000
,
1000
0100
0010
0001
,
1000
0100
0010
0001
,
1000
0100
0010
0001
,
1000
0100
0010
0000
,
1000
0100
0010
0001
,
1000
0100
0010
0001
,
1000
0100
0010
0001
,
1000
0100
0010
0000
,
1000
0001
1000
0001
,
1000
0100
1000
0100
,
1000
0100
0010
0100
,
0010
0001
0010
0000
,
1000
0100
0010
0001
,
1000
0100
0010
0001
,
1000
0100
1000
0100
,
1000
0100
0010
0000
,
1000
0000
0001
0000
1000
0001
1000
0000
,
0010
0000
1000
0000
0100
1000
0100
0000
,
1000
0000
0001
0000
1000
0001
1000
0000
,
0010
1000
0100
0000
,
0000
0001
1000
0001
,
1000
0100
1000
0100
,
1000
0100
0010
0100
,
0010
0001
0010
0001
0010
0000
1000
0000
,
0100
1000
0100
0010
,
0001
0000
0000
0000
,
1000
0100
0010
0001
,
1000
0000
0000
0000
,
1000
1000
0100
0100
,
0010
0010
0001
0001
,
1000
1000
0100
0100
,
0010
0010
0100
0000
,
1000
1000
0100
0100
,
0010
0010
0001
0001
,
1000
1000
0100
0100
,
0010
0010
0100
0000
,
1000
1000
0001
0001
,
1000
1000
0010
0010
,
0100
0100
1000
1000
,
0001
0001
0010
0000
,
1000
1000
0100
0100
,
0010
0010
0001
0001
,
0010
0010
0100
0100
,
1000
1000
0100
0000
,
1000
1000
0100
0100
,
0010
0010
0001
0001
,
1001
1001
0000
0000
;

//---------------dance-single - Copied from----------------
#NOTES:
     dance-single:
     Copied from:
     Hard:
     9:
     0.710,0.686,0.285,0.208,1.000:
0000
0000
0000
0000
,
0000
0000
0000
0000
,
0000
0000
0000
0000
,
0000
0000
0000
0000
,
0000
0000
0000
0000
,
1000
0000
1000
0100
0000
0100
0010
0000
0010
0001
0000
0000
,
1000
0000
1000
0010
0000
0010
0100
0000
0100
0001
0000
0000
,
0010
0000
0010
0100
0000
0100
1000
0000
1000
0001
0000
0001
,
0010
0000
0010
0001
0000
0001
1000
0000
1000
0100
0000
0000
,
0001
0000
0001
0100
0000
0100
1000
0000
1000
0010
0000
0000
,
0100
0000
0100
0001
0000
0001
0010
0000
0010
1000
0000
0000
,
0010
0000
0010
0001
0000
0001
0100
0000
0100
0010
0000
0010
,
1000
0000
1000
0100
0000
0100
0001
0000
0001
0100
0000
0000
,
1000
0000
1000
0010
0000
0010
0100
0000
0100
0001
0000
0001
,
0010
0110
1100
1010
,
0010
0000
0010
0100
0000
0100
0001
0000
0001
0010
0000
0010
,
0200
0000
0000
0300
,
1000
0100
0000
0100
0010
0000
0010
0001
0000
0001
1000
0000
,
1000
0010
0000
0010
0100
0000
0100
0001
0000
0001
0010
0000
,
0010
0100
0000
0100
1000
0000
1000
0010
0000
0010
0100
0000
,
0100
0001
0000
0001
1000
0000
2002
0000
0000
3003
0000
0000
,
1000
0100
0000
0100
0001
0000
0001
0100
0000
0100
1000
0000
,
1000
0010
0000
0010
0100
0000
0100
0001
0000
0001
0010
0000
,
0010
0100
0000
0100
1000
0000
1000
0001
0000
0001
0010
0000
,
0010
0001
0000
0001
1000
0000
2002
0000
0000
3003
0000
0000
,
1000
0100
0000
0010
0001
0000
1000
0010
0000
0100
0001
0000
,
1000
0100
0000
0010
0001
0000
0100
0010
0000
1000
0001
0000
,
0010
0001
0000
0100
0001
0000
0010
0100
0000
1000
0100
0000
,
0010
0001
0000
1000
0010
0000
0202
0000
0000
0303
0000
0000
,
0100
0010
0000
1000
0100
0000
0001
0100
0000
1000
0010
0000
,
0100
0001
0000
0010
0001
0000
1000
0010
0000
1000
0001
0000
,
0010
0001
0000
0100
0010
0000
1000
0100
0000
0010
0001
0000
,
1000
0010
0000
0100
0001
0000
0022
0000
0000
0033
0000
0000
,
0010
0000
0100
1000
0000
0001
0010
0000
0001
0100
0000
0000
,
0010
0000
1000
0001
0000
0010
0001
0000
1000
0100
0000
0000
,
1000
0000
0010
0100
0000
0001
0010
0000
0100
1000
0000
0010
,
0100
0000
0001
0010
0000
0100
1000
0000
0001
0010
0000
0000
,
0001
0000
0100
0010
0000
1000
0100
0000
0010
0001
0000
0000
,
1000
0000
0100
0001
0000
0100
1000
0000
0010
0100
0000
0000
,
0001
0000
0010
0100
0000
1000
0100
0000
0010
0001
0000
0100
,
0010
0000
1000
0001
0000
0010
0001
0000
1000
0100
0000
0000
,
0010
0000
0001
0100
0000
0010
1000
0000
0100
0010
0000
0001
,
1000
1010
0110
0101
,
0001
0000
0010
0100
0000
1000
0100
0000
0010
0001
0000
1000
,
0020
0000
0000
0030
,
0100
0001
0000
0001
0010
0000
0010
0100
0000
0100
1000
0000
,
1000
0010
0000
0010
1000
0000
1000
0100
0000
0100
0001
0000
,
0001
0100
0000
0100
1000
0000
1000
0010
0000
0010
0100
0000
,
0100
0001
0000
0001
0010
0000
0220
0000
0000
0330
0000
0000
,
0100
1000
0000
1000
0001
0000
0001
0010
0000
0010
1000
0000
,
1000
0010
0000
0010
0001
0000
0001
0100
0000
0100
0010
0000
,
0010
1000
0000
1000
0100
0000
0100
0001
0000
0001
0100
0000
,
0100
1000
0000
1000
0010
0000
0220
0000
0000
0330
0000
0000
,
0100
0001
0000
1000
0010
0000
1000
0100
0000
0010
0001
0010
,
0100
1000
0000
0010
0100
0000
0001
0100
0000
0010
1000
0010
,
0100
0001
0000
1000
0100
0000
0010
0001
0000
0100
0010
1000
,
0100
1000
0000
0010
0100
0000
0202
0000
0000
0303
0000
0000
,
0001
0010
0000
0100
1000
0000
0010
0100
0000
0001
0010
0100
,
1000
0010
0000
0100
0001
0000
1000
0010
0000
1000
0100
0001
,
0100
1000
0000
0010
0100
0000
0001
0010
0000
0100
1000
0001
,
0010
0001
0000
1000
0010
0000
0202
0000
0000
0303
0000
0000
,
1100
0000
1100
0000
0000
0000
0011
0000
0011
0000
0000
0000
,
1001
0000
1100
0000
1001
0000
0011
0000
1001
0000
1010
0000
,
1001
0000
1001
0000
0200
0000
0000
0000
0000
0000
0000
0000
,
0000
0000
0000
0000
,
0000
0000
0000
0000
,
0300
0000
0000
0000
;
