#TITLE:dreaming can make a wish come true;
#SUBTITLE:;
#ARTIST:jun & NRG Factory feat. Anna Kaelin;
#TITLETRANSLIT:;
#SUBTITLETRANSLIT:;
#ARTISTTRANSLIT:;
#CREDIT:;
#BANNER:dreaming can make a wish come true.png;
#BACKGROUND:dreaming can make a wish come true-bg.png;
#LYRICSPATH:;
#CDTITLE:./CDTITLES/DanceDanceRevolution 2010.png;
#MUSIC:dreaming can make a wish come true.mp3;
#OFFSET:1.613;
#SAMPLESTART:55.423;
#SAMPLELENGTH:15.000;
#SELECTABLE:YES;
#BPMS:0.000=143.000;
#STOPS:;
#BGCHANGES:;

//---------------dance-single - ----------------
#NOTES:
     dance-single:
     :
     Hard:
     8:
     0.592,0.607,0.145,0.306,0.289: // measure 1
0000
0000
0000
0000
,  // measure 2
0000
0000
0000
0000
,  // measure 3
1000
0100
0010
0001
0000
1000
0010
0100
,  // measure 4
0001
0000
1000
0001
0000
1000
0001
0000
1000
0000
0010
0000
0100
0000
0001
0000
,  // measure 5
1000
0100
0010
0002
0000
0103
0010
2000
,  // measure 6
0000
3001
0100
0020
0000
1030
0100
0000
,  // measure 7
1100
0000
0100
0010
0000
0001
0100
0010
,  // measure 8
1000
0000
0001
1000
0000
0001
1000
0000
0010
0000
1000
0000
0100
0000
1000
0000
,  // measure 9
0002
0000
0013
0100
1000
0000
1001
0000
,  // measure 10
1000
0100
0010
0001
1000
0010
0100
0001
,  // measure 11
1000
0000
0001
0100
0010
0000
0110
0000
,  // measure 12
0010
1000
0000
0100
0000
1000
0002
0000
0000
0000
1000
0000
1000
0000
1003
0000
,  // measure 13
0001
1000
0000
0010
0000
0000
1000
0000
0100
0000
0010
0000
0000
0000
0012
0000
,  // measure 14
0000
0103
0000
2010
0000
3100
1000
0000
,  // measure 15
0101
0000
0001
0100
0020
0000
1030
0000
,  // measure 16
0010
1000
0000
0100
0000
0010
0002
0000
0000
0000
0010
0000
0010
0000
0013
0000
,  // measure 17
0001
0000
0100
0010
1000
0000
1001
0000
,  // measure 18
1000
0100
0000
0010
0000
0001
0100
0000
0010
0000
2002
0000
0000
0000
3003
0000
,  // measure 19
1000
0100
0010
0001
1000
0010
0100
0001
,  // measure 20
0000
0010
0100
1000
0100
0000
0010
0001
,  // measure 21
0100
0000
0010
1000
0000
0010
0100
0001
,  // measure 22
0010
0000
0100
1000
0001
0001
1000
1000
,  // measure 23
1010
0000
1000
0010
0100
0010
0000
1000
,  // measure 24
0000
0010
0100
0001
0010
0000
0110
0000
,  // measure 25
0100
1000
0001
0010
0000
0001
0100
0010
,  // measure 26
1000
0001
0000
0100
0001
0000
1000
0000
0010
1000
0000
0001
0010
0000
0001
0000
,  // measure 27
2000
0000
0010
0000
3001
1000
0010
0100
,  // measure 28
0002
0000
0010
0010
1003
0000
0001
0000
,  // measure 29
0102
0000
1000
0000
0013
0001
0100
0010
,  // measure 30
2000
0000
0010
0010
3001
0000
1001
0000
,  // measure 31
1000
0000
0000
0010
0000
0000
0100
0000
0010
0000
0000
1000
0000
0000
0100
0000
,  // measure 32
0020
0000
0032
0000
0203
0000
0310
1000
,  // measure 33
0002
0000
0010
0010
1003
0000
1001
0000
,  // measure 34
1000
0010
0000
0000
0100
0000
0010
1000
0000
1000
0010
0000
0100
0000
0001
0000
,  // measure 35
1001
1000
0010
1000
0000
0001
0010
0100
,  // measure 36
1000
0000
0001
1000
0000
0001
1000
0000
0010
0000
1000
0000
0100
0000
1000
0000
,  // measure 37
0010
0000
0100
0001
0020
0000
0130
0000
,  // measure 38
0110
0000
0000
0000
0100
0000
1000
0000
0001
1000
0000
0001
1000
0000
0001
0000
,  // measure 39
0100
0010
1000
0010
0000
0100
0001
0010
,  // measure 40
0100
0000
1000
0001
0000
1000
0001
0000
1000
0000
0010
0000
0100
0000
0001
0000
,  // measure 41
1000
0100
0010
0002
0000
0103
0000
0001
,  // measure 42
0010
0100
0000
0100
0010
0000
0001
0000
0100
0010
0000
0010
0100
0000
0001
0000
,  // measure 43
1000
0001
0100
0010
0000
1000
0100
0010
,  // measure 44
0001
0000
1000
0001
0000
1000
0001
0000
1000
0000
0010
0000
0100
0000
0001
0000
,  // measure 45
1000
0100
0010
0002
0000
0103
0010
2000
,  // measure 46
0000
3001
0010
0200
0000
1000
1300
0000
,  // measure 47
1100
0000
0100
0010
0000
0001
1000
0010
,  // measure 48
1000
0000
0001
1000
0000
0001
1000
0000
0010
0000
1000
0000
0100
0000
0010
0000
,  // measure 49
0002
0000
0013
0100
1000
0000
1001
0000
,  // measure 50
1000
0001
0000
0001
1000
0000
0010
0000
0100
0001
0000
0001
0100
0000
0010
0000
,  // measure 51
2000
0000
0000
3000
,  // measure 52
0002
0003
0200
0310
,  // measure 53
2000
0000
3000
0002
0000
0000
0003
0200
,  // measure 54
0000
0310
0100
0001
0010
0100
1000
0001
,  // measure 55
1000
0000
0010
0000
0100
0000
0010
0000
1000
0000
0000
0100
0000
0000
0010
0000
,  // measure 56
0001
0000
0000
1000
0000
0000
0010
0000
0100
0000
0000
0001
0000
0000
1000
0000
,  // measure 57
0200
0000
0300
0020
0000
0000
0030
0001
,  // measure 58
1000
0100
0000
0100
1000
0000
0001
0000
0100
0001
0000
0001
0100
0000
0010
0000
,  // measure 59
1000
0000
0100
0000
0010
0000
0001
0000
1000
0000
0000
0010
0000
0100
0000
0010
,  // measure 60
2000
0000
0000
0000
3001
0000
0000
0000
1000
0000
0000
0100
0000
0000
0010
0000
,  // measure 61
0001
0000
1000
0001
0000
1000
0001
0000
1000
0000
0010
0000
0100
0000
0001
0000
,  // measure 62
2000
0000
0000
0000
3100
0000
0000
0000
0010
0000
0000
0001
0000
0000
0100
0000
,  // measure 63
0010
0000
0000
1000
0000
0000
0001
0000
0100
0000
0000
0010
0000
0000
1000
0000
,  // measure 64
0100
0000
0000
0010
0000
0000
0001
0000
0100
0000
0000
0010
0000
0000
1000
0000
,  // measure 65
0001
0000
1000
0001
0000
1000
0001
0000
0010
0000
0100
0010
0000
0100
0010
0000
,  // measure 66
0001
0100
0000
0100
0001
0000
0100
0000
0010
1000
0000
1000
0010
0000
1000
0000
,  // measure 67
0002
0000
0000
0003
,  // measure 68
1000
0010
0100
0001
0000
1000
0100
0010
,  // measure 69
0001
0000
0000
0000
;

//---------------dance-single - ----------------
#NOTES:
     dance-single:
     :
     Beginner:
     1:
     0.103,0.116,0.000,0.000,0.000: // measure 1
0000
0000
0000
0000
,  // measure 2
0000
0000
0000
0000
,  // measure 3
1000
0000
0000
0000
,  // measure 4
0001
0000
0000
0000
,  // measure 5
0010
0000
0000
0000
,  // measure 6
0100
0000
0100
0000
,  // measure 7
0100
0000
0000
0000
,  // measure 8
1000
0000
0000
0000
,  // measure 9
0010
0000
0000
0000
,  // measure 10
0100
0000
0100
0000
,  // measure 11
0100
0000
0000
0000
,  // measure 12
0001
0000
0000
0000
,  // measure 13
0010
0000
0000
0000
,  // measure 14
0001
0000
0001
0000
,  // measure 15
0001
0000
0000
0000
,  // measure 16
1000
0000
0000
0000
,  // measure 17
0100
0000
0000
0000
,  // measure 18
0010
0000
0010
0000
,  // measure 19
0010
0000
0000
0000
,  // measure 20
0001
0000
0000
0000
,  // measure 21
0100
0000
0000
0000
,  // measure 22
0010
0000
0010
0000
,  // measure 23
0010
0000
0000
0000
,  // measure 24
1000
0000
0000
0000
,  // measure 25
0001
0000
0000
0000
,  // measure 26
0100
0000
0100
0000
,  // measure 27
0100
0000
0000
0000
,  // measure 28
0010
0000
0010
0000
,  // measure 29
0010
0000
0000
0000
,  // measure 30
1000
0000
1000
0000
,  // measure 31
1000
0000
0000
0000
,  // measure 32
0001
0000
0000
0000
,  // measure 33
0010
0000
0000
0000
,  // measure 34
0001
0000
0001
0000
,  // measure 35
0001
0000
0000
0000
,  // measure 36
1000
0000
0000
0000
,  // measure 37
0010
0000
0000
0000
,  // measure 38
0100
0000
0100
0000
,  // measure 39
0100
0000
0000
0000
,  // measure 40
0001
0000
0000
0000
,  // measure 41
0010
0000
0000
0000
,  // measure 42
0100
0000
0100
0000
,  // measure 43
0100
0000
0000
0000
,  // measure 44
1000
0000
0000
0000
,  // measure 45
0001
0000
0000
0000
,  // measure 46
0010
0000
0010
0000
,  // measure 47
0010
0000
0000
0000
,  // measure 48
0001
0000
0000
0000
,  // measure 49
0100
0000
0000
0000
,  // measure 50
0010
0000
0010
0000
,  // measure 51
0010
0000
0000
0000
,  // measure 52
1000
0000
0000
0000
,  // measure 53
0001
0000
0000
0000
,  // measure 54
0100
0000
0100
0000
,  // measure 55
0100
0000
0000
0000
,  // measure 56
0010
0000
0000
0000
,  // measure 57
1000
0000
0000
0000
,  // measure 58
0100
0000
0100
0000
,  // measure 59
0100
0000
0000
0000
,  // measure 60
0010
0000
0000
0000
,  // measure 61
0001
0000
0000
0000
,  // measure 62
1000
0000
1000
0000
,  // measure 63
1000
0000
0000
0000
,  // measure 64
0001
0000
0000
0000
,  // measure 65
0100
0000
0000
0000
,  // measure 66
0010
0000
0010
0000
,  // measure 67
0010
0000
0000
0000
,  // measure 68
1000
0000
1000
0000
,  // measure 69
1000
0000
0000
0000
;

//---------------dance-single - ----------------
#NOTES:
     dance-single:
     :
     Easy:
     3:
     0.265,0.260,0.000,0.009,0.000: // measure 1
0000
0000
0000
0000
,  // measure 2
0000
0000
0000
0000
,  // measure 3
1000
0100
0010
0001
,  // measure 4
1000
0000
0001
0000
,  // measure 5
0100
0010
1000
0010
,  // measure 6
0100
0001
0010
0100
,  // measure 7
1000
0000
0001
0010
,  // measure 8
0001
0000
0100
0010
,  // measure 9
1000
0010
0100
0000
,  // measure 10
0001
1000
0100
0000
,  // measure 11
0010
0001
0100
0000
,  // measure 12
0010
1000
0100
1000
,  // measure 13
0001
0010
0001
0100
,  // measure 14
0010
1000
0010
0100
,  // measure 15
0001
1000
0100
0000
,  // measure 16
1000
0001
0100
0010
,  // measure 17
1000
0100
0010
0000
,  // measure 18
0001
0100
0010
0000
,  // measure 19
1000
0010
0100
0001
,  // measure 20
1000
0100
0010
0001
,  // measure 21
1000
0010
0100
0001
,  // measure 22
1000
0100
0010
0000
,  // measure 23
0001
0100
0010
0100
,  // measure 24
0001
0010
0100
0010
,  // measure 25
0001
0100
0010
1000
,  // measure 26
0001
0010
0001
0000
,  // measure 27
1000
0010
0100
0010
,  // measure 28
1000
0100
0010
0000
,  // measure 29
0100
1000
0001
0010
,  // measure 30
0001
0100
0010
0000
,  // measure 31
1000
0100
0010
0001
,  // measure 32
1000
0010
0100
0001
,  // measure 33
1000
0100
0010
0000
,  // measure 34
0001
0100
0010
0000
,  // measure 35
1000
0001
0010
0001
,  // measure 36
1000
0000
0001
0000
,  // measure 37
0100
0000
0010
1000
,  // measure 38
0010
0100
0001
0000
,  // measure 39
1000
0100
0010
0001
,  // measure 40
1000
0000
0001
0010
,  // measure 41
0100
1000
0010
1000
,  // measure 42
0100
0010
0001
0000
,  // measure 43
0100
0010
1000
0010
,  // measure 44
0100
0000
0001
0000
,  // measure 45
1000
0100
0010
0001
,  // measure 46
1000
0010
0100
0001
,  // measure 47
1000
0000
0001
0100
,  // measure 48
0010
0000
1000
0000
,  // measure 49
0100
0010
0001
0010
,  // measure 50
0100
0100
1000
1000
,  // measure 51
0001
0000
0000
0000
,  // measure 52
1000
0000
0010
0010
,  // measure 53
0010
0000
0000
0000
,  // measure 54
0100
0000
0001
0001
,  // measure 55
0001
0000
0000
0000
,  // measure 56
0010
0000
0100
0100
,  // measure 57
0100
0000
0000
0000
,  // measure 58
1000
0000
0010
0010
,  // measure 59
0010
0100
0001
0100
,  // measure 60
0010
1000
0001
0000
,  // measure 61
0010
0001
0100
0010
,  // measure 62
1000
0100
0010
0000
,  // measure 63
0001
0001
1000
1000
,  // measure 64
0010
0010
0100
0100
,  // measure 65
0001
0010
0100
1000
,  // measure 66
0010
0100
0001
1000
,  // measure 67
0002
0000
0000
0003
,  // measure 68
1000
0010
0100
0001
,  // measure 69
1000
0000
0000
0000
;

//---------------dance-single - ----------------
#NOTES:
     dance-single:
     :
     Medium:
     5:
     0.420,0.405,0.196,0.153,0.009: // measure 1
0000
0000
0000
0000
,  // measure 2
0000
0000
0000
0000
,  // measure 3
1000
0000
0001
1000
0000
0100
0010
0000
,  // measure 4
0001
0000
0100
0000
0010
1000
0010
0000
,  // measure 5
0100
0000
0001
1000
0000
0010
0000
1000
,  // measure 6
0000
0100
0000
0010
0000
0001
0100
0000
,  // measure 7
0010
0000
1000
0010
0000
0100
0001
0000
,  // measure 8
2000
0000
0010
0000
3001
0000
1000
0010
,  // measure 9
1000
0000
0001
0010
0001
0000
1000
0000
,  // measure 10
0001
0101
1000
1100
,  // measure 11
1000
0000
0001
1000
0001
0000
0100
0000
,  // measure 12
0010
0000
0000
1000
0000
0000
0100
0000
0000
0000
0010
0000
0001
0000
0010
0000
,  // measure 13
0100
0000
1000
0010
0100
0001
0000
0100
,  // measure 14
0000
0010
0000
1000
0000
0001
1000
0000
,  // measure 15
0001
1001
0001
0101
,  // measure 16
0100
0000
0000
0010
0000
0000
1000
0000
0000
0000
0001
0000
0100
0000
0000
0000
,  // measure 17
0010
0000
1000
0100
0010
0000
0001
0000
,  // measure 18
1000
0001
1000
0010
0000
2020
0000
3030
,  // measure 19
0010
0000
0100
0000
0001
0100
0001
0000
,  // measure 20
1000
0000
0100
1000
0100
0000
1100
0000
,  // measure 21
0100
0000
0010
0000
0001
0100
0001
0000
,  // measure 22
0100
0000
0010
1000
0010
0000
1010
0000
,  // measure 23
1000
0000
0001
0000
0100
0001
0100
0000
,  // measure 24
0010
0000
1000
0100
1000
0000
1100
0000
,  // measure 25
0100
0000
0010
0001
0010
0000
0001
0000
,  // measure 26
0100
0010
0100
0000
0001
1000
0001
0000
,  // measure 27
2001
0010
0001
3100
,  // measure 28
0001
0000
0100
0010
0100
0000
0110
0000
,  // measure 29
0020
1000
0100
1030
,  // measure 30
0010
0000
0100
0001
0100
0000
0110
0000
,  // measure 31
0010
0000
1000
0100
1000
0000
0001
0100
,  // measure 32
0002
0023
0230
1300
,  // measure 33
0010
0000
0100
0001
1000
0000
0001
0000
,  // measure 34
0100
0110
0010
1010
,  // measure 35
1001
0000
1000
0010
0000
0100
0001
0000
,  // measure 36
1000
0000
1100
0000
1000
0001
1000
0000
,  // measure 37
0001
0000
0010
0001
0000
0100
0010
0000
,  // measure 38
1000
0000
0001
0100
0001
0000
1001
0000
,  // measure 39
1000
0000
0010
0100
0000
0010
1000
0000
,  // measure 40
0010
0000
0110
0000
0100
0001
0100
0000
,  // measure 41
0001
0010
0100
2000
0000
3001
0000
1000
,  // measure 42
0010
0000
0100
0001
0010
0000
0110
0000
,  // measure 43
0100
0000
1000
0001
0000
0010
0001
0000
,  // measure 44
0100
0000
1010
0000
0010
1000
0010
0000
,  // measure 45
0100
0000
0001
0010
0000
0100
0000
1000
,  // measure 46
0000
0001
0000
0010
0000
0001
1000
0000
,  // measure 47
1001
0000
1000
0010
0000
0100
0010
0000
,  // measure 48
2000
0000
0010
0000
3001
0000
1000
0010
,  // measure 49
1000
0000
0001
0010
0001
0000
1001
0000
,  // measure 50
1000
0010
0100
0000
0001
0010
0100
0000
,  // measure 51
2000
0000
0000
3000
,  // measure 52
0002
0000
0000
0003
,  // measure 53
0020
0000
0000
0030
,  // measure 54
0200
0000
0000
0300
,  // measure 55
1000
1000
2000
3000
,  // measure 56
0001
0001
0002
0003
,  // measure 57
0100
0100
0200
0300
,  // measure 58
0010
1000
0001
1000
,  // measure 59
1001
0000
1000
0000
0010
0100
0010
0000
,  // measure 60
1000
0000
0100
0000
0010
0100
0010
0000
,  // measure 61
0001
0000
0100
0000
0010
1000
0010
0000
,  // measure 62
0100
0000
0001
0000
1000
0001
1000
0000
,  // measure 63
1001
0000
1000
0010
1000
0000
0001
0010
,  // measure 64
0001
0000
1000
0100
1000
0000
0001
0100
,  // measure 65
0001
0000
0100
0000
0010
1000
0010
0000
,  // measure 66
1000
0000
0100
0000
0010
0001
0010
0000
,  // measure 67
0002
0000
0000
0003
,  // measure 68
1000
0001
1000
0001
0000
1000
0001
1000
,  // measure 69
0001
0000
0000
0000
;
