#TITLE:VANESSA-転生編-;
#SUBTITLE:;
#ARTIST:朱雀 vs. TAG;
#TITLETRANSLIT:VANESSA -Tenshouhen-;
#SUBTITLETRANSLIT:;
#ARTISTTRANSLIT:SUZAKU vs. TAG;
#CREDIT:;
#BANNER:VANESSA-Tenshouhen-.png;
#BACKGROUND:VANESSA -Tenshouhen--bg.png;
#LYRICSPATH:;
#CDTITLE:;
#MUSIC:VANESSA -Tenshouen-.mp3;
#OFFSET:-0.183;
#SAMPLESTART:13.125;
#SAMPLELENGTH:16.420;
#SELECTABLE:YES;
#BPMS:0.000=185.000;
#STOPS:;
#BGCHANGES:;

//---------------dance-single - ----------------
#NOTES:
     dance-single:
     :
     Hard:
     10:
     0.948,0.982,0.182,0.075,1.000:
0000
0000
0000
0000
,
0000
0000
0000
0000
,
0000
0000
0000
0000
,
0000
0000
0000
0000
,
1001
0000
0001
0100
0000
0100
0010
0000
0010
1000
0000
1000
,
0100
0000
0100
1000
0000
1000
0001
0000
0001
0010
0000
0010
,
0001
0100
0001
1000
0100
1000
0001
0010
0001
1000
0010
1000
,
0001
0010
0100
1000
0010
0100
0001
1000
0010
1000
0001
0010
,
2002
0000
0000
3003
,
0100
1000
0001
0010
0001
0100
0010
1000
0100
0010
0001
0100
,
0010
0000
0010
1000
0000
1000
0100
0000
0100
0010
0000
0010
,
0001
0000
0001
0100
0000
0100
0010
1000
0001
0010
0001
0100
,
0010
0000
0010
1000
0000
1000
0100
0000
0100
0010
0000
0010
,
0001
0000
0001
0100
0000
0100
0010
1000
0001
0010
0001
0100
,
0010
0000
1000
0100
1000
0001
0010
0000
0010
0001
0000
0001
,
0100
0000
0010
1000
0010
0100
0001
0000
0001
0010
0000
0010
,
0100
1000
0010
1000
0100
0010
0001
0100
0001
0010
0100
1000
,
0001
0100
0010
1000
0100
0010
0001
1000
0010
1000
0001
0010
,
0001
0000
0001
0100
0000
0100
0010
0000
0010
1000
0000
1000
,
0100
0000
0100
0010
0000
0010
0001
0100
0001
0010
0100
1000
,
0010
0000
0010
1000
0000
1000
0100
0000
0100
0010
0000
0010
,
0001
0000
0001
0100
0000
0100
0010
1000
0100
1000
0001
0010
,
0001
0000
0100
0010
1000
0010
0100
0000
0100
0001
0000
0001
,
0010
0000
0100
1000
0100
0010
0001
0000
0001
1000
0000
1000
,
0010
1000
0100
0010
0001
0100
0010
1000
0001
0010
0001
1000
,
0100
1000
0010
0100
0001
0010
0100
1000
0001
0010
0001
0100
,
0010
0000
0010
1000
0000
0000
1001
0000
0000
1000
0000
1000
,
0100
0000
0100
0010
0000
0010
0001
0100
0001
1000
0100
1000
,
0001
0000
0001
1000
0000
0000
1010
0000
0000
0010
0000
0010
,
0100
0000
0100
0001
0000
0001
1000
0100
1000
0001
0100
0001
,
1000
0000
1000
0001
0000
0001
0010
0100
0010
0100
1000
0100
,
1000
0000
1000
0010
0000
0010
0100
0010
0100
0001
0100
0001
,
0010
0000
0010
0100
0000
0100
1000
0001
0010
0001
1000
0010
,
1000
0000
1000
0010
0000
0010
0100
0001
0010
0100
1000
0001
,
0100
0000
0100
0001
0000
0000
0101
0000
0000
0001
0000
0001
,
0010
0000
0010
0100
0000
0100
1000
0010
1000
0100
0010
0001
,
0100
0000
0100
0010
0000
0000
0110
0000
0000
0010
0000
0010
,
1000
0000
1000
0001
0000
0001
0100
0010
1000
0010
0100
0001
,
0010
0000
0010
0100
0000
0100
1000
0010
1000
0010
0100
0010
,
0100
0000
0100
0001
0000
0001
0010
0001
0010
0100
0010
0100
,
1000
0000
1000
0010
0000
0010
0100
0001
0100
0001
0010
0001
,
0100
0010
1000
0010
0100
0001
0010
0100
1000
0001
0010
0001
,
1000
0000
0001
0100
0000
0000
0101
0000
0000
0110
0000
0010
,
1000
0001
0010
0001
0000
0001
1000
0010
0100
0010
0000
1000
,
0001
0000
0100
0010
0000
0000
0110
0000
0000
0010
0000
1000
,
0101
0000
0000
0000
0000
0000
0000
0000
0000
0110
0000
0000
0000
0000
0000
0000
0000
0000
1010
0000
0000
0000
0000
0000
0000
0000
0000
1001
0000
0000
0000
0000
0000
0000
0000
0000
0101
0000
0000
0000
0000
0000
0000
0000
0001
0000
0000
0000
,
0010
0000
0010
0100
0000
0100
1000
0000
1000
0010
0000
0010
,
1000
0000
1000
0100
0000
0100
0010
0000
0010
0001
0000
0001
,
0100
0010
1000
0010
0100
0001
0010
0100
1000
0001
0010
0001
,
0100
0010
0100
0010
0100
0010
1000
0001
1000
0001
1000
0001
,
0102
0000
0000
1003
0000
0000
0001
0100
0010
1000
0001
0010
,
0100
0000
0100
1000
0000
1000
0010
0000
0010
0100
0000
0100
,
0001
0000
0001
0010
0000
0010
0100
1000
0010
1000
0100
0010
,
0001
0000
0001
0100
0000
0100
0010
0000
0010
1000
0000
1000
,
0001
0000
0001
0010
0000
0010
0001
0100
0010
1000
0010
0100
,
0001
0000
0010
0100
1000
0100
0010
0000
0010
0001
0000
0001
,
0100
0000
0010
1000
0010
0100
0001
0000
0001
1000
0000
1000
,
0100
0010
0001
0100
0010
1000
0001
0010
0100
1000
0010
0100
,
0001
0010
1000
0001
0100
1000
0010
0100
0001
1000
0100
0010
,
0001
0000
0001
1000
0000
1000
0010
0000
0010
0100
0000
0100
,
0001
0000
0001
0010
0000
0010
0100
1000
0100
0010
0001
0100
,
0010
0000
0010
1000
0000
1000
0001
0000
0001
0010
0000
0010
,
0001
0000
0001
0100
0000
0100
0010
1000
0010
0100
0001
0010
,
0100
0000
1000
0100
0010
0001
1000
0010
0100
0001
0100
0010
,
1000
0000
0100
1000
0010
1000
0100
0010
0001
0100
0010
1000
,
0100
0010
0001
0100
0010
1000
0001
0010
0100
1000
0001
0010
,
0001
0100
1000
0001
0010
1000
0001
0100
0010
1000
0100
0010
,
2002
0000
0000
0000
0000
0000
0000
0000
0000
0000
0000
0000
3003
0000
1000
0001
,
0100
0010
0000
0000
0000
0000
0000
0000
0000
0000
0000
0000
2002
0000
0000
0000
,
0000
0000
0000
0000
,
0000
0000
0000
3003
;

//---------------dance-single - ----------------
#NOTES:
     dance-single:
     :
     Beginner:
     3:
     0.194,0.330,0.011,0.000,0.000: // measure 1
0000
0000
0000
0000
,  // measure 2
0000
0000
0000
0000
,  // measure 3
0000
0000
0000
0000
,  // measure 4
0000
0000
0000
0000
,  // measure 5
1000
0000
1000
0000
,  // measure 6
0100
0000
0100
0000
,  // measure 7
0010
0000
0010
0000
,  // measure 8
0001
0001
0001
0001
,  // measure 9
0001
0000
0000
0000
,  // measure 10
1000
0000
0000
0000
,  // measure 11
0010
0000
0010
0000
,  // measure 12
0100
0000
0100
0000
,  // measure 13
0001
0000
0001
0000
,  // measure 14
1000
0000
1000
0000
,  // measure 15
0100
0000
0100
0000
,  // measure 16
0010
0000
0010
0000
,  // measure 17
0001
0000
0001
0000
,  // measure 18
1000
0000
1000
0000
,  // measure 19
0010
0000
0100
0000
,  // measure 20
0001
0000
0100
0000
,  // measure 21
0010
0000
1000
0000
,  // measure 22
0100
0000
1000
0000
,  // measure 23
0001
0000
0010
0000
,  // measure 24
0100
0000
1000
0000
,  // measure 25
0001
0000
0100
0000
,  // measure 26
0010
0000
1000
0000
,  // measure 27
0000
0001
0000
0001
,  // measure 28
0000
1000
0000
1000
,  // measure 29
0000
0010
0000
0010
,  // measure 30
0000
0100
0000
0100
,  // measure 31
0000
0001
0000
0001
,  // measure 32
0000
0100
0000
0100
,  // measure 33
0000
1000
0000
1000
,  // measure 34
0000
0100
0000
0100
,  // measure 35
0000
0001
0000
0010
,  // measure 36
0000
0100
0000
1000
,  // measure 37
0000
0001
0000
0100
,  // measure 38
0000
0010
0000
1000
,  // measure 39
0000
0001
0000
0001
,  // measure 40
0000
0010
0000
0010
,  // measure 41
0000
1000
0000
1000
,  // measure 42
0000
0010
0000
0010
,  // measure 43
0010
0000
0000
0000
,  // measure 44
0001
0000
0000
0000
,  // measure 45
0100
0000
0000
0000
,  // measure 46
0010
0000
0000
0000
,  // measure 47
1000
0000
1000
0000
,  // measure 48
0100
0000
0100
0000
,  // measure 49
0010
0010
0010
0010
,  // measure 50
0100
0100
0100
0100
,  // measure 51
0010
0000
0000
0000
,  // measure 52
1000
0000
1000
0000
,  // measure 53
0100
0000
0100
0000
,  // measure 54
0010
0000
0010
0000
,  // measure 55
0001
0000
0001
0000
,  // measure 56
1000
0000
1000
0000
,  // measure 57
0010
0000
0010
0000
,  // measure 58
0100
0000
0100
0000
,  // measure 59
0001
0000
0001
0000
,  // measure 60
1000
0000
1000
0000
,  // measure 61
0100
0000
0100
0000
,  // measure 62
0001
0000
0001
0000
,  // measure 63
0100
0000
0100
0000
,  // measure 64
1000
0000
1000
0000
,  // measure 65
0010
0000
0010
0000
,  // measure 66
0001
0000
0001
0000
,  // measure 67
0010
0000
0010
0000
,  // measure 68
0000
0000
0000
0000
,  // measure 69
0000
0000
0000
1001
;

//---------------dance-single - ----------------
#NOTES:
     dance-single:
     :
     Easy:
     5:
     0.403,0.529,0.171,0.085,0.000: // measure 1
0000
0000
0000
0000
,  // measure 2
0000
0000
0000
0000
,  // measure 3
0000
0000
0000
0000
,  // measure 4
0000
0000
0000
0000
,  // measure 5
1000
0100
0010
0100
,  // measure 6
1000
0010
0100
0010
,  // measure 7
1000
1000
0001
0001
,  // measure 8
1001
0110
1001
0110
,  // measure 9
2002
0000
0000
3003
,  // measure 10
1000
0100
0010
0001
,  // measure 11
1000
1000
1000
1000
,  // measure 12
1000
1000
0001
0100
,  // measure 13
0010
0010
0010
0010
,  // measure 14
0010
0010
0100
0001
,  // measure 15
0010
0100
1000
0100
,  // measure 16
0010
0001
0100
0001
,  // measure 17
0010
0010
0100
0100
,  // measure 18
1000
1000
0001
0001
,  // measure 19
0100
0010
1000
0010
,  // measure 20
0100
0001
0010
0010
,  // measure 21
0100
1000
0001
0010
,  // measure 22
0001
0100
1000
1000
,  // measure 23
0100
0001
0010
0100
,  // measure 24
1000
0010
0100
0001
,  // measure 25
1000
1000
0010
0010
,  // measure 26
0100
0100
0001
0001
,  // measure 27
1000
0001
0000
0100
,  // measure 28
0010
0100
0001
0010
,  // measure 29
0100
1000
0000
0100
,  // measure 30
0010
0001
1000
0010
,  // measure 31
0100
0100
0001
0001
,  // measure 32
0010
0010
0100
0100
,  // measure 33
1000
1000
0001
0001
,  // measure 34
0010
0010
0001
0001
,  // measure 35
0100
0010
0000
1000
,  // measure 36
0010
0100
0001
1000
,  // measure 37
0100
0010
0000
0001
,  // measure 38
0010
0100
1000
0001
,  // measure 39
0100
0100
0010
0010
,  // measure 40
1000
1000
0100
0100
,  // measure 41
0010
0010
0001
0001
,  // measure 42
0100
0010
1000
0001
,  // measure 43
1000
0100
1100
0000
,  // measure 44
0001
0100
0101
0000
,  // measure 45
1000
0010
1010
0000
,  // measure 46
0001
0010
0011
0000
,  // measure 47
0001
0010
0100
1000
,  // measure 48
0100
0010
0001
1000
,  // measure 49
0001
0001
1000
1000
,  // measure 50
1001
0110
1001
0110
,  // measure 51
2002
0000
0000
3003
,  // measure 52
1000
1000
1000
1000
,  // measure 53
1000
1000
0001
0100
,  // measure 54
0010
0010
0010
0010
,  // measure 55
0010
0010
0100
0001
,  // measure 56
0010
0100
1000
0100
,  // measure 57
0010
0001
0100
0001
,  // measure 58
0010
0010
0100
0100
,  // measure 59
1000
1000
0001
0001
,  // measure 60
0100
0010
1000
0010
,  // measure 61
0100
0001
0010
0010
,  // measure 62
0100
1000
0001
0010
,  // measure 63
0001
0100
1000
1000
,  // measure 64
0100
0001
0010
0100
,  // measure 65
1000
0010
0100
0001
,  // measure 66
1000
1000
0010
0010
,  // measure 67
0100
0100
0001
0001
,  // measure 68
2002
0000
0000
3003
,  // measure 69
0000
0000
0000
0220
,  // measure 70
0000
0000
0000
0000
,  // measure 71
0000
0000
0000
0330
;

//---------------dance-single - ----------------
#NOTES:
     dance-single:
     :
     Medium:
     8:
     0.679,0.680,1.000,0.150,0.320: // measure 1
0000
0000
0000
0000
,  // measure 2
0000
0000
0000
0000
,  // measure 3
0000
0000
0000
0000
,  // measure 4
0000
0000
0000
0000
,  // measure 5
1000
1100
0100
0110
,  // measure 6
0010
0011
0001
0101
,  // measure 7
1010
1010
0101
0101
,  // measure 8
1100
0011
0101
1010
,  // measure 9
2002
0000
0000
3003
,  // measure 10
1000
0000
1000
0010
0000
0010
0100
0000
0100
0001
0000
0001
,  // measure 11
1000
1100
1100
1100
,  // measure 12
1100
0000
0000
1100
0000
0000
0100
0000
0100
0010
0000
0010
,  // measure 13
0001
0101
0101
0101
,  // measure 14
0101
0000
0000
0101
0000
0000
0100
0000
0100
0010
0000
0010
,  // measure 15
1000
0000
0000
0001
0000
0001
0100
0000
0000
0001
0000
0000
,  // measure 16
1001
0000
0000
1000
0000
1000
0100
0000
0000
1000
0000
0000
,  // measure 17
0010
0000
0010
0100
0000
0100
0001
0000
0001
1000
0000
1000
,  // measure 18
0200
0320
0032
1003
,  // measure 19
1001
1001
1001
1001
,  // measure 20
1001
0000
0000
1001
0000
0000
0001
0000
0001
0100
0000
0000
,  // measure 21
1010
1010
1010
1010
,  // measure 22
1010
0000
0000
1010
0000
0000
0010
0000
0010
0100
0000
0000
,  // measure 23
0001
0000
0000
0010
0000
0010
0100
0000
0000
1000
0000
0000
,  // measure 24
1001
0000
0000
0001
0000
0001
0100
0000
0000
0010
0000
0000
,  // measure 25
1000
0000
1000
0100
0000
0100
0010
0000
0010
0001
0000
0001
,  // measure 26
1000
0000
1000
0010
0000
0010
0100
0000
0100
0001
0000
0001
,  // measure 27
1000
1100
0001
0101
,  // measure 28
1000
0000
0000
1010
0000
0000
0001
0000
0001
0010
0000
0010
,  // measure 29
0100
1100
1000
1010
,  // measure 30
0010
0000
0000
0110
0000
0000
0100
0000
0100
0001
0000
0000
,  // measure 31
1010
1010
0101
0101
,  // measure 32
1100
1100
0011
0011
,  // measure 33
0101
1010
0011
1100
,  // measure 34
1001
0110
1001
0110
,  // measure 35
0001
0011
1000
1010
,  // measure 36
0001
0000
0000
0101
0000
0000
1000
0000
1000
0100
0000
0100
,  // measure 37
0010
0011
0001
0101
,  // measure 38
0100
0000
0000
0110
0000
0000
0010
0000
0010
1000
0000
0000
,  // measure 39
0101
0101
1010
1010
,  // measure 40
0011
0011
1100
1100
,  // measure 41
1010
0101
1100
0011
,  // measure 42
1001
0110
1001
0110
,  // measure 43
1000
0000
0001
1000
0000
0000
0010
0000
0000
0110
0000
0000
,  // measure 44
0100
0000
0100
0001
0000
0000
1000
0000
1000
0010
0000
0000
,  // measure 45
1000
0000
0100
1000
0000
0000
0001
0000
0000
1001
0000
0000
,  // measure 46
0001
0000
0000
0001
0000
0000
1000
0000
0000
1000
0000
0000
1001
0000
0000
0000
,  // measure 47
1000
1100
0100
0110
,  // measure 48
0010
0011
0001
0101
,  // measure 49
1010
1010
0101
0101
,  // measure 50
1100
0011
0101
1010
,  // measure 51
2002
0000
0000
3003
,  // measure 52
1100
1100
1100
1100
,  // measure 53
1100
0000
0000
1100
0000
0000
0100
0000
0100
0010
0000
0010
,  // measure 54
0001
0101
0101
0101
,  // measure 55
0101
0000
0000
0101
0000
0000
0100
0000
0100
0010
0000
0010
,  // measure 56
1000
0000
0000
0001
0000
0001
0100
0000
0000
0001
0000
0000
,  // measure 57
1001
0000
0000
1000
0000
1000
0100
0000
0000
1000
0000
0000
,  // measure 58
0010
0000
0010
0100
0000
0100
0001
0000
0001
1000
0000
1000
,  // measure 59
0200
0320
0032
1003
,  // measure 60
1001
1001
1001
1001
,  // measure 61
1001
0000
0000
1001
0000
0000
0001
0000
0001
0100
0000
0000
,  // measure 62
1010
1010
1010
1010
,  // measure 63
1010
0000
0000
1010
0000
0000
0010
0000
0010
0100
0000
0000
,  // measure 64
0001
0000
0000
0010
0000
0010
0100
0000
0000
1000
0000
0000
,  // measure 65
1001
0000
0000
0001
0000
0001
0100
0000
0000
0010
0000
0000
,  // measure 66
1000
0000
1000
0100
0000
0100
0010
0000
0010
0001
0000
0001
,  // measure 67
1000
0000
1000
0010
0000
0010
0100
0000
0100
0001
0000
0001
,  // measure 68
2002
0000
0000
3003
,  // measure 69
0000
0000
0000
0220
,  // measure 70
0000
0000
0000
0000
,  // measure 71
0000
0000
0000
0330
;
