#TITLE:Timepiece Phase II;
#SUBTITLE:;
#ARTIST:佐々木博史;
#TITLETRANSLIT:;
#SUBTITLETRANSLIT:;
#ARTISTTRANSLIT:Hirofumi Sasaki;
#CREDIT:;
#BANNER:Timepiece phase II.png;
#BACKGROUND:Timepiece phase II-bg.png;
#LYRICSPATH:;
#CDTITLE:;
#MUSIC:Timepiece Phase II.ogg;
#OFFSET:0.560;
#SAMPLESTART:12.780;
#SAMPLELENGTH:16.580;
#SELECTABLE:YES;
#BPMS:0.000=143.500,234.000=130.000,236.000=115.000,236.500=105.000,237.000=95.000,237.500=75.000;
#STOPS:;
#BGCHANGES:;

//---------------dance-single - ----------------
#NOTES:
     dance-single:
     :
     Beginner:
     2:
     0.134,0.227,0.009,0.019,0.000:
0000
0000
0000
0000
,
0000
0000
0000
0000
,
0000
0000
0000
0000
,
0000
0000
0000
0000
,
0000
0000
1000
0000
,
0000
0000
0001
0000
,
0000
0000
0010
0000
,
0000
0000
0000
0000
,
1000
0000
0000
0000
,
0100
0000
0000
0000
,
0010
0000
0000
0000
,
0001
0000
0000
0000
,
0100
0000
0000
0000
,
0010
0000
0000
0000
,
1000
0000
1000
0000
,
0001
0000
0001
0000
,
0010
0000
0010
0000
,
0010
0000
0000
0000
,
0100
0000
0100
0000
,
0100
0000
0000
0000
,
1000
0000
1000
0000
,
1000
0000
0000
0000
,
0001
0000
0001
0000
,
0001
0000
0001
0000
,
1000
0000
0000
0000
,
0010
0000
0010
0000
,
0000
0000
0100
0000
,
0100
0000
0100
0000
,
0001
0000
0000
0000
,
0100
0000
0000
0000
,
0010
0000
0010
0000
,
1000
0000
0000
0000
,
1000
0000
0000
1000
,
1000
0000
0000
0001
,
0001
0000
0010
0000
,
0100
0000
1000
0000
,
0010
0000
0000
0100
,
0100
0000
0000
0001
,
0001
0000
0010
0000
,
0100
0000
1000
1000
,
1000
0000
0010
0000
,
0100
0000
0001
0000
,
0010
0000
0100
0000
,
1000
0000
0001
0000
,
1000
0000
1000
0000
,
0010
0000
0010
0000
,
0100
0000
0100
0000
,
0001
0000
0001
0000
,
0010
0000
0000
0100
,
0100
0000
1000
0000
,
0010
0000
0100
0100
,
0100
0000
0010
0000
,
0001
0000
0000
1000
,
1000
0000
0000
0000
,
0010
0000
0100
0000
,
0001
0001
0001
0000
,
0010
0000
0100
0000
,
1000
0000
0001
0000
,
0100
0000
0100
0000
,
0010
0100
2002
0000
,
3003
0000
0000
0000
;

//---------------dance-single - ----------------
#NOTES:
     dance-single:
     :
     Easy:
     3:
     0.256,0.281,0.057,0.000,0.000:
0000
0000
0000
0000
,
0000
0000
0000
0000
,
0000
0000
0000
0000
,
0000
0000
0000
0000
,
0000
0000
1000
0000
,
0100
0000
0010
0000
,
0001
0000
1001
0000
,
0000
0000
0000
0000
,
1000
0100
1000
0010
,
0100
0000
0001
0000
,
0010
0100
1000
0001
,
1000
0000
0100
0010
,
0001
0100
1000
0100
,
0001
0000
0100
0000
,
0010
1000
0100
1000
,
0010
0100
0001
0010
,
0100
0100
1000
1000
,
0010
0010
0100
0100
,
0001
1000
0010
1000
,
0001
0000
0010
0000
,
0001
0100
1000
0100
,
0010
0001
0010
1000
,
0010
0100
0001
0100
,
0010
1000
0100
1000
,
0001
0010
0001
0100
,
0010
0000
1000
0000
,
0100
0010
0001
1000
,
0001
0000
0010
0100
,
1000
0010
0001
0010
,
1000
0000
0010
0000
,
0100
0001
0010
0001
,
0100
0010
1000
0100
,
0110
0000
0000
0010
,
0001
0000
0000
0001
,
0100
0000
0010
0000
,
1000
0000
0001
1000
,
1001
0000
0000
1000
,
0010
0000
0000
0010
,
0100
0000
0001
0000
,
0010
0000
0100
1000
,
1001
0001
0010
0100
,
1000
0010
0100
0001
,
1000
1000
0001
0001
,
0010
0010
0100
0100
,
1000
0100
0001
0100
,
1000
0010
0001
0010
,
1000
0010
0100
0001
,
0010
0010
0100
0000
,
1000
0010
0100
0001
,
1000
0100
0010
0001
,
1000
0010
0001
0010
,
1000
0100
0001
0100
,
1000
1000
0010
0010
,
0100
0100
0001
0001
,
0010
0100
1000
0010
,
0100
0001
1001
0000
,
1000
0100
0010
0001
,
0100
0010
1000
0001
,
0100
0100
0010
0010
,
1000
0001
1001
0000
;

//---------------dance-single - ----------------
#NOTES:
     dance-single:
     :
     Medium:
     6:
     0.438,0.521,0.425,0.264,0.005:
0000
0000
0000
0000
,
0000
0000
0000
0000
,
0000
0000
0000
0000
,
0000
0000
0000
0000
,
0000
0000
1000
0100
,
1100
0100
0010
0001
,
0011
0001
1001
0000
,
0000
0000
0000
0000
,
2001
0000
0010
0000
0100
3000
0010
0000
,
0102
0000
0100
0003
2100
0000
0100
3000
,
1001
0002
0023
0230
,
1300
0000
0010
0000
0100
0001
1000
0000
,
0210
0000
0001
0000
0010
0300
1000
0000
,
2010
0000
0010
3000
0012
0000
0010
0003
,
1001
0002
0203
0320
,
2030
0000
3200
0000
2300
0000
3020
0030
,
0100
0001
0010
0000
0100
1000
0010
0000
,
0100
0000
0100
0000
0001
1000
0010
1000
,
0001
0000
0010
0000
0100
0000
1000
0010
,
0100
0000
0001
0000
1000
0100
0010
0001
,
1000
0000
0100
0000
0010
0001
0100
0000
,
0010
0000
1000
0000
0100
1000
0010
1000
,
0001
0000
0010
0100
1000
0000
0010
0000
,
0100
0001
1000
0010
1000
0100
0010
0001
,
2001
0000
0010
0000
0100
3000
0010
0000
,
0102
0000
0100
0003
2100
0000
0100
3000
,
1001
0000
0002
0000
0023
0000
0230
0300
,
2100
0000
0100
3000
0012
0000
0010
0003
,
2010
0000
0100
0000
0010
3000
0011
0000
,
2010
0000
0100
0000
0010
0000
0001
3000
,
0011
0110
1100
1010
,
0010
0100
0001
0010
0100
1000
0001
1000
,
0001
0000
0000
1100
,
1001
0000
0000
0011
,
1001
0000
0110
0000
,
1100
0000
0000
0000
0001
0100
0001
0000
,
0011
0000
0000
0110
,
1100
0000
0000
1100
,
1001
0000
0011
0000
,
1001
0000
0000
0000
0000
0000
0000
0000
1000
0000
0000
0001
0000
0000
1000
0000
,
0001
1000
0001
0000
0010
0000
0010
0000
,
1000
0001
1000
0000
0100
0000
0100
0000
,
1100
0000
0011
0000
0101
0000
0100
0010
,
0000
1000
0100
0000
0010
0001
0100
0010
,
1000
1000
0001
0001
,
0010
0100
0010
0000
1000
0001
1000
0000
,
0100
1000
0010
0100
,
0001
0010
0100
1000
0000
0010
0100
0000
,
0001
0010
0001
0000
1000
0010
1000
0000
,
0001
0100
0001
0000
1000
0100
1000
0000
,
0001
0010
0100
0000
1000
0010
0100
0000
,
0001
1000
0010
0000
1000
0001
0010
0000
,
0100
0100
0100
0000
0010
0000
1000
0100
,
1000
0000
0001
0000
0100
0001
0100
0000
,
0010
0000
0100
0000
1000
0010
0100
0000
,
0001
0010
0100
1000
0001
0000
0000
0000
,
1000
1100
0100
0110
,
0010
0011
0001
0101
,
0010
1000
0100
1000
0010
0100
0001
0010
,
1000
0010
0001
0100
2002
0000
0000
0000
,
0000
0000
0000
0000
,
0000
3003
0000
0000
;

//---------------dance-single - Copied from----------------
#NOTES:
     dance-single:
     Copied from:
     Hard:
     8:
     0.603,0.636,0.699,0.066,0.283:
0000
0000
0000
0000
,
0000
0000
0000
0000
,
0000
0000
0000
0000
,
0000
0000
0000
0000
,
0000
0000
1000
0100
,
0110
0010
0001
1000
,
1010
0010
0110
0000
,
0000
0000
0000
0000
,
0110
0000
0000
0100
0000
0000
0001
0000
0000
0010
0000
0000
0100
0000
1000
0000
,
0100
0000
0000
0010
0000
0000
0001
0000
0000
1000
0000
0000
0010
0000
0100
0000
,
0001
0000
0000
0010
0000
0000
1000
0000
0000
0010
0000
0000
0001
0000
0100
0000
,
0010
0000
0000
1000
0000
0000
0100
0000
0000
0010
0000
0000
0001
1000
0000
0000
,
1001
0000
0000
1000
0000
0000
0010
0000
0000
0100
0000
0000
0001
0000
0010
0000
,
0011
0000
0000
0010
0000
0000
0100
0000
0000
1000
0000
0000
0001
0000
0010
0000
,
0011
0000
0001
0000
0100
0000
0010
0000
0110
0000
0010
0000
1000
0001
0000
1000
,
0001
1000
0100
0010
0001
1000
1001
0000
,
1000
0100
0010
0001
1000
0010
0100
0001
,
1000
0000
1000
0000
0001
0000
0001
0000
1000
0000
0000
1000
0010
0000
1010
0000
,
0010
0100
0001
0010
1000
0010
0001
0100
,
0010
0000
0000
0010
1000
0000
0100
0000
0010
0000
0001
0000
1000
0000
0010
0000
,
1010
0000
0000
0010
1000
0000
0001
0000
0010
0000
0001
0000
1000
0000
0010
0000
,
1010
0000
0000
0010
0100
0000
0001
0000
0010
0000
0100
0000
1000
0000
0001
0000
,
1001
1000
0010
0100
0101
0001
0010
0100
,
1100
0000
0011
0000
0101
0100
0010
1000
,
1001
0000
0000
1000
0000
0000
0100
0000
0000
0010
0000
0000
0011
0000
0000
0000
,
0101
0000
0000
0100
0000
0000
0010
0000
0000
1000
0000
0000
1100
0000
0000
0000
,
0100
0010
0011
0000
0001
0100
0110
0000
,
0010
1000
1001
0000
1000
0100
0010
0001
,
0101
0000
0000
0100
0000
0000
0010
0000
0000
1000
0000
0000
1001
0000
0000
0000
,
1000
0000
0000
0100
0000
0000
0010
0000
0011
0000
0001
0000
0100
0000
0000
0000
,
1010
0000
0000
0010
1000
0000
0000
1000
0100
0000
0000
0100
0010
0000
0000
0010
,
0001
1000
0010
0100
0001
1000
0100
0010
,
0011
0000
0010
0000
0100
1000
0000
0000
0001
0000
1000
0000
1010
0000
0000
0000
,
1001
0000
1000
0000
0001
0010
0000
0010
0001
0000
0100
0000
0101
0000
0000
0000
,
0110
0000
0010
0000
1000
0001
0000
0000
1001
0000
1000
0000
0100
0010
0000
0000
,
0011
0000
0000
0001
0000
0000
0010
0000
0110
0000
1100
0000
0110
0000
0000
0000
,
0011
0000
0000
0001
0000
0100
0001
0000
0100
0000
0000
0000
0110
0000
0000
0000
,
1010
0000
0000
1000
0001
0000
0000
0001
0010
0000
0100
0000
1100
0000
0000
0000
,
0110
0000
0000
0010
0000
0000
0001
0000
1001
0000
0000
0000
1000
0000
0010
0000
,
0210
0000
0010
0000
0010
0000
0310
0000
1000
0000
0001
1000
0000
0001
1000
0000
,
1001
0000
1000
0000
0000
0100
0000
0000
0010
0000
0000
0001
0000
0000
0100
0000
,
0010
0000
1000
0000
0000
0001
0000
0000
0010
0000
0000
1000
0000
0000
0010
0000
,
0002
0000
0203
0000
0320
0000
1030
0001
,
0000
1000
0100
0010
0001
0001
1000
1000
,
1001
1000
0010
1000
0100
0010
0001
0100
,
0010
0010
1000
1000
0001
0001
0010
0000
,
0001
0000
0000
0001
0100
0000
0010
0000
1000
0000
0100
0000
0010
0000
0001
0000
,
1000
0010
1000
0001
0010
0001
1000
0000
,
1001
1000
1100
0000
1001
0001
0101
0000
,
1001
1000
1010
0000
1001
0001
0011
0000
,
0110
0100
1100
0000
1010
0010
0110
0000
,
0101
0001
0011
0000
0110
0100
1100
0000
,
1001
1001
1001
0000
1010
0010
0100
0001
,
1000
0000
0100
0000
0000
1100
0000
0000
0100
0000
0000
0110
0000
0000
0010
0000
,
0001
0000
1000
0000
0010
0000
1000
0000
0001
0000
0010
0002
0000
0000
0103
0000
,
0001
0000
0100
0000
0010
1000
0010
0000
1000
0000
0001
0000
1001
0000
0000
0000
,
1000
0000
0000
1000
0100
0000
0000
0100
0010
0000
0000
0010
0001
0000
0000
0001
,
1000
0000
0000
1000
0010
0000
0000
0010
0100
0000
0000
0100
0001
0000
0000
0001
,
1000
0100
0001
0101
0001
0100
1000
1010
,
0010
0100
0101
0001
2002
0000
0000
0000
,
0000
0000
0000
0000
,
0000
0000
0000
3003
0000
0000
0000
0000
0000
0000
0000
0000
0000
0000
0000
0000
;
