#TITLE:The Sampling Paradise;
#SUBTITLE:;
#ARTIST:Mamonis;
#TITLETRANSLIT:;
#SUBTITLETRANSLIT:;
#ARTISTTRANSLIT:;
#CREDIT:;
#BANNER:The Sampling Paradise.png;
#BACKGROUND:The Sampling Paradise-bg.png;
#LYRICSPATH:;
#CDTITLE:;
#MUSIC:The Sampling Paradise.mp3;
#OFFSET:-0.131;
#SAMPLESTART:64.105;
#SAMPLELENGTH:16.420;
#SELECTABLE:YES;
#BPMS:0.000=150.000,96.000=75.000,112.000=150.000,184.000=300.000,193.000=150.001,225.000=75.000,227.000=150.000,230.000=300.000,232.000=150.000;
#STOPS:113.750=0.400
,116.750=0.400
,173.750=0.200
,184.000=0.400
;
#BGCHANGES:;

//---------------dance-single - ----------------
#NOTES:
     dance-single:
     :
     Hard:
     9:
     0.800,0.887,0.434,0.156,1.000: // measure 1
0000
0000
0000
0000
,  // measure 2
0000
0000
0000
0000
,  // measure 3
0000
0000
0000
0000
,  // measure 4
0000
0000
0000
0000
,  // measure 5
1001
0000
1000
0000
0001
0000
0100
0010
0100
0000
0010
0000
1000
0000
0001
0100
,  // measure 6
0001
0000
1000
0100
1000
0000
0001
0010
0001
0000
2000
0000
3001
0000
0100
0000
,  // measure 7
0010
0000
1000
0100
1000
0000
0001
0100
0001
0000
0010
0001
0010
0000
0001
1000
,  // measure 8
0002
2003
3010
0110
,  // measure 9
0101
0000
0001
0010
0000
0100
0000
0010
0000
0001
0100
0000
0010
0000
0000
0000
,  // measure 10
1000
0000
0100
0010
0000
0100
0000
1000
0000
0001
0010
0000
0001
0000
1000
0000
,  // measure 11
0010
0000
1000
0010
0000
0100
0000
0001
0000
1000
0001
0000
0010
0000
0000
0000
,  // measure 12
0100
1000
0100
0000
0010
0000
0001
1000
0000
0010
0000
1000
0100
0000
0010
0000
,  // measure 13
0011
0000
0001
0100
0000
0010
0000
1000
0000
0100
1000
0000
0001
0000
0000
0000
,  // measure 14
1000
0100
1000
0000
0001
0000
0100
0001
0000
0010
0000
0100
0000
1000
0001
0000
,  // measure 15
0101
0000
0100
0000
0010
0000
1000
0000
0001
1000
0001
0000
0100
0000
0010
0000
,  // measure 16
1010
0000
0010
1000
0000
0001
1000
0000
0100
0010
0100
0000
0010
0000
0010
0000
,  // measure 17
0011
0000
0001
0100
0000
0010
0000
1000
0000
0010
0100
0000
0001
0000
1000
0100
,  // measure 18
0000
0100
1000
0000
0100
0000
0010
0001
0000
1000
0000
0001
0100
0000
0010
0000
,  // measure 19
1000
0010
1000
0000
0001
0000
0010
0001
0000
0100
0000
0010
0000
1000
0001
0000
,  // measure 20
1000
0000
0100
0010
0000
0001
0100
0000
0010
0000
1000
0001
1000
0000
0001
0000
,  // measure 21
1001
0000
1000
0000
0010
0100
0000
0100
0010
0000
1000
0000
0001
0010
0000
0010
,  // measure 22
0001
0000
0100
0000
0010
1000
0000
1000
0010
0100
0010
0000
1000
0001
1000
0000
,  // measure 23
0001
0100
0001
0000
0100
0010
0000
1010
0000
0110
0000
0101
0000
0001
0100
0010
,  // measure 24
2000
0000
0000
0000
0000
0000
0000
0000
3001
1000
0001
1000
0001
1000
0001
1000
,  // measure 25
0001
1000
0010
0000
1000
0000
1001
0000
0001
0010
0100
0000
1000
0000
1100
0000
,  // measure 26
1000
0000
0010
0000
0100
0000
0000
0000
0001
0000
0000
0000
0101
0000
0000
0000
0001
0000
0010
0000
0100
0000
1000
0001
0000
0100
0010
0000
1000
0000
0001
0000
,  // measure 27
0101
0000
0100
0000
0010
0000
0000
0000
1000
0000
0000
0000
1001
0000
0000
0000
0001
0000
0010
0000
0100
1000
0000
0100
0000
0010
0000
0001
0000
1000
0010
0000
,  // measure 28
0100
0000
0001
0000
1000
0000
0010
1000
0000
0100
0010
0000
0001
0000
1000
0000
2002
0000
0000
0000
0000
0000
0000
0000
0000
0000
0000
0000
3003
0000
0000
0000
,  // measure 29
1100
0000
0100
0000
0010
0001
0000
1001
1010
0000
0010
0100
0010
0000
0100
0000
,  // measure 30
0001
0010
0000
0110
1100
0000
1000
0010
1000
0000
0010
0000
0110
0000
0100
0001
,  // measure 31
0000
1000
0001
0100
0000
0010
1000
0000
1100
0000
0100
0010
0000
0001
0100
0010
,  // measure 32
1000
0000
0001
0000
0010
0001
0010
0000
0011
0000
0001
0000
0100
0010
0000
0000
,  // measure 33
1000
0000
0100
0000
0010
0001
0000
0000
1000
0000
0010
0000
0100
0001
0000
0000
,  // measure 34
0100
0000
0010
0000
1000
0100
0000
0000
0100
0010
0000
0000
0010
0001
0000
0000
,  // measure 35
0001
1000
0000
0000
1000
0010
0100
0001
1000
0000
0001
0000
0100
0010
0100
0010
,  // measure 36
0100
0000
0010
0000
0101
0000
0000
0000
1001
0000
1000
0000
0010
0100
0000
0010
,  // measure 37
0000
1000
0000
0100
0000
0010
0001
0000
0100
0000
0010
0000
1000
0001
0000
0010
,  // measure 38
0000
0001
0000
1000
0000
0100
1000
0000
0010
0000
0100
0000
0001
0000
1000
0100
,  // measure 39
0000
0010
0000
0001
0000
1000
0010
0000
0100
0000
0001
1000
0000
0100
1000
0100
,  // measure 40
0000
0010
0001
0000
1000
0001
1000
0000
0101
0000
0100
0000
0010
1000
0000
0100
,  // measure 41
0000
1000
0000
0010
0000
0100
0001
0000
1000
0000
0100
0000
0010
0001
0000
0100
,  // measure 42
0000
0001
0000
0010
0000
0100
1000
0000
1001
0000
0001
0000
0100
0000
0010
1000
,  // measure 43
0000
0100
1000
0000
0001
0000
0010
0000
0001
0000
0001
0100
0000
0100
0010
0000
,  // measure 44
0010
1000
0000
1001
0000
1000
0010
0100
0010
1000
0010
0100
0000
0110
0000
0101
,  // measure 45
0000
0001
2000
0000
3001
0000
1001
0000
0001
0100
0010
1000
0000
1010
0000
0110
,  // measure 46
0000
0100
0002
0000
1003
0000
2002
0000
0000
0000
0000
0000
0000
0000
0000
0000
,  // measure 47
3003
0000
0000
0000
,  // measure 48
0000
0000
0000
0000
,  // measure 49
0000
0000
0000
0000
1001
0000
0000
1000
0010
0000
0100
0010
0100
0000
0001
0000
,  // measure 50
2000
0000
3001
0000
1000
0010
1000
0001
0200
0000
0310
0000
1000
0001
0100
0000
,  // measure 51
0010
1000
0000
1000
0001
0000
1000
0100
1000
0000
0100
0000
0020
0000
0031
0000
,  // measure 52
0100
0000
0001
0000
0101
0000
0001
0100
0000
0010
1000
0000
1001
0000
0000
0000
,  // measure 53
0010
0100
0000
0100
0010
0000
1000
0001
1000
0000
0001
0100
0000
0010
0100
0000
,  // measure 54
0002
0000
1003
0000
0001
0000
1000
0100
1000
0100
1000
0100
0000
0010
0000
0001
,  // measure 55
1000
0000
1010
0000
0020
0000
0130
0000
0001
0000
1000
0000
0100
0010
0100
0000
,  // measure 56
0010
0000
0001
0000
1001
0000
0010
0100
0010
0100
0010
0100
0000
0110
0000
1000
,  // measure 57
0100
0000
0000
0000
0010
0000
0000
0000
0001
0000
0000
0000
1000
0000
0000
1000
0000
0000
0100
0000
0000
0100
0000
0000
0010
0000
0000
0010
0000
0000
0001
0000
0000
0001
0000
0000
1001
0000
0000
0000
0000
0000
1000
0000
0000
0000
0000
0000
,  // measure 58
1010
0000
0010
0100
0002
0000
1003
0000
0202
0000
0000
0000
0303
0000
0000
0000
,  // measure 59
1001
0000
0001
0000
0100
0010
0000
0100
0000
0001
0000
0010
0000
0100
1000
0000
,  // measure 60
0010
0000
0100
0000
0001
1000
0000
0100
0000
1000
0000
0001
0000
0010
0001
0000
,  // measure 61
0100
0000
0010
0000
1000
0000
0001
0010
0000
0100
0000
1000
0000
0001
0100
0000
,  // measure 62
0010
0000
1000
0001
0000
0010
0001
0010
0000
0100
1000
0000
0001
1000
0001
0000
,  // measure 63
1010
0000
0010
0000
0100
0001
0000
0010
0000
0001
0000
0100
0000
0010
1000
0000
,  // measure 64
0011
0000
0010
0000
0100
1000
0000
0010
0000
1000
0000
0100
0000
0010
0001
0000
,  // measure 65
1001
0000
1000
0000
0010
0000
0100
0001
0000
0010
0001
0000
1000
0000
0100
0000
,  // measure 66
1000
0000
1000
0010
0000
0010
0100
0000
0100
0001
0000
1001
0000
1000
0010
0100
;

//---------------dance-single - ----------------
#NOTES:
     dance-single:
     :
     Beginner:
     2:
     0.154,0.229,0.026,0.026,0.000: // measure 1
0000
0000
0000
0000
,  // measure 2
0000
0000
0000
0000
,  // measure 3
0000
0000
0000
0000
,  // measure 4
0000
0000
0000
0000
,  // measure 5
1000
0000
0000
0000
,  // measure 6
0001
0000
0000
0000
,  // measure 7
0100
0000
0100
0000
,  // measure 8
0100
0000
0100
0000
,  // measure 9
0100
0000
0000
0000
,  // measure 10
0010
0000
0000
0000
,  // measure 11
1000
0000
0000
0000
,  // measure 12
0001
0000
0001
0000
,  // measure 13
0001
0000
0000
0000
,  // measure 14
0100
0000
0000
0000
,  // measure 15
0010
0000
0000
0000
,  // measure 16
1000
0000
1000
0000
,  // measure 17
0001
0000
0001
0000
,  // measure 18
0001
0000
0000
0000
,  // measure 19
1000
0000
1000
0000
,  // measure 20
1000
0000
0000
0000
,  // measure 21
0010
0000
0010
0000
,  // measure 22
0010
0000
0010
0000
,  // measure 23
0100
0000
0100
0100
,  // measure 24
0200
0000
0000
0300
,  // measure 25
0010
0000
0001
0000
,  // measure 26
0100
0000
0010
0010
,  // measure 27
0010
0000
1000
0000
,  // measure 28
0100
0100
0100
0000
,  // measure 29
0010
0000
0001
0001
,  // measure 30
0000
0100
0100
0000
,  // measure 31
0010
0000
1000
0000
,  // measure 32
0001
0000
0100
0000
,  // measure 33
0100
0000
0100
0000
,  // measure 34
0100
0000
0010
0010
,  // measure 35
0010
0010
0020
0000
,  // measure 36
0030
1001
1000
0000
,  // measure 37
0001
0000
0100
0000
,  // measure 38
0010
0000
1000
0000
,  // measure 39
0100
0000
0010
0000
,  // measure 40
0001
0000
1000
0000
,  // measure 41
0100
0000
0001
0000
,  // measure 42
0100
0000
1000
0000
,  // measure 43
0010
0000
0001
0000
,  // measure 44
0010
0000
1000
0000
,  // measure 45
0001
0000
0100
0000
,  // measure 46
0010
0020
0000
0030
,  // measure 47
0000
0000
0000
0000
,  // measure 48
0000
0000
0000
0000
,  // measure 49
0000
1000
0000
1000
,  // measure 50
0000
0001
0000
0001
,  // measure 51
0000
0100
0000
0100
,  // measure 52
0000
0010
0000
0010
,  // measure 53
0000
1000
0000
1000
,  // measure 54
0000
0100
0000
0100
,  // measure 55
0000
0001
0000
0001
,  // measure 56
0000
0100
0000
0100
,  // measure 57
0000
0010
0010
0010
,  // measure 58
0010
0010
1001
0000
,  // measure 59
1000
0000
1000
0000
,  // measure 60
0010
0000
0010
0000
,  // measure 61
0100
0000
0100
0000
,  // measure 62
0001
0000
0001
0000
,  // measure 63
1000
0000
1000
0000
,  // measure 64
0010
0000
0010
0000
,  // measure 65
0001
0000
0001
0000
,  // measure 66
0010
0000
0010
0000
,  // measure 67
1001
0000
0000
0000
;

//---------------dance-single - ----------------
#NOTES:
     dance-single:
     :
     Easy:
     5:
     0.351,0.401,0.130,0.069,0.026: // measure 1
0000
0000
0000
0000
,  // measure 2
0000
0000
0000
0000
,  // measure 3
0000
0000
0000
0000
,  // measure 4
0000
0000
0000
0000
,  // measure 5
1000
0100
0010
0001
,  // measure 6
0010
0100
1000
0100
,  // measure 7
0010
0100
1000
0001
,  // measure 8
2002
0000
3003
0110
,  // measure 9
0010
1000
0100
1000
,  // measure 10
0010
0100
0001
0100
,  // measure 11
0010
1000
0001
1000
,  // measure 12
0100
0010
0001
0010
,  // measure 13
0100
1000
0010
0100
,  // measure 14
0001
0010
0100
1000
,  // measure 15
0001
0100
0010
1000
,  // measure 16
0001
0000
0001
0000
1000
0100
1000
0000
,  // measure 17
0100
0010
0001
0100
,  // measure 18
0001
0010
0100
1000
,  // measure 19
0010
0001
0010
1000
,  // measure 20
0100
0001
0100
1000
,  // measure 21
0010
0101
0010
1100
,  // measure 22
0010
0000
0101
0000
0001
1000
0001
0000
,  // measure 23
1000
0100
0001
0010
,  // measure 24
2002
0000
0000
3003
,  // measure 25
1000
0001
0100
0010
,  // measure 26
1000
0000
0001
0000
0100
0000
0010
0100
,  // measure 27
0010
0100
0001
1000
,  // measure 28
0100
0010
0001
0010
0200
0000
0300
0000
,  // measure 29
1000
0000
0000
0000
0001
0000
0000
0001
0101
0000
0000
0000
0100
0000
0000
0000
,  // measure 30
0010
0000
0000
0010
0110
0000
0000
0000
0010
0000
0000
0000
1000
0000
0000
0000
,  // measure 31
0001
0100
0001
0000
0010
0000
0100
0000
,  // measure 32
1000
0100
1000
0000
0100
0000
0110
0000
,  // measure 33
0010
0011
0001
0101
,  // measure 34
0100
0000
0110
0000
1000
0001
1000
0001
,  // measure 35
1000
0001
1000
0001
2000
0000
0000
0000
,  // measure 36
3001
1001
0001
0100
,  // measure 37
0010
1000
0100
1000
,  // measure 38
0001
0010
0001
0100
,  // measure 39
0010
1000
0100
0010
,  // measure 40
0001
1000
0001
1000
0001
0000
0100
0000
,  // measure 41
0010
1000
0010
0100
,  // measure 42
0001
0010
0100
1000
,  // measure 43
0100
0000
0000
0000
0010
0000
0000
0000
0001
0000
0000
0001
0000
0000
0001
0000
,  // measure 44
0000
1001
1000
0100
,  // measure 45
0010
0001
0010
0000
0100
0000
1000
0000
,  // measure 46
0010
0100
0010
0002
0000
0000
0003
0000
,  // measure 47
0000
0000
0000
0000
,  // measure 48
0000
0000
0000
0000
,  // measure 49
0000
0010
1000
0100
,  // measure 50
0010
0001
0100
0010
,  // measure 51
1000
0001
1000
0000
0100
0000
1000
0000
,  // measure 52
0010
0100
0001
0010
,  // measure 53
0100
1000
0100
0000
0010
0000
0001
0000
,  // measure 54
0100
0010
1000
0001
,  // measure 55
0100
0001
0100
0000
0010
0000
1000
0000
,  // measure 56
0100
0010
0010
0010
,  // measure 57
0100
0100
0100
1000
0010
0100
0001
1000
,  // measure 58
0001
0000
0100
0010
0200
0000
0300
0000
,  // measure 59
0010
1000
0100
1000
,  // measure 60
0001
0000
0010
0000
0001
0000
0100
0010
,  // measure 61
0100
0010
1000
0001
,  // measure 62
0100
0000
0001
0000
1000
0100
1000
0100
,  // measure 63
1000
0010
0001
0010
,  // measure 64
1000
0100
0001
0100
,  // measure 65
1000
1000
0001
0001
,  // measure 66
0100
0000
0000
0010
0000
0000
1000
0000
0000
0001
0000
0000
0100
0000
0000
0110
;

//---------------dance-single - ----------------
#NOTES:
     dance-single:
     :
     Medium:
     8:
     0.561,0.572,0.174,0.130,0.143: // measure 1
0000
0000
0000
0000
,  // measure 2
0000
0000
0000
0000
,  // measure 3
0000
0000
0000
0000
,  // measure 4
0000
0000
0000
0000
,  // measure 5
1000
0100
1000
0000
0100
0001
0100
0000
,  // measure 6
0001
0010
0001
0000
0010
1000
0010
0000
,  // measure 7
1000
0100
0010
0001
0010
0100
1000
0100
,  // measure 8
0020
0032
0103
0110
,  // measure 9
0010
1000
0010
1000
0001
0100
0001
0000
,  // measure 10
1000
0100
1000
0100
0010
0001
0010
0000
,  // measure 11
0001
0100
0010
1000
0010
0100
0001
0000
,  // measure 12
1000
0100
0010
0001
0010
0100
1000
0000
,  // measure 13
0001
0100
1000
0100
0001
0100
1000
0000
,  // measure 14
0001
0010
1000
0010
0001
0010
1000
0000
,  // measure 15
0001
0100
0010
1000
0100
0010
0001
1000
,  // measure 16
0001
0000
0000
1000
0000
0000
1000
0010
0100
0000
0100
0000
0001
0000
0001
0000
,  // measure 17
1000
0100
0001
0100
1000
0100
0001
0100
,  // measure 18
1000
0010
0001
0010
1000
0010
0001
0000
,  // measure 19
1000
0100
0010
0001
0010
0100
1000
0100
,  // measure 20
0010
0001
0100
0010
1000
0010
0100
0000
,  // measure 21
0001
0100
0101
0000
0100
0010
0110
0000
,  // measure 22
0010
1000
1010
0000
1001
1001
1001
0000
,  // measure 23
0001
0100
0010
1000
0010
0100
0001
1000
,  // measure 24
0002
0000
0000
0003
,  // measure 25
1000
0010
0100
0010
1000
0100
0010
0100
,  // measure 26
1000
0000
0001
0000
0010
0000
0001
0000
0100
0000
0010
0000
1000
0000
0001
1000
,  // measure 27
0001
0000
0100
0000
0010
0000
1000
0000
0010
0000
0100
0000
0001
1000
0001
0000
,  // measure 28
1000
0100
0001
0010
2002
0000
0000
3003
,  // measure 29
1000
0000
0010
0000
0100
0010
0000
2000
3001
0000
0000
0000
0001
0000
0010
0000
,  // measure 30
0100
0010
0000
0002
1003
0000
0000
0000
0001
0000
1000
0000
0100
0000
0010
0001
,  // measure 31
0000
0010
0000
0100
0000
0000
1000
0000
0010
0000
0000
0100
0000
0001
0100
0002
,  // measure 32
0000
0010
0010
0013
0001
0010
0100
0000
,  // measure 33
1000
0100
0010
0000
0001
0100
0010
0000
,  // measure 34
1000
0010
0100
0000
0101
0000
1010
0000
,  // measure 35
1100
0000
0011
0000
0001
1000
0001
1000
,  // measure 36
0100
0010
1001
0000
1000
0100
0010
0100
,  // measure 37
1000
0010
0100
0010
1000
0100
0001
0100
,  // measure 38
1000
0010
0001
0010
1000
1000
0100
0100
,  // measure 39
0010
0010
0001
0001
1000
0010
0100
0001
,  // measure 40
1000
1000
0001
0001
1000
0100
0010
0001
,  // measure 41
1000
0010
0100
0001
1000
0100
0001
0100
,  // measure 42
1000
0010
0001
0010
1000
0100
0010
0100
,  // measure 43
1000
0000
0010
0000
0100
0000
0010
0000
1000
0000
0000
1000
0000
0000
0001
0000
,  // measure 44
0000
0001
0000
0000
0101
0000
0000
0000
0100
0000
0020
0000
0000
1000
0000
1030
,  // measure 45
0000
0000
0101
0000
0000
0000
0100
0000
0010
0000
2000
0000
0000
0001
0000
3001
,  // measure 46
0000
1001
0000
0220
0000
0000
0000
0000
,  // measure 47
0330
0000
0000
0000
,  // measure 48
0000
0000
0000
0000
,  // measure 49
0000
0000
1000
0100
1000
0000
0100
0001
,  // measure 50
0100
0000
0001
0010
0001
0000
0010
1000
,  // measure 51
0010
0000
1000
0100
0010
0000
0001
0010
,  // measure 52
0100
0000
1000
0010
0100
0001
0100
0000
,  // measure 53
0110
0000
0010
1000
0100
0000
0100
0001
,  // measure 54
0010
0000
0010
1000
0001
0000
0001
0100
,  // measure 55
1000
0000
0100
0001
0010
0100
1000
0001
,  // measure 56
0100
0000
0010
0000
2000
0000
0000
0001
0000
0001
0000
3001
0000
1001
0000
0000
,  // measure 57
0010
0000
0000
0000
0100
0000
0000
0000
0010
0000
0000
0000
0100
0000
0000
0001
0000
0000
0100
0000
0000
0000
0000
0000
0010
0000
0000
1000
0000
0000
0010
0000
0000
0000
0000
0000
1000
0000
0000
0000
0000
0000
0100
0000
0000
0000
0000
0000
,  // measure 58
0010
0001
1000
0010
0220
0000
0330
0000
,  // measure 59
1000
0100
0010
0100
1000
0010
0100
0010
,  // measure 60
1000
0100
0001
0100
1000
0010
0001
0010
,  // measure 61
1000
1000
0100
0100
0010
0010
0001
0001
,  // measure 62
1000
0010
0100
0001
1000
1000
0001
0001
,  // measure 63
1000
0100
0010
0001
1000
0010
0100
0001
,  // measure 64
1000
0100
0001
0100
1000
0010
0001
0010
,  // measure 65
1000
0100
0010
0100
1000
0010
0100
0010
,  // measure 66
1000
0000
0000
1000
0000
0000
0001
0000
0000
0001
0000
1000
0000
0010
0100
0010
;
