#TITLE:The Island Song;
#SUBTITLE:;
#ARTIST:TAG feat. Eric Anthony;
#TITLETRANSLIT:;
#SUBTITLETRANSLIT:;
#ARTISTTRANSLIT:;
#CREDIT:;
#BANNER:The Island Song.png;
#BACKGROUND:The Island Song-bg.png;
#LYRICSPATH:;
#CDTITLE:./CDTITLES/DanceDanceRevolution 2010.png;
#MUSIC:The Island Song.mp3;
#OFFSET:0.108;
#SAMPLESTART:47.840;
#SAMPLELENGTH:15.000;
#SELECTABLE:YES;
#BPMS:0.000=85.000;
#STOPS:;
#BGCHANGES:;

//---------------dance-single - ----------------
#NOTES:
     dance-single:
     :
     Hard:
     7:
     0.510,0.505,0.432,0.168,0.553: // measure 1
0000
0000
0000
0000
,  // measure 2
0000
0000
0000
0000
,  // measure 3
0000
0000
0000
0000
,  // measure 4
1000
0000
0000
0001
0000
0000
0101
0000
0000
0100
0000
0010
1000
0000
0000
0010
0000
0000
0110
0000
0000
0100
0000
0000
,  // measure 5
0001
0000
0000
0010
0000
0000
0011
0000
0000
0010
0000
0100
1000
0000
0000
0010
0000
0010
0100
0000
0100
0001
0000
0000
,  // measure 6
1001
0000
0000
0001
0000
0000
0101
0000
0000
0100
0000
0010
0000
0000
1000
0000
0000
0001
0000
0000
0100
0000
0000
0010
,  // measure 7
1000
0000
0000
0100
0000
0000
1100
0000
0000
0100
0000
0010
0100
0000
0000
0010
0000
0000
0011
0000
0001
0000
0000
1000
,  // measure 8
0000
0000
1000
0000
0000
0010
0000
0000
0010
0000
0000
0100
0000
0000
0100
0000
0000
0001
0000
0000
0001
0000
0000
0010
,  // measure 9
0100
0000
0000
1000
0000
0000
1010
0000
0000
0010
0000
0100
0010
0000
0000
0100
0000
0001
1000
0000
0001
0100
0000
0010
,  // measure 10
0000
0000
0010
0000
0000
1000
0000
0000
1000
0000
0000
0001
0010
0000
0000
0100
0000
0000
0110
0000
0100
1000
0000
0010
,  // measure 11
0000
0000
0010
0000
0000
0100
0000
0000
0100
0000
0000
0001
1000
0000
0000
0001
0000
0000
1001
0000
1000
0010
0000
0100
,  // measure 12
0000
0000
0100
0000
0000
0001
0000
0000
0001
0000
0000
0010
0000
0000
0010
0000
0000
0100
0000
0000
0100
1000
0000
0001
,  // measure 13
1000
0000
0000
0010
0000
0000
1010
0000
0000
0010
0000
0100
0010
0000
0000
0100
0000
0001
1000
0000
0010
1000
0000
0000
,  // measure 14
2010
0000
0000
0010
0000
3010
0000
0000
0001
0100
0000
0000
0102
0000
0000
1000
0000
1003
0000
0000
0010
1000
0000
0000
,  // measure 15
2001
0000
0000
0100
0000
3100
0000
0000
1000
0010
0000
0000
0210
0000
0000
0010
0000
0310
0000
0000
1000
0001
0000
0000
,  // measure 16
0102
0000
0000
0010
0000
0013
0000
0000
0100
1000
0000
0000
2001
0000
0000
0010
0000
3010
0000
0000
1000
0010
0000
0100
,  // measure 17
0001
0000
0010
0000
0100
0000
1000
0000
0010
0000
0100
0000
0101
0000
0000
0000
0000
0100
0010
0000
1000
0001
0000
0000
,  // measure 18
1000
0000
0000
1010
0000
0000
0001
0000
0000
0011
0000
0000
1000
0000
0000
1100
0000
0000
0001
0000
0000
0101
0000
0001
,  // measure 19
1000
0000
0100
0000
0010
0000
0001
0000
0100
0000
0010
0000
1000
0000
0000
0001
0000
0100
0010
0000
1000
0001
0000
0000
,  // measure 20
1002
0010
0100
1003
2001
0010
0100
3001
,  // measure 21
2010
0000
0000
3001
0000
0000
1000
0000
0010
0100
0000
0001
0000
0000
0001
0000
0000
1000
0010
0000
0100
0001
0000
0000
,  // measure 22
0100
0000
0000
0101
0000
0000
0001
0000
0000
0011
0000
0000
0010
0000
0000
0110
0000
0000
0100
0000
0000
1100
0000
0100
,  // measure 23
0010
0000
0001
0000
0100
0000
0010
0000
1000
0000
0001
0000
0010
0000
0000
0001
0000
0100
0010
0000
1000
0001
0000
1000
,  // measure 24
0001
0000
0100
0000
0000
0010
0000
0000
1010
0000
0000
1000
0100
0000
0010
0000
0000
0001
0010
0000
0000
0110
0000
0100
,  // measure 25
1000
0000
0010
0000
0000
0100
0001
0000
0000
0100
0000
0010
2000
0000
0000
3200
0000
0000
0320
0000
0000
0031
0000
0000
,  // measure 26
1002
0000
0000
0100
0000
0000
0100
0000
0000
1003
0000
0000
0001
0000
0000
0100
0000
0000
0010
0000
0000
1000
0000
0001
,  // measure 27
2000
0000
0000
0100
0000
0000
3010
0000
0000
1001
0000
0000
0001
0000
0000
0100
0000
0010
1000
0000
0100
0010
0000
0000
,  // measure 28
0001
0000
0000
1000
0000
0000
1010
0000
0000
0010
0000
0100
0001
0000
0000
0100
0000
0000
0110
0000
0000
0010
0000
0000
,  // measure 29
1000
0000
0000
0100
0000
0000
1100
0000
0000
0100
0000
0010
0001
0000
0000
0100
0000
0000
0110
0000
0000
0010
0000
0000
,  // measure 30
1000
0000
0000
0001
0000
0000
0101
0000
0000
0100
0000
0010
1000
0000
0000
0010
0000
0000
0110
0000
0000
0100
0000
0000
,  // measure 31
0001
0000
0000
0010
0000
0000
0011
0000
0000
0010
0000
0100
1000
0000
0000
0010
0000
0010
0100
0000
0100
0001
0000
0000
,  // measure 32
2002
0000
0000
0000
,  // measure 33
3003
0000
0000
0000
;

//---------------dance-single - ----------------
#NOTES:
     dance-single:
     :
     Beginner:
     1:
     0.101,0.098,0.000,0.000,0.000:
0000
0000
0000
0000
,
0000
0000
0000
0000
,
0000
0000
0000
0000
,
1000
0000
1000
0000
,
0001
0000
0001
0000
,
0010
0000
0100
0000
,
1000
0000
0001
0000
,
0010
0000
0001
0000
,
1000
0000
0100
0000
,
1000
1000
1000
0000
,
0001
0001
0001
0000
,
0010
0000
0100
0000
,
1000
0000
0010
0000
,
0100
0000
0100
0000
,
0001
0000
0001
0000
,
1000
0000
1000
0000
,
0001
0001
0001
0000
,
1000
0000
0010
0000
,
0100
0100
0100
0000
,
0001
0000
0010
0000
,
0100
0100
0100
0000
,
1000
0000
0001
0000
,
0010
0010
0010
0000
,
0001
0000
1000
0000
,
0010
0000
0100
0100
,
0100
0000
0001
0000
,
0010
0000
0100
0100
,
0100
0000
1000
0000
,
0010
0000
1000
1000
,
1000
0000
0001
0000
,
0010
0000
0001
0001
,
0001
0000
0000
0000
;

//---------------dance-single - ----------------
#NOTES:
     dance-single:
     :
     Easy:
     2:
     0.196,0.228,0.190,0.000,0.000:
0000
0000
0000
0000
,
0000
0000
0000
0000
,
0000
0000
0000
0000
,
1000
0100
1000
0001
,
0010
0001
0100
0010
,
1000
1000
0001
0001
,
0010
0010
0100
0100
,
1000
1000
0010
0010
,
0100
0100
0001
0001
,
0010
0100
1000
0100
,
0010
0001
0100
0001
,
0010
0100
1000
0001
,
0010
0010
0001
0001
,
0100
0110
0010
0110
,
0001
1001
1000
1001
,
1000
1010
0001
0011
,
1001
1001
1001
0000
,
1000
0010
0100
0001
,
1001
1001
0110
0010
,
1000
0100
0001
0100
,
1000
0010
0001
0010
,
1000
0100
0010
0001
,
1001
1001
0110
0010
,
1000
0100
0010
0001
,
1000
0010
0100
0001
,
1001
1000
0010
1000
,
0001
0010
0001
0100
,
0110
0010
1000
0100
,
1000
0001
0010
0001
,
0100
0010
1000
0100
,
0010
0001
1000
0010
,
0110
0000
0000
0000
;

//---------------dance-single - ----------------
#NOTES:
     dance-single:
     :
     Medium:
     4:
     0.268,0.277,0.168,0.042,0.032:
0000
0000
0000
0000
,
0000
0000
0000
0000
,
0000
0000
0000
0000
,
1000
0000
1100
0000
0100
0000
0010
0001
,
0010
0000
0011
0000
0001
0000
0100
0010
,
0110
0000
0010
0000
1000
0001
1000
0000
,
0100
0000
1000
0000
0001
0010
0001
0000
,
0100
0000
0010
0000
1000
0001
1000
0000
,
0100
0000
1000
0000
0001
0010
0001
0000
,
0101
0000
0100
0000
0010
1000
0010
0000
,
1000
0000
0100
0000
1000
0001
1000
0000
,
0001
0000
0010
0000
0001
0100
0001
0000
,
0100
0000
0010
0000
1000
0100
1000
0000
,
1001
0000
1000
0000
0010
0000
0100
0001
,
0100
0000
0001
0000
0010
0000
0100
1000
,
0100
0000
0010
0000
0001
0000
1000
0010
,
1000
0000
0000
0000
1000
0000
0001
0000
0000
0000
0001
0000
1000
0000
0000
0000
0000
0000
0001
0000
0000
1000
0000
0000
,
0010
0100
0101
0000
0001
0010
0110
0000
,
0100
0000
0000
0000
0100
0000
1000
0000
0000
0000
1000
0000
0010
0000
0000
0100
0000
0000
0001
0000
0000
0000
0000
0000
,
2000
3000
0101
0000
0002
0003
1100
0000
,
1000
0010
0100
0001
1000
1000
0001
0001
,
1000
0010
0110
0000
0001
0010
0110
0000
,
1000
0000
0000
0000
1000
0000
0001
0000
0000
0000
0001
0000
0010
0000
0000
0100
0000
0000
1100
0000
0000
0000
0000
0000
,
1000
0010
0100
0010
1000
0100
0010
0000
,
0100
1000
0001
0010
0001
1000
0010
0100
,
0002
0000
0010
0000
0100
0000
1003
0001
,
2000
0000
0010
0000
0100
0000
3001
1000
,
1010
0000
0010
0000
0100
0001
0010
0000
,
0100
0000
1000
0000
0001
0001
1000
1000
,
0010
0000
1010
0000
0010
1000
0100
0000
,
0010
0000
0011
0000
0001
0001
1000
1000
,
1001
0000
0000
0000
;
