#TITLE:Stamp On The Ground;
#SUBTITLE:;
#ARTIST:Italobrothers;
#TITLETRANSLIT:;
#SUBTITLETRANSLIT:;
#ARTISTTRANSLIT:;
#CREDIT:;
#BANNER:Stamp On The Ground.png;
#BACKGROUND:Stamp On The Ground-bg.png;
#LYRICSPATH:;
#CDTITLE:;
#MUSIC:Stamp On The Ground.mp3;
#OFFSET:-0.041;
#SAMPLESTART:89.600;
#SAMPLELENGTH:14.020;
#SELECTABLE:YES;
#BPMS:0.000=150.000;
#STOPS:;
#BGCHANGES:;

//---------------dance-single - ----------------
#NOTES:
     dance-single:
     :
     Hard:
     8:
     0.637,0.614,0.938,0.367,0.452: // measure 1
0000
0000
0000
0000
,  // measure 2
0000
0000
0000
0000
,  // measure 3
0000
0000
0000
0000
,  // measure 4
0000
0000
0000
0000
,  // measure 5
1000
1100
0001
0101
,  // measure 6
1000
0000
1000
0010
0000
0010
0100
0000
0100
0001
0000
0001
,  // measure 7
0010
0110
1000
1001
,  // measure 8
1000
0100
1000
0100
0000
0100
0010
0000
0010
0001
0000
0001
,  // measure 9
1000
0000
0000
0010
0000
0010
0200
0000
0000
0301
0000
0000
,  // measure 10
0101
0110
1010
1100
,  // measure 11
0100
0000
0100
0010
0000
0010
0002
0000
0000
1003
0000
0000
,  // measure 12
1001
0000
0000
1010
0000
0010
0200
0000
0000
0301
0000
0000
,  // measure 13
1001
0000
0000
0001
0000
0001
0020
0000
0000
0130
0000
0000
,  // measure 14
0110
1100
1010
0110
,  // measure 15
0100
0000
0100
0001
0000
0001
0020
0000
0000
0130
0000
0000
,  // measure 16
1000
0000
1000
0001
0000
0001
0010
0000
0010
0001
0000
0000
,  // measure 17
0200
0320
2030
3001
,  // measure 18
0020
0000
0000
0230
0000
0000
2300
0000
0000
3010
0000
0010
,  // measure 19
0200
0302
0023
0031
,  // measure 20
0200
0000
0000
0310
0000
0010
2000
0000
0000
3001
0100
0001
,  // measure 21
0200
0320
2030
3001
,  // measure 22
0011
0000
0000
0101
0000
0000
0110
0000
0000
1010
0000
0010
,  // measure 23
1000
0000
1000
0001
0000
0001
0100
0000
0100
0010
1000
0001
,  // measure 24
0010
0000
0010
0001
0000
0001
1000
0000
1000
0001
0000
0000
,  // measure 25
1001
1010
0120
0130
,  // measure 26
0110
0000
0000
0101
0000
0000
0011
0000
0000
0110
0000
0100
,  // measure 27
1100
1010
0210
0310
,  // measure 28
0110
0000
0000
0101
0000
0001
0020
0000
0000
0130
1000
0010
,  // measure 29
1010
1001
0102
0103
,  // measure 30
0101
0000
0000
0110
0000
0000
1010
0000
0000
1001
0000
1000
,  // measure 31
1100
0110
0012
0013
,  // measure 32
0110
0000
0100
1000
0000
1000
0001
0000
0001
1000
0000
1000
,  // measure 33
1010
0110
0201
0301
,  // measure 34
0101
0000
0000
0011
0000
0000
0110
0000
0000
1100
0000
1000
,  // measure 35
1010
0110
0102
0103
,  // measure 36
0101
0000
0000
0110
0000
0010
2000
0000
3000
0001
0010
0100
,  // measure 37
1100
0110
2100
3100
,  // measure 38
1100
0000
0000
0110
0000
0000
0011
0000
0000
1001
0000
0001
,  // measure 39
1001
1010
0210
0310
,  // measure 40
0110
0000
0010
1000
0000
1000
0001
0000
0001
0010
0001
1000
,  // measure 41
0100
0000
0000
0110
,  // measure 42
0010
0000
0010
0001
0000
0001
0100
0000
0100
0010
0000
0000
,  // measure 43
1000
0000
1000
0001
0000
0001
0010
0000
0010
0001
0000
0000
,  // measure 44
1000
0000
1000
0100
0000
0100
0001
0000
0001
0100
0000
0000
,  // measure 45
1000
0000
1000
0010
0000
0010
0100
0000
0100
0001
0000
0000
,  // measure 46
1000
0000
1000
0100
0000
0100
0001
0000
0001
0100
0000
0000
,  // measure 47
1000
0000
1000
0010
0000
0010
0100
0000
0100
0001
0000
0000
,  // measure 48
2002
0000
0000
3003
,  // measure 49
1000
0000
0000
0010
0000
0010
0200
0000
0000
0301
0000
0000
,  // measure 50
0101
0110
1010
1100
,  // measure 51
0100
0000
0100
0010
0000
0010
0002
0000
0000
1003
0000
0000
,  // measure 52
1001
0000
0000
1010
0000
0010
0100
0000
0100
0001
0000
0001
,  // measure 53
1000
0000
0000
0001
0000
0001
0020
0000
0000
0130
0000
0000
,  // measure 54
0110
1100
1010
0110
,  // measure 55
0100
0000
0100
0001
0000
0001
0020
0000
0000
0130
0000
0000
,  // measure 56
1000
0000
1000
0001
0000
0001
0010
0000
0010
0001
0000
0001
,  // measure 57
1001
0000
0000
0100
0000
0100
0020
0000
0000
1030
0000
0000
,  // measure 58
1010
0110
0101
0011
,  // measure 59
0010
0000
0010
0100
0000
0100
2000
0000
0000
3001
0000
0000
,  // measure 60
1001
0000
0000
0101
0000
0100
0010
0000
0010
1000
0000
1000
,  // measure 61
0001
0000
0000
1000
0000
1000
0200
0000
0000
0310
0000
0000
,  // measure 62
0110
0011
0101
0110
,  // measure 63
0010
0000
0010
1000
0000
1000
0200
0000
0000
0310
0000
0000
,  // measure 64
0001
0000
0001
1000
0000
1000
0100
0000
0100
1000
0010
1000
,  // measure 65
1010
0110
0102
0103
,  // measure 66
0101
0000
0000
0110
0000
0000
1010
0000
0000
1100
0000
0100
,  // measure 67
0110
0011
0102
0103
,  // measure 68
0101
0000
0000
0110
0000
0010
1000
0000
1000
0001
0000
0001
,  // measure 69
0011
0110
2100
3100
,  // measure 70
1100
0000
0000
0110
0000
0000
0011
0000
0000
0101
0000
0100
,  // measure 71
0110
0000
0010
1010
0000
1000
1100
0000
0100
0010
0001
1000
,  // measure 72
0020
0000
0000
0000
,  // measure 73
0030
0000
0000
0000
;

//---------------dance-single - ----------------
#NOTES:
     dance-single:
     :
     Easy:
     4:
     0.280,0.273,0.043,0.000,0.000:
0000
0000
0000
0000
,
0000
0000
0000
0000
,
0000
0000
0000
0000
,
0000
0000
0000
0000
,
1000
0100
0010
0001
,
1000
1000
0001
0001
,
0010
0001
0100
0010
,
1000
1000
0001
0001
,
0010
0001
0100
0000
,
0010
1000
0100
1000
,
0001
0010
0001
0000
,
0100
0010
1000
0000
,
0100
1000
0001
0000
,
0010
0001
1000
0010
,
0100
0001
0010
0000
,
1000
0010
0001
0000
,
0100
0010
1000
0000
,
0100
1000
0001
0010
,
1000
0010
0001
0000
,
0100
0010
1000
0000
,
0100
1000
0001
0000
,
0010
0001
0100
0010
,
1000
0100
0010
0000
,
0001
0100
0010
0110
,
0010
1000
0100
0000
,
0010
0001
0100
0010
,
1000
0001
0010
0000
,
0001
1000
0100
1000
,
0001
0010
0001
0000
,
0100
0010
1000
0010
,
0100
0001
0010
0000
,
1000
0010
0001
0100
,
0010
1000
0100
0000
,
0010
0001
0100
0010
,
1000
0001
0010
0000
,
0001
1000
0100
1000
,
0001
0010
0001
0000
,
0100
0010
1000
0010
,
0100
0001
0010
0000
,
1000
0010
0001
0100
,
0010
0000
0000
0110
,
0010
1000
0001
0010
,
0001
0000
1000
0000
,
0100
1000
0001
0010
,
0001
0000
0100
0000
,
0010
1000
0100
1000
,
0001
0000
0010
0000
,
0110
0000
0000
0000
,
0100
1000
0010
0000
,
1000
0001
0010
0001
,
1000
0010
0100
0000
,
0001
0010
1000
0000
,
0010
0001
0100
0000
,
0010
1000
0100
1000
,
0001
0010
0001
0000
,
1000
0010
0100
0010
,
0110
0100
0001
0000
,
0010
1000
0010
0001
,
0100
0010
1000
0000
,
0100
1000
0001
0000
,
0010
0001
1000
0000
,
0010
0100
0001
0010
,
1000
0010
0001
0000
,
0100
0010
1000
0001
,
1000
0100
0010
0000
,
0001
0100
0010
1000
,
0001
0010
0100
0000
,
1000
0100
0010
0001
,
1000
0010
0100
0000
,
0001
0010
0100
1000
,
0010
0100
0001
0000
,
1001
0000
0000
0000
;

//---------------dance-single - ----------------
#NOTES:
     dance-single:
     :
     Beginner:
     2:
     0.118,0.121,0.034,0.000,0.000:
0000
0000
0000
0000
,
0000
0000
0000
0000
,
0000
0000
0000
0000
,
0000
0000
0000
0000
,
1000
0000
0000
0000
,
0001
0000
0000
0000
,
0010
0000
0000
0000
,
0001
0000
0000
0000
,
0100
0000
0000
0000
,
0010
0000
0010
0000
,
0010
0000
0000
0000
,
1000
0000
1000
0000
,
1000
0000
0000
0000
,
0001
0000
0001
0000
,
0001
0000
0000
0000
,
0100
0000
0100
0000
,
0100
0000
0000
0000
,
0010
0000
0010
0000
,
0010
0000
0000
0000
,
1000
0000
1000
0000
,
1000
0000
0000
0000
,
0001
0000
0001
0000
,
0001
0000
0000
0000
,
1001
0000
0000
0000
,
1000
0000
0000
0000
,
0010
0000
0010
0000
,
0010
0000
0000
0000
,
0100
0000
0100
0000
,
0100
0000
0000
0000
,
0001
0000
0001
0000
,
0001
0000
0000
0000
,
1000
0000
1000
0000
,
1000
0000
0000
0000
,
0010
0000
0010
0000
,
0010
0000
0000
0000
,
0100
0000
0100
0000
,
0100
0000
0000
0000
,
0001
0000
0001
0000
,
0001
0000
0000
0000
,
0010
0000
0010
0000
,
0010
0000
0000
0000
,
0100
0000
0000
0000
,
1000
0000
0000
0000
,
0001
0000
0000
0000
,
0010
0000
0000
0000
,
0001
0000
0000
0000
,
0100
0000
0000
0000
,
1001
0000
0000
0000
,
1000
0000
0000
0000
,
0001
0000
0001
0000
,
0001
0000
0000
0000
,
0100
0000
0100
0000
,
0100
0000
0000
0000
,
0010
0000
0010
0000
,
0010
0000
0000
0000
,
1001
0000
0000
0000
,
1000
0000
0000
0000
,
0010
0000
0010
0000
,
0010
0000
0000
0000
,
0100
0000
0100
0000
,
0100
0000
0000
0000
,
0001
0000
0001
0000
,
0001
0000
0000
0000
,
0010
0000
0010
0000
,
0010
0000
0000
0000
,
0100
0000
0100
0000
,
0100
0000
0000
0000
,
1000
0000
1000
0000
,
1000
0000
0000
0000
,
0001
0000
0001
0000
,
0001
0000
0000
0000
,
1001
0000
0000
0000
;

//---------------dance-single - ----------------
#NOTES:
     dance-single:
     :
     Medium:
     6:
     0.452,0.485,1.000,0.000,0.000:
0000
0000
0000
0000
,
0000
0000
0000
0000
,
0000
0000
0000
0000
,
0000
0000
0000
0000
,
1000
0100
0010
0001
,
1000
1000
0010
0010
,
0100
0001
0010
0001
,
0100
0100
0010
0010
,
1000
0100
0010
0000
,
0011
0101
0110
1010
,
0010
1000
0100
0000
,
1100
0110
0011
0000
,
0001
0100
0010
0000
,
0110
1010
1001
0011
,
0001
0100
0010
0000
,
0110
1010
1100
0000
,
0100
0010
0001
0000
,
0011
0110
1100
1010
,
0010
0100
0001
0000
,
1001
0110
1001
1000
,
0010
0100
0001
0000
,
0011
0110
1100
1000
,
0010
0100
0001
0000
,
1001
0110
1001
1000
,
1010
0110
0101
0000
,
0011
0110
1100
1010
,
0110
0101
1001
0000
,
1100
0110
0011
0101
,
0110
1010
1001
0000
,
1100
0110
0011
0101
,
0110
1010
1001
0000
,
0011
0110
1100
1000
,
1001
0011
0101
0000
,
0110
1010
1100
1010
,
1100
0110
0011
0000
,
0101
0110
1010
1100
,
1001
0011
0101
0000
,
0110
1010
0110
0101
,
0011
0110
1100
0000
,
1001
0101
0110
0010
,
1010
0000
0000
0101
,
0001
0010
0100
1000
,
0010
0100
0001
0010
,
1000
0010
0001
0100
,
0010
0110
0100
0101
,
0001
0011
0010
0110
,
0100
1100
1000
1010
,
0110
0000
0000
0000
,
0100
0001
0010
0000
,
0011
0110
1100
1010
,
0010
0100
0001
0000
,
1001
0110
1001
0000
,
1000
0010
0100
0000
,
0110
0011
0110
1100
,
1000
0100
0010
0001
,
1001
0000
0000
0000
,
1000
0100
0010
0000
,
0011
0101
0110
1010
,
0010
1000
0100
0000
,
1100
0110
0011
0000
,
0001
1000
0010
0000
,
1010
0110
0101
1001
,
1000
0100
0010
0000
,
0011
0101
0110
0010
,
0110
1010
1100
0000
,
1100
0110
0011
0101
,
0110
1010
1001
0000
,
0011
0110
1100
0110
,
0011
0101
0110
0000
,
1010
1100
1001
0011
,
0101
0110
1010
0000
,
1001
0000
0000
0000
;
