#TITLE:SigSig;
#SUBTITLE:;
#ARTIST:kors k;
#TITLETRANSLIT:;
#SUBTITLETRANSLIT:;
#ARTISTTRANSLIT:;
#CREDIT:;
#BANNER:SigSig.png;
#BACKGROUND:SigSig-bg.png;
#LYRICSPATH:;
#CDTITLE:;
#MUSIC:SigSig.mp3;
#OFFSET:-0.075;
#SAMPLESTART:65.725;
#SAMPLELENGTH:16.420;
#SELECTABLE:YES;
#BPMS:0.000=179.000;
#STOPS:195.750=0.335
;
#BGCHANGES:;

//---------------dance-single - ----------------
#NOTES:
     dance-single:
     :
     Hard:
     8:
     0.710,0.688,0.608,0.199,0.050:
0000
0000
0000
0000
,
0000
0000
0000
0000
,
0000
0000
0000
0000
,
0000
0000
0000
0000
,
2000
0000
0001
0000
3100
0000
1000
0020
,
0100
0130
0100
0000
0010
0000
1000
0100
,
0011
0000
0001
0100
1010
0000
1000
0010
,
0100
0100
0001
0001
0010
0010
0100
0100
,
2000
0010
0100
3001
,
1001
0000
1000
0010
0100
0010
1010
0000
,
0101
0000
0001
0010
0100
1000
0001
0010
,
0001
0000
0100
0010
1000
0100
1100
0000
,
0011
0000
0001
0001
1000
1000
0010
0010
,
0110
0000
0100
0001
0010
0100
1100
0000
,
0011
0000
0001
0100
0010
1000
0001
0010
,
0001
0000
1000
0100
0010
0001
0101
0000
,
0110
0000
0010
1000
0100
0100
1000
0000
,
1001
0000
0000
0001
0000
0000
0010
0000
0100
0000
1000
0000
0010
0000
1000
0000
,
0100
0000
0010
0001
0010
0100
1000
0001
,
0010
0000
0000
0001
0000
0000
0100
0000
0010
0000
1000
0000
0100
0000
0010
0000
,
0001
1000
1100
0101
,
0100
0000
0000
0010
0000
0000
1000
0000
0100
0000
0010
0000
0001
0000
1000
0000
,
0010
0000
0100
0010
1000
0010
0100
0001
,
0010
0000
0000
0100
0000
0000
1000
0000
0001
0000
0010
0000
0001
0000
0100
0000
,
0102
1003
1100
0011
,
0101
0000
0000
0100
0000
0000
0010
0000
1000
0000
0100
0000
0010
0000
0001
0000
,
1000
0010
0100
0000
0101
0000
0011
0000
,
0010
0000
0000
0100
0000
1000
0000
0000
0100
0000
0010
0000
0001
0000
0100
0000
,
0020
2030
3002
0103
,
0101
0000
0000
0100
0000
0000
0010
0000
1000
0000
0100
0000
0010
0000
0001
0000
,
1000
0010
0100
0000
0101
0000
1001
0000
,
1000
0000
0000
0010
0000
0100
0000
0000
0010
0000
1000
0000
0100
0000
0010
0000
,
0001
0001
1000
1000
0010
0010
0100
0100
,
0101
0000
0001
0010
0100
0000
1000
0000
,
0020
0230
0320
1030
,
0010
0000
1000
0100
0010
0000
0001
0000
,
2000
0000
3020
0000
0130
0000
0010
1000
,
1100
0000
1000
0100
0010
0000
0001
0000
,
0200
0320
2030
3001
,
1001
0000
1000
0100
0010
0001
1000
0010
,
0200
0302
2003
3001
,
1001
0000
1000
0010
0100
0000
0010
0000
,
2000
0000
3200
0000
0310
0011
0000
0101
,
0101
0000
0100
0010
1000
0000
0001
0000
,
1001
0000
1100
0000
1010
0000
1000
0010
,
0110
0000
0010
1000
0100
1100
0000
0011
,
0011
0000
0001
0000
0100
0000
0010
1000
,
1100
0000
0010
0001
0101
0000
0001
0100
,
0010
0010
1000
1000
0001
0001
0100
0100
,
0001
1000
0010
0000
1000
0000
1010
0000
,
0110
0000
0100
0001
0010
0001
0100
0000
,
0010
1000
0100
0000
0010
0000
0011
0000
,
0101
0000
0100
0010
1000
0010
0100
0000
,
0001
0010
0100
0000
1000
0000
1001
0000
,
0101
0110
1010
1001
,
1000
0100
0010
0001
0100
0010
1000
1000
,
0001
0001
0100
0100
0010
0010
1010
0000
,
0010
1000
0100
0000
1000
0010
0100
0000
,
0001
0010
0100
0000
1000
0000
1001
0000
,
0001
0010
0100
0000
1000
0000
1100
0000
,
0101
0000
1000
0010
0100
0001
1001
0000
,
1000
0010
0100
0101
0000
0011
0011
0000
,
0010
0100
1100
0011
,
0001
0100
0010
1000
0001
0010
0001
0001
,
1000
1000
0010
0010
0100
0100
0101
0100
,
0010
1000
0100
1000
0001
0010
0001
0100
,
0010
1000
0010
0100
0001
0000
1000
0100
,
0010
0001
1000
0010
0100
0001
0010
0001
,
0100
0010
1000
0100
0010
0000
0001
0100
,
0010
1000
0010
0100
0001
0010
0100
1000
,
0100
0010
0001
1000
0010
0000
0100
0001
,
0010
0001
0100
0010
1000
0100
0010
0010
,
0001
0001
0100
0100
0010
0010
1001
0000
;

//---------------dance-single - ----------------
#NOTES:
     dance-single:
     :
     Beginner:
     2:
     0.161,0.181,0.010,0.000,0.000: // measure 1
0000
0000
0000
0000
,  // measure 2
0000
0000
0000
0000
,  // measure 3
0000
0000
0000
0000
,  // measure 4
0000
0000
0000
0000
,  // measure 5
1000
0000
0000
0000
,  // measure 6
0001
0000
0000
0000
,  // measure 7
0100
0000
0100
0000
,  // measure 8
0010
0000
0010
0000
,  // measure 9
1000
0000
0000
0000
,  // measure 10
0001
0000
0001
0000
,  // measure 11
0001
0000
0001
0000
,  // measure 12
1000
0000
1000
0000
,  // measure 13
1000
0000
1000
0000
,  // measure 14
0010
0000
0010
0000
,  // measure 15
0010
0000
0010
0000
,  // measure 16
0100
0000
0100
0000
,  // measure 17
0100
0000
0100
0000
,  // measure 18
0001
0000
0001
0000
,  // measure 19
0001
0000
0001
0000
,  // measure 20
1000
0000
1000
0000
,  // measure 21
1000
0000
1000
0000
,  // measure 22
0100
0000
0100
0000
,  // measure 23
0100
0000
0100
0000
,  // measure 24
0010
0000
0010
0000
,  // measure 25
0010
0000
0010
0000
,  // measure 26
0100
0000
0100
0000
,  // measure 27
1000
0000
1000
0000
,  // measure 28
0001
0000
0001
0000
,  // measure 29
0100
0000
0100
0000
,  // measure 30
0010
0000
0010
0000
,  // measure 31
1000
0000
1000
0000
,  // measure 32
0001
0000
0001
0000
,  // measure 33
0010
0000
0010
0000
,  // measure 34
0001
0000
0000
0000
,  // measure 35
1000
0000
0000
0000
,  // measure 36
0010
0000
0000
0000
,  // measure 37
0100
0000
0000
0000
,  // measure 38
0001
0000
0000
0000
,  // measure 39
1000
0000
0000
0000
,  // measure 40
0100
0000
0000
0000
,  // measure 41
0010
0000
0000
0000
,  // measure 42
0001
0000
0001
0000
,  // measure 43
0001
0000
0001
0000
,  // measure 44
1000
0000
1000
0000
,  // measure 45
1000
0000
1000
0000
,  // measure 46
0010
0000
0010
0000
,  // measure 47
0010
0000
0010
0000
,  // measure 48
0100
0000
0100
0000
,  // measure 49
0100
0000
0100
0000
,  // measure 50
0000
0000
0000
0001
,  // measure 51
0000
0001
0000
0001
,  // measure 52
0000
0000
0000
1000
,  // measure 53
0000
1000
0000
1000
,  // measure 54
0000
0000
0000
0010
,  // measure 55
0000
0010
0000
0010
,  // measure 56
0000
0000
0000
0100
,  // measure 57
0000
0100
0000
0100
,  // measure 58
0000
0000
0000
0001
,  // measure 59
0000
0001
0000
0001
,  // measure 60
0000
0000
0000
1000
,  // measure 61
0000
1000
0000
1000
,  // measure 62
0000
0000
0000
0100
,  // measure 63
0000
0100
0000
0100
,  // measure 64
0000
0000
0000
0010
,  // measure 65
0000
0010
0000
0010
,  // measure 66
0000
0000
0000
0100
,  // measure 67
0000
0000
0000
1000
,  // measure 68
0000
0000
0000
0010
,  // measure 69
0000
0000
0000
0100
,  // measure 70
0000
0000
0000
0001
,  // measure 71
0000
0000
0000
1000
,  // measure 72
0000
0000
0000
0100
,  // measure 73
0000
0100
0000
1001
;

//---------------dance-single - ----------------
#NOTES:
     dance-single:
     :
     Easy:
     4:
     0.353,0.362,0.010,0.050,0.000: // measure 1
0000
0000
0000
0000
,  // measure 2
0000
0000
0000
0000
,  // measure 3
0000
0000
0000
0000
,  // measure 4
0000
0000
0000
0000
,  // measure 5
1000
0100
0010
0001
,  // measure 6
1000
0100
0010
0001
,  // measure 7
1000
1000
0100
0100
,  // measure 8
0010
0010
0001
0001
,  // measure 9
2000
0001
0001
3001
,  // measure 10
1000
0010
1000
0010
,  // measure 11
0100
0010
0100
0010
,  // measure 12
0100
0001
0100
0001
,  // measure 13
0010
0001
0010
0001
,  // measure 14
0010
0100
0010
0100
,  // measure 15
1000
0100
1000
0100
,  // measure 16
1000
0001
1000
0001
,  // measure 17
0200
0300
0010
0010
,  // measure 18
0100
0010
1000
0010
,  // measure 19
0100
0010
1000
0010
,  // measure 20
0100
0001
0010
0001
,  // measure 21
0100
0001
0010
0001
,  // measure 22
0100
0010
1000
0010
,  // measure 23
0100
0001
0010
0001
,  // measure 24
0100
0010
1000
0100
,  // measure 25
0020
0030
0001
0001
,  // measure 26
1000
0100
0001
0100
,  // measure 27
1000
0010
0001
0010
,  // measure 28
1000
0100
0001
0100
,  // measure 29
1000
1000
0001
0001
,  // measure 30
1000
0010
0001
0010
,  // measure 31
1000
0100
0001
0100
,  // measure 32
1000
0010
0001
0010
,  // measure 33
1000
1000
0001
0001
,  // measure 34
1000
0000
0100
0000
,  // measure 35
0010
0000
0001
0000
,  // measure 36
1000
0000
0010
0000
,  // measure 37
0100
0000
0001
0000
,  // measure 38
1000
0000
0100
0000
,  // measure 39
0001
0000
0100
0000
,  // measure 40
1000
0000
0010
0000
,  // measure 41
0001
0000
0010
0000
,  // measure 42
1000
0100
0010
0001
,  // measure 43
0010
0100
1000
0000
,  // measure 44
0001
0100
0010
1000
,  // measure 45
0010
0100
0001
0000
,  // measure 46
1000
0100
0010
0001
,  // measure 47
1000
0010
0100
0001
,  // measure 48
1000
0100
0001
0100
,  // measure 49
1000
0010
0001
0010
,  // measure 50
1000
0100
0010
0001
,  // measure 51
0010
0200
0300
1000
,  // measure 52
0010
0100
0001
0100
,  // measure 53
0010
2000
3000
0001
,  // measure 54
0010
0100
1000
0001
,  // measure 55
0100
0010
1000
0001
,  // measure 56
0010
1000
0010
0001
,  // measure 57
0100
1000
0100
0001
,  // measure 58
0001
0010
0010
0100
,  // measure 59
0100
1000
1000
0010
,  // measure 60
0010
0100
0100
0001
,  // measure 61
1000
0001
1000
0001
,  // measure 62
0001
0010
0010
0100
,  // measure 63
0100
1000
1000
0010
,  // measure 64
0010
0100
0100
0001
,  // measure 65
1000
0001
1000
0001
,  // measure 66
0000
0100
0000
0010
,  // measure 67
0000
1000
0000
0100
,  // measure 68
0000
0010
0000
0001
,  // measure 69
0100
1000
0100
0001
,  // measure 70
0000
0010
0000
0100
,  // measure 71
0000
1000
0000
0010
,  // measure 72
0000
0100
0000
0001
,  // measure 73
0010
0100
1000
1001
;

//---------------dance-single - ----------------
#NOTES:
     dance-single:
     :
     Medium:
     7:
     0.568,0.580,0.548,0.219,0.000: // measure 1
0000
0000
0000
0000
,  // measure 2
0000
0000
0000
0000
,  // measure 3
0000
0000
0000
0000
,  // measure 4
0000
0000
0000
0000
,  // measure 5
1000
0000
0100
0000
0010
0001
0100
0000
,  // measure 6
0010
0000
1000
0000
0100
1000
0010
0000
,  // measure 7
0101
0000
1010
0000
,  // measure 8
1100
0011
0101
1010
,  // measure 9
2001
0100
0100
3100
,  // measure 10
1001
0000
0001
0000
0100
0010
0100
0000
,  // measure 11
0001
0000
0010
0000
0100
1000
0100
0000
,  // measure 12
0010
0000
0001
0000
1000
0010
1000
0000
,  // measure 13
0010
0000
0100
0000
0001
1000
0100
1000
,  // measure 14
0001
0000
1000
0000
0010
0100
0001
0000
,  // measure 15
0100
0000
0010
0000
1000
0100
0010
0000
,  // measure 16
0001
0000
1000
0000
0010
0100
0001
0000
,  // measure 17
2001
0000
0010
3010
,  // measure 18
1001
0000
0001
0000
0100
0010
1000
0000
,  // measure 19
0010
0000
0100
0000
0001
0010
0100
0000
,  // measure 20
1000
0000
0001
0000
0100
0010
1000
0000
,  // measure 21
0010
0000
0100
0000
0001
1000
0100
0000
,  // measure 22
0011
0000
0001
0000
0100
0010
1000
0000
,  // measure 23
0010
0000
0100
0000
0001
1000
0100
0000
,  // measure 24
0010
0000
0001
0000
1000
0010
0100
0000
,  // measure 25
0202
0303
1010
0101
,  // measure 26
0001
0010
0001
0000
0010
1000
0010
0000
,  // measure 27
1000
0100
1000
0000
0101
0000
0011
0000
,  // measure 28
0010
1000
0010
0000
1000
0100
1000
0000
,  // measure 29
0101
0011
1010
1100
,  // measure 30
0100
0001
0100
0000
0001
0010
0001
0000
,  // measure 31
0010
1000
0010
0000
1010
0000
1100
0000
,  // measure 32
0100
0001
0100
0000
0001
0010
0001
0000
,  // measure 33
0011
1010
1100
0101
,  // measure 34
0011
0010
1000
0010
,  // measure 35
0001
0100
0010
0100
,  // measure 36
0001
0010
0100
1000
,  // measure 37
0010
0100
0010
1000
,  // measure 38
1001
0001
0010
0100
,  // measure 39
0010
0001
0100
0010
,  // measure 40
1000
0100
0010
0100
,  // measure 41
1000
0001
0100
0010
,  // measure 42
1001
0000
0001
0100
0001
0000
0100
0000
,  // measure 43
0020
2030
3200
0300
,  // measure 44
1000
0000
0010
0100
0010
0000
0100
0000
,  // measure 45
0002
0023
0230
0300
,  // measure 46
1000
0000
0001
0100
0001
0000
0100
0000
,  // measure 47
0020
2030
3200
0320
,  // measure 48
0031
0000
1000
0000
0010
0100
0010
0100
,  // measure 49
0001
0100
0010
1000
,  // measure 50
0001
0100
0010
0000
1000
0000
1100
0000
,  // measure 51
0011
0202
0303
1000
,  // measure 52
0010
0100
0001
0000
1000
0000
0011
0000
,  // measure 53
1100
0202
0303
1000
,  // measure 54
0010
0100
0001
0000
1000
0000
0011
0000
,  // measure 55
1100
0101
1010
1001
,  // measure 56
1000
0010
0001
0000
0001
0010
2000
0000
,  // measure 57
3200
0000
0320
0000
0032
0000
1003
0010
,  // measure 58
1000
0000
0010
0001
0010
0000
0001
0100
,  // measure 59
0001
0000
0100
1000
0100
0000
1000
0010
,  // measure 60
1000
0000
0010
0001
0010
0000
0001
0100
,  // measure 61
0001
0000
0100
1000
0100
0000
1001
0000
,  // measure 62
0000
0000
0000
1010
0000
0100
0001
0000
,  // measure 63
0000
0000
0000
0000
0000
0001
0010
0000
,  // measure 64
0000
0100
1000
0000
0000
0010
0100
0001
,  // measure 65
0100
0010
1000
0001
1000
0100
0010
0000
,  // measure 66
0011
0001
0101
0100
,  // measure 67
0110
0010
1010
1000
,  // measure 68
1001
0000
0001
0000
0011
0000
0001
0010
,  // measure 69
0100
1000
0001
0100
0010
1000
0100
0000
,  // measure 70
0110
0010
0011
0001
,  // measure 71
0101
0100
0110
0010
,  // measure 72
1010
0000
1000
0000
1001
0000
1000
0100
,  // measure 73
0010
0001
1000
0010
0100
0001
1001
0000
;
