#TITLE:Share The Love;
#SUBTITLE:;
#ARTIST:Brenda Burch;
#TITLETRANSLIT:;
#SUBTITLETRANSLIT:;
#ARTISTTRANSLIT:;
#CREDIT:;
#BANNER:Share The Love.png;
#BACKGROUND:Share The Love-bg.png;
#LYRICSPATH:;
#CDTITLE:./CDTITLES/DanceDanceRevolution 2010.png;
#MUSIC:Share The Love.mp3;
#OFFSET:1.471;
#SAMPLESTART:51.680;
#SAMPLELENGTH:15.000;
#SELECTABLE:YES;
#BPMS:0.000=158.000;
#STOPS:;
#BGCHANGES:;

//---------------dance-single - ----------------
#NOTES:
     dance-single:
     :
     Hard:
     7:
     0.585,0.556,0.490,0.305,0.027: // measure 1
0000
0000
0000
0000
,  // measure 2
0000
0000
0000
0000
,  // measure 3
0000
0000
0000
0000
,  // measure 4
0000
0000
0000
0000
,  // measure 5
0000
0000
0000
0000
,  // measure 6
1000
0000
1100
0000
0110
0000
0010
0002
,  // measure 7
0000
1000
0000
0103
0101
0000
1001
0000
,  // measure 8
1000
0100
0010
0001
1000
0010
0100
0001
,  // measure 9
0000
0000
0101
0000
0000
0000
0110
0000
0000
0000
1010
0000
1000
0000
0100
0001
,  // measure 10
0100
0000
1000
0010
0000
1000
0100
0010
,  // measure 11
0001
0000
0100
0010
0000
1000
0001
0010
,  // measure 12
0001
0000
0100
0010
0000
1000
0100
0010
,  // measure 13
0001
1000
0010
0100
0000
0001
0010
0100
,  // measure 14
1000
0000
0001
0100
0000
0010
1000
0100
,  // measure 15
0000
0010
0001
0100
0000
0010
1000
0000
,  // measure 16
0002
0000
0010
0013
0000
0001
0010
0100
,  // measure 17
1000
0000
0010
0100
0001
0000
1001
0000
,  // measure 18
0102
0000
1000
1003
0000
0001
1000
0010
,  // measure 19
0200
0000
0010
0310
0000
0100
0010
1000
,  // measure 20
0200
0000
1000
1300
0000
0100
0010
0001
,  // measure 21
0100
0010
1000
0001
0000
0010
0001
0100
,  // measure 22
0020
0000
1000
1030
0000
0010
0100
0001
,  // measure 23
0000
0010
0100
1000
0000
0010
1000
0001
,  // measure 24
0200
0000
0001
0301
0000
0100
0010
1000
,  // measure 25
0100
0010
0001
2000
0000
0001
3001
0000
,  // measure 26
1000
0010
0100
0001
0000
0010
0100
1000
,  // measure 27
0000
0010
1000
0100
0000
0010
0001
0100
,  // measure 28
0001
0010
0100
1000
0000
0001
0010
1000
,  // measure 29
0000
0010
0001
0200
0000
0010
0310
0100
,  // measure 30
0010
1000
0100
0001
0000
0100
1000
0010
,  // measure 31
0000
0100
0001
0010
0000
0100
1000
0001
,  // measure 32
0020
0000
0001
0001
0130
0000
1001
0000
,  // measure 33
2000
0000
3020
0000
0230
0000
0301
0001
,  // measure 34
0000
0000
1001
0000
0000
0000
1010
0000
0000
0000
0110
0000
0000
0000
0100
0001
,  // measure 35
0100
0000
0000
0010
0000
0000
1000
0000
1001
0000
0000
0000
0110
0000
0010
0100
,  // measure 36
0010
1000
0100
2000
0000
0001
3001
0000
,  // measure 37
2000
3200
0320
0031
,  // measure 38
0010
0100
1000
0001
0000
0010
0001
0100
,  // measure 39
0020
0000
1000
1000
0130
0000
1001
0000
,  // measure 40
2000
0000
0010
0010
3100
0000
1001
0000
,  // measure 41
0002
0000
0010
0010
0103
0000
1001
0000
,  // measure 42
1000
0000
0010
0100
0001
0010
0100
1000
,  // measure 43
0001
0000
1001
0000
1010
0000
0010
0100
,  // measure 44
0102
0100
1000
0013
,  // measure 45
2001
0010
0100
3001
,  // measure 46
1001
0000
1000
0010
0000
0100
0001
0010
,  // measure 47
0001
1100
1000
0101
,  // measure 48
0001
0000
0100
0010
0000
1000
0100
0000
,  // measure 49
1000
0001
0011
0110
,  // measure 50
1100
0000
1000
0010
0000
0100
0001
0010
,  // measure 51
0000
0000
0100
0000
1000
0000
0001
0000
0000
0000
0010
0000
0001
0000
1000
0010
,  // measure 52
1000
0000
1010
0000
0110
0000
0100
0002
,  // measure 53
0000
0010
0000
1003
1001
0000
1010
0000
,  // measure 54
0010
0000
0110
0000
0101
0000
0001
0020
,  // measure 55
0000
0100
0000
1030
1001
0000
1010
0000
,  // measure 56
1000
0000
1100
0000
0110
0000
0010
0002
,  // measure 57
0000
1000
0000
0103
0101
0000
1001
0000
,  // measure 58
1000
0000
1010
0000
0110
0000
0100
0002
,  // measure 59
0000
1000
0000
0013
0011
0000
0110
0000
,  // measure 60
2100
0000
0001
0002
0000
0000
0000
0000
,  // measure 61
3003
0000
0000
0000
;

//---------------dance-single - ----------------
#NOTES:
     dance-single:
     :
     Beginner:
     1:
     0.118,0.129,0.000,0.000,0.000: // measure 1
0000
0000
0000
0000
,  // measure 2
0000
0000
0000
0000
,  // measure 3
0000
0000
0000
0000
,  // measure 4
0000
0000
0000
0000
,  // measure 5
0000
0000
0000
0000
,  // measure 6
1000
0000
0000
0000
,  // measure 7
0001
0000
0001
0000
,  // measure 8
0001
0000
0000
0000
,  // measure 9
0010
0000
0010
0000
,  // measure 10
0010
0000
0000
0000
,  // measure 11
0100
0000
0000
0000
,  // measure 12
1000
0000
1000
0000
,  // measure 13
1000
0000
0000
0000
,  // measure 14
0010
0000
0000
0000
,  // measure 15
0100
0000
0000
0000
,  // measure 16
0001
0000
0000
0000
,  // measure 17
0010
0000
0010
0000
,  // measure 18
0010
0000
0000
0000
,  // measure 19
0100
0000
0000
0000
,  // measure 20
1000
0000
1000
0000
,  // measure 21
1000
0000
0000
0000
,  // measure 22
0001
0000
0000
0000
,  // measure 23
0100
0000
0000
0000
,  // measure 24
0010
0000
0000
0000
,  // measure 25
1000
0000
1000
0000
,  // measure 26
1000
0000
0000
0000
,  // measure 27
0001
0000
0000
0000
,  // measure 28
0010
0000
0000
0000
,  // measure 29
0100
0000
0100
0000
,  // measure 30
0100
0000
0000
0000
,  // measure 31
1000
0000
0000
0000
,  // measure 32
0010
0000
0000
0000
,  // measure 33
0100
0000
0100
0000
,  // measure 34
0100
0000
0000
0000
,  // measure 35
0001
0000
0001
0000
,  // measure 36
0001
0000
0000
0000
,  // measure 37
0010
0000
0010
0000
,  // measure 38
0010
0000
0000
0000
,  // measure 39
0100
0000
0100
0000
,  // measure 40
0100
0000
0000
0000
,  // measure 41
1000
0000
1000
0000
,  // measure 42
1000
0000
0000
0000
,  // measure 43
0001
0000
0001
0000
,  // measure 44
0001
0000
0000
0000
,  // measure 45
0010
0000
0010
0000
,  // measure 46
0010
0000
0000
0000
,  // measure 47
0100
0000
0100
0000
,  // measure 48
0100
0000
0000
0000
,  // measure 49
1000
0000
1000
0000
,  // measure 50
1000
0000
0000
0000
,  // measure 51
0010
0000
0010
0000
,  // measure 52
0010
0000
0000
0000
,  // measure 53
0100
0000
0100
0000
,  // measure 54
0100
0000
0000
0000
,  // measure 55
0001
0000
0001
0000
,  // measure 56
0001
0000
0000
0000
,  // measure 57
1000
0000
1000
0000
,  // measure 58
1000
0000
0000
0000
,  // measure 59
0010
0000
0010
0000
,  // measure 60
0010
0000
0000
0000
;

//---------------dance-single - ----------------
#NOTES:
     dance-single:
     :
     Easy:
     3:
     0.288,0.289,0.022,0.000,0.000: // measure 1
0000
0000
0000
0000
,  // measure 2
0000
0000
0000
0000
,  // measure 3
0000
0000
0000
0000
,  // measure 4
0000
0000
0000
0000
,  // measure 5
0000
0000
0000
0000
,  // measure 6
1000
0100
0010
0000
,  // measure 7
0001
0100
0010
1000
,  // measure 8
0001
0010
0001
0000
,  // measure 9
1000
0100
1000
0001
,  // measure 10
0010
0000
0001
0100
,  // measure 11
0001
0000
1000
0100
,  // measure 12
1000
0000
0001
0010
,  // measure 13
0001
1000
0010
1000
,  // measure 14
0100
0000
0010
0001
,  // measure 15
0100
0000
0010
1000
,  // measure 16
0001
0000
0010
0001
,  // measure 17
0100
0010
1000
0100
,  // measure 18
0010
0000
0001
0100
,  // measure 19
0010
0000
1000
0100
,  // measure 20
0001
0000
0100
1000
,  // measure 21
0010
0100
0001
0010
,  // measure 22
0001
0000
0100
0010
,  // measure 23
1000
0000
0100
1000
,  // measure 24
0001
0000
0010
0001
,  // measure 25
1000
0010
1000
0010
,  // measure 26
0100
0001
0010
0000
,  // measure 27
0100
1000
0010
0000
,  // measure 28
1000
0010
0100
0001
,  // measure 29
1000
0100
0010
0000
,  // measure 30
0001
0100
1000
0000
,  // measure 31
0001
0010
1000
0000
,  // measure 32
0001
0100
0010
1000
,  // measure 33
0100
0010
0001
1000
,  // measure 34
0000
0001
0001
1000
,  // measure 35
1000
0010
0100
0110
,  // measure 36
0100
0001
0010
0000
,  // measure 37
0100
0100
1000
1000
,  // measure 38
0010
1000
0001
0010
,  // measure 39
0001
0100
0010
0000
,  // measure 40
1000
0000
0100
1000
,  // measure 41
0001
0000
0010
0001
,  // measure 42
0100
0010
1000
0000
,  // measure 43
0100
1000
0001
0010
,  // measure 44
0001
0100
0010
0000
,  // measure 45
1000
0100
0010
0000
,  // measure 46
0001
0100
0010
1000
,  // measure 47
0001
0001
1000
0000
,  // measure 48
0010
1000
0100
0000
,  // measure 49
0010
0001
0100
0000
,  // measure 50
0010
1000
0001
0010
,  // measure 51
0001
0001
1000
1000
,  // measure 52
0010
1000
0100
0000
,  // measure 53
0010
0010
0001
0001
,  // measure 54
0100
0010
1000
0000
,  // measure 55
0001
0001
1000
1000
,  // measure 56
0100
0010
0001
0000
,  // measure 57
0100
0100
0010
0010
,  // measure 58
1000
0100
0010
0000
,  // measure 59
0001
0001
1000
1000
,  // measure 60
1001
0000
0000
0000
;

//---------------dance-single - ----------------
#NOTES:
     dance-single:
     :
     Medium:
     6:
     0.458,0.450,0.381,0.087,0.005: // measure 1
0000
0000
0000
0000
,  // measure 2
0000
0000
0000
0000
,  // measure 3
0000
0000
0000
0000
,  // measure 4
0000
0000
0000
0000
,  // measure 5
0000
0000
0000
0000
,  // measure 6
1000
0000
0100
0000
0010
0000
0001
0010
,  // measure 7
0000
0100
0000
1000
0010
0000
1010
0000
,  // measure 8
0010
0000
0100
0000
0001
0000
0010
0100
,  // measure 9
0000
1100
0000
0011
0000
0101
0000
0100
,  // measure 10
0010
0000
1000
0100
0000
1000
0001
0000
,  // measure 11
0010
0000
0001
0100
0000
0010
1000
0000
,  // measure 12
0100
0000
1000
0001
0000
0010
0001
0000
,  // measure 13
1000
1100
0001
0101
,  // measure 14
1000
0000
0010
0100
0000
0010
1000
0000
,  // measure 15
0100
0000
0010
0001
0000
0010
0100
0000
,  // measure 16
1000
0000
0010
0100
0000
0001
0010
0000
,  // measure 17
0001
0000
1000
0100
1000
0000
1001
0000
,  // measure 18
1000
0000
0010
0100
0000
0010
1000
0000
,  // measure 19
0100
0000
0010
0001
0000
0010
0100
0000
,  // measure 20
1000
0000
0010
0100
0000
0001
0100
0000
,  // measure 21
0010
1010
0010
0011
,  // measure 22
0010
0000
1000
0100
0000
0010
0001
0000
,  // measure 23
0100
0000
0010
1000
0000
0001
0010
0000
,  // measure 24
0001
0000
0100
0010
0000
1000
0010
0000
,  // measure 25
0100
0001
0100
0000
0010
0000
1001
0000
,  // measure 26
1000
0000
0100
0010
0000
0010
0000
0001
,  // measure 27
0000
0001
0000
1000
0000
0010
0100
0000
,  // measure 28
0001
0000
0010
0100
0000
0100
0000
1000
,  // measure 29
0000
1000
0000
0010
0000
0010
0100
0000
,  // measure 30
0001
0000
0010
0100
0000
0100
0000
1000
,  // measure 31
0000
1000
0000
0001
0000
0001
0010
0000
,  // measure 32
0001
0000
0100
0010
1000
0000
1100
0000
,  // measure 33
1000
0100
0010
0001
,  // measure 34
0000
1001
0000
1001
0000
0110
0000
0110
,  // measure 35
1000
0000
0000
0010
0000
0000
0100
0000
0001
0000
0000
0000
1001
0000
0000
0000
,  // measure 36
1000
0000
0010
0000
0100
0010
0100
0000
,  // measure 37
0020
2030
3200
0310
,  // measure 38
0001
0000
1000
0000
0100
1000
0100
0000
,  // measure 39
0010
0000
0001
0100
0001
0000
1001
0000
,  // measure 40
2000
0010
3001
1001
,  // measure 41
0002
0010
1003
1001
,  // measure 42
1000
0000
0010
0100
0001
0000
0010
0100
,  // measure 43
1000
0001
1001
0110
,  // measure 44
2001
0001
0010
3100
,  // measure 45
1002
0010
0100
1003
,  // measure 46
1001
0000
1000
0010
0000
0100
0001
0000
,  // measure 47
0020
0100
1000
0031
,  // measure 48
1001
0000
1000
0010
0000
0100
0010
0000
,  // measure 49
1000
0100
0010
0001
,  // measure 50
1001
0000
1000
0010
0000
0100
0000
0001
,  // measure 51
0000
0010
0001
0010
0000
0100
0000
1000
,  // measure 52
0001
0000
1001
0000
0101
0000
0100
0010
,  // measure 53
0000
1000
0000
0010
0100
0000
0001
0000
,  // measure 54
0010
0000
0011
0000
0110
0000
0100
1000
,  // measure 55
0000
0100
0000
0010
0001
0000
1000
0000
,  // measure 56
0010
0000
1010
0000
0110
0000
0100
0001
,  // measure 57
0000
0010
0000
0001
0100
0000
0010
0000
,  // measure 58
1000
0000
1100
0000
0110
0000
0010
0001
,  // measure 59
0000
1000
0000
0010
0100
0000
0001
0000
,  // measure 60
1001
0000
0000
0000
;
