#TITLE:Scary Monsters And Nice Sprites;
#SUBTITLE:;
#ARTIST:Skrillex;
#TITLETRANSLIT:;
#SUBTITLETRANSLIT:;
#ARTISTTRANSLIT:;
#CREDIT:;
#BANNER:Scary Monsters And Nice Sprites.png;
#BACKGROUND:Scary Monsters And Nice Sprites-bg.png;
#LYRICSPATH:;
#CDTITLE:;
#MUSIC:Scary Monsters And Nice Sprites.mp3;
#OFFSET:-0.157;
#SAMPLESTART:41.265;
#SAMPLELENGTH:15.620;
#SELECTABLE:YES;
#BPMS:0.000=140.000,64.000=70.000,77.500=280.001,79.500=140.000,96.000=280.001,97.000=140.000,128.000=280.001,129.000=140.001,160.000=280.001,161.000=140.000,192.000=280.001,193.000=140.001;
#STOPS:79.500=1.500
,96.000=0.214
,128.000=0.215
,160.000=0.210
,192.000=0.215
;
#BGCHANGES:;

//---------------dance-single - ----------------
#NOTES:
     dance-single:
     :
     Hard:
     8:
     0.663,0.814,0.526,0.423,0.315: // measure 1
0000
0000
0000
0000
,  // measure 2
0000
0000
0000
0000
,  // measure 3
0000
0000
0000
0000
,  // measure 4
0000
0000
0000
0000
,  // measure 5
1000
0100
0001
0100
2000
0000
3001
0010
,  // measure 6
1000
0010
0002
0000
0013
1000
0010
0100
,  // measure 7
1000
0001
0100
0001
1000
0100
1000
0010
,  // measure 8
0100
0000
0001
1000
0000
0001
1000
0000
0001
0000
0100
0000
0010
0000
1000
0000
,  // measure 9
0100
0010
0001
1000
0200
0000
1300
0010
,  // measure 10
0100
0001
2000
0000
3001
0100
0010
1000
,  // measure 11
0100
0001
0100
1000
0010
0100
0001
0010
,  // measure 12
0100
0000
1000
0001
0000
1000
0001
0000
1000
0000
0010
0000
0100
0000
0001
0000
,  // measure 13
0010
0001
0100
0001
0020
0000
0031
0100
,  // measure 14
0010
0100
0002
0000
0103
0010
1000
0100
,  // measure 15
0010
0001
0100
0001
0010
0100
1000
0100
,  // measure 16
0010
0000
0001
0100
0000
0010
1000
0000
0001
0000
0010
0000
0100
0000
1000
0000
,  // measure 17
0002
0000
0000
0000
0000
0000
0000
0000
0000
0000
0000
0000
0000
0000
0000
0000
0000
0000
0000
0000
0000
0000
0000
0000
0000
0000
0000
0000
0000
0000
0000
0000
0000
0000
0000
0000
0000
0000
0000
0000
0000
0000
0000
0000
0000
0000
0000
0000
2003
0000
0000
0000
0000
0000
0000
0000
0000
0000
0000
0000
0000
0000
0000
0000
0000
0000
0000
0000
0000
0000
0000
0000
0000
0000
0000
0000
0000
0000
0000
0000
0000
0000
0000
0000
0000
0000
0000
0000
0000
0000
0000
0000
0000
0000
0000
0000
3010
0000
0000
0000
0000
0000
0000
0000
0000
0000
0000
0000
0000
0000
0000
0000
0000
0000
0000
0000
0000
0000
0000
0000
0100
0000
0000
0000
0000
0000
0000
0000
0000
0000
0000
0000
0001
0000
0000
0000
0000
0000
1000
0000
0000
0000
0000
0000
0001
0000
0000
0000
0000
0000
0000
0000
0000
0000
0000
0000
0100
0000
0000
0000
0000
0000
0000
0000
0000
0000
0000
0000
0010
0000
0000
0000
0000
0000
0000
0000
1000
0000
0000
0000
0000
0000
0000
0000
0001
0000
0000
0000
0000
0000
0000
0000
,  // measure 18
0100
0001
0010
0100
1000
0010
0100
0001
0010
0001
1000
0100
1000
0020
0000
1030
,  // measure 19
0200
0000
0000
0000
0000
0000
0000
0000
0000
0000
0000
0000
0000
0000
0000
0000
0000
0000
0000
0000
0000
0000
0000
0000
0000
0000
0000
0000
0000
0000
0000
0000
0000
0000
0000
0000
0000
0000
0000
0000
0000
0000
0000
0000
0000
0000
0000
0000
0320
0000
0000
0000
0000
0000
0000
0000
0000
0000
0000
0000
0000
0000
0000
0000
0000
0000
0000
0000
0000
0000
0000
0000
0000
0000
0000
0000
0000
0000
0000
0000
0000
0000
0000
0000
0000
0000
0000
0000
0000
0000
0000
0000
0000
0000
0000
0000
0031
0000
0000
0000
0000
0000
0000
0000
0000
0000
0000
0000
0000
0000
0000
0000
0000
0000
0000
0000
0000
0000
0000
0000
1000
0000
0000
0000
0000
0000
0000
0000
0000
0000
0000
0000
0010
0000
0000
0000
0000
0000
0100
0000
0000
0000
0000
0000
0010
0000
0000
0000
0000
0000
0000
0000
0000
0000
0000
0000
0100
0000
0000
0000
0000
0000
0000
0000
0000
0000
0000
0000
0001
0000
0000
0000
0000
0000
0000
0000
0010
0000
0000
0000
0000
0000
0000
0000
0100
0000
0000
0000
0000
0000
0000
0000
,  // measure 20
1000
0001
0100
0001
1000
0100
1000
0000
0001
0000
1000
0000
0001
0000
1000
0000
,  // measure 21
0012
0000
1003
0000
1010
0000
0110
0110
,  // measure 22
0102
0000
0000
1003
0000
1100
1010
0000
0000
0101
0000
0000
,  // measure 23
2010
0000
3001
0000
0011
0000
0110
0110
,  // measure 24
2100
0000
0000
3001
0000
0101
0110
0000
0000
1010
0000
0000
,  // measure 25
1002
0000
0013
0000
0011
0000
0110
0110
,  // measure 26
2100
0000
0000
0000
0000
0000
3001
0000
0000
1000
0000
0000
0010
0000
0100
0000
0001
0000
0100
0000
0000
0000
0010
0000
,  // measure 27
1000
0001
0010
1000
0020
0000
0031
0100
,  // measure 28
1000
0100
0002
0000
0103
0010
1000
0001
,  // measure 29
1002
0000
0103
0000
0101
0000
0110
0110
,  // measure 30
2010
0000
0000
3100
0000
1100
1001
0000
0000
0110
0000
0000
,  // measure 31
2010
0000
3001
0000
0101
0000
0011
0011
,  // measure 32
2100
0000
0000
3010
0000
1010
0110
0000
0000
0101
0000
0000
,  // measure 33
1001
0000
0000
0100
0000
0000
0011
0000
0000
0010
0100
1000
,  // measure 34
0100
0000
0000
0010
0001
0100
0010
1000
0100
1000
0000
0010
,  // measure 35
0100
0001
0010
1000
0020
0000
0031
0100
,  // measure 36
1000
0100
0002
0000
0013
0001
0100
0010
,  // measure 37
2010
0000
3100
0000
0210
0000
0310
0001
,  // measure 38
1001
0000
0000
0000
1000
0000
0010
0000
0110
0000
0100
0000
0001
1000
0001
0000
,  // measure 39
2010
0000
3001
0000
0101
0000
0001
0100
,  // measure 40
0110
0000
0000
0000
0010
0000
1000
0000
1010
0000
1000
0100
0000
0010
0001
0000
,  // measure 41
1001
0000
0010
0000
0110
0000
0100
0001
,  // measure 42
0021
0000
0000
0000
0130
0000
1000
0000
0001
0000
0100
0000
0010
0100
0010
0000
,  // measure 43
0100
0001
0010
1000
0020
0000
0031
0100
,  // measure 44
1000
0100
0002
0000
1003
0100
1000
0010
,  // measure 45
0210
0000
0000
0301
0000
0000
2001
0000
0000
3001
0100
0010
,  // measure 46
2000
0000
0000
3100
0010
0001
0100
0001
0010
0100
0000
1000
,  // measure 47
0002
0000
0000
0103
0000
0000
2010
0000
0000
3100
0010
0001
,  // measure 48
0200
0000
0000
0000
0000
0000
0310
0000
1000
0000
0100
0000
0010
0000
0001
0000
0100
0000
0001
0000
0000
1000
0000
0000
,  // measure 49
1001
0000
0000
1000
0000
0000
2010
0000
0000
3001
0100
0010
,  // measure 50
0200
0000
0000
0301
1000
0100
1000
0010
0100
0001
0000
1000
,  // measure 51
0001
0100
0001
0010
0200
0000
1300
0010
,  // measure 52
0100
0001
2000
0000
3001
0100
1000
0100
,  // measure 53
0001
0010
1000
0010
0001
0100
0010
0100
,  // measure 54
0001
0000
0010
0100
0000
0100
0010
0000
0001
0000
1000
0000
0100
0000
1000
0000
,  // measure 55
0001
0100
0010
1000
0020
0000
0130
0001
,  // measure 56
0010
0100
2000
0000
3100
0010
0001
0100
,  // measure 57
0010
1000
0100
0001
0100
1000
0010
0100
,  // measure 58
0001
0010
0100
1000
2002
0000
3003
0000
;

//---------------dance-single - ----------------
#NOTES:
     dance-single:
     :
     Beginner:
     2:
     0.110,0.162,0.019,0.000,0.000:
0000
0000
0000
0000
,
0000
0000
0000
0000
,
0000
0000
0000
0000
,
0000
0000
0000
0000
,
1000
0000
0000
0000
,
0001
0000
0000
0000
,
0010
0000
0000
0000
,
0001
0000
0001
0000
,
0001
0000
0000
0000
,
1000
0000
0000
0000
,
0010
0000
0000
0000
,
0100
0000
0100
0000
,
0100
0000
0000
0000
,
0001
0000
0000
0000
,
0010
0000
0000
0000
,
0100
0000
0100
0000
,
0100
0000
1000
0000
,
0010
0000
0100
0000
,
0001
0000
0010
0000
,
0100
0000
0000
0000
0000
0000
0000
1001
,
1000
0000
0000
0000
,
0010
0000
0010
0000
,
0010
0000
0000
0000
,
0100
0000
0100
0000
,
0100
0000
0000
0000
,
0001
0000
0001
0000
,
0001
0000
0000
0000
,
0010
0000
0010
0000
,
0010
0000
0000
0000
,
0100
0000
0100
0000
,
0100
0000
0000
0000
,
1000
0000
1000
0000
,
1000
0000
0000
0000
,
0001
0000
0001
0000
,
0001
0000
0000
0000
,
0010
0000
0010
0000
,
0010
0000
0000
0000
,
0100
0000
0100
0000
,
0100
0000
0000
0000
,
1000
0000
1000
0000
,
1000
0000
0000
0000
,
0010
0000
0010
0000
,
0010
0000
0000
0000
,
0100
0000
0100
0000
,
0100
0000
0000
0000
,
0001
0000
0001
0000
,
0001
0000
0000
0000
,
0010
0000
0010
0000
,
0010
0000
0000
0000
,
0100
0000
0100
0000
,
0100
0000
0000
0000
,
1000
0000
1000
0000
,
1000
0000
0000
0000
,
0001
0000
0001
0000
,
0001
0000
0000
0000
,
0010
0000
0010
0000
,
0010
0000
0000
0000
,
0100
0000
1001
0000
;

//---------------dance-single - ----------------
#NOTES:
     dance-single:
     :
     Easy:
     4:
     0.266,0.270,0.009,0.000,0.000:
0000
0000
0000
0000
,
0000
0000
0000
0000
,
0000
0000
0000
0000
,
0000
0000
0000
0000
,
1000
0100
1000
0001
,
0100
0001
1000
0010
,
1000
0100
0010
0001
,
1000
0010
0100
0001
,
1000
0100
1000
0001
,
0100
0001
1000
0010
,
1000
0100
0010
0001
,
1000
0010
0100
0001
,
1000
0010
1000
0001
,
0010
0001
0010
0001
,
0100
0010
1000
0100
,
0010
0001
1000
0010
,
0100
0001
0010
0001
,
0100
0010
1000
0010
,
0100
0001
1000
0100
,
0010
0000
0001
1000
0000
0000
0000
1001
,
1000
0000
0010
0100
,
0001
0100
0010
1000
,
0100
0000
0010
0001
,
0010
0100
1000
0010
,
0100
0000
0001
0010
,
0100
1000
0100
0010
,
0001
0100
0001
1000
,
0100
1000
0001
0010
,
0100
0000
1000
0010
,
0100
0000
0001
0010
,
0100
0000
1000
0010
,
0100
0000
0001
1000
,
0010
0000
1000
0100
,
0010
0001
0010
0100
,
1000
0010
1000
0001
,
0010
0001
1000
0100
,
1000
0000
0001
0010
,
0100
0000
1000
0010
,
0100
0000
0001
0010
,
0100
0000
1000
0001
,
0010
0000
0001
0100
,
0010
1000
0100
0010
,
0001
0100
0001
1000
,
0100
1000
0001
0010
,
0001
0000
0100
0010
,
1000
0000
0100
1000
,
0001
0000
0010
0001
,
0100
0000
0010
1000
,
0100
0000
0010
0001
,
0010
0100
1000
0010
,
0100
0001
0010
0100
,
1000
0010
0100
0001
,
0010
0010
0100
0100
,
1000
1000
0010
0010
,
0100
0001
0010
0100
,
1000
0010
1000
0001
,
0010
0010
0001
0001
,
0100
0100
0010
0000
;

//---------------dance-single - ----------------
#NOTES:
     dance-single:
     :
     Medium:
     6:
     0.450,0.432,0.301,0.000,0.000:
0000
0000
0000
0000
,
0000
0000
0000
0000
,
0000
0000
0000
0000
,
0000
0000
0000
0000
,
1000
0001
0010
0000
0001
0000
0100
0010
,
1000
0000
0010
0000
0100
0001
0010
0000
,
0100
1000
0100
0000
0010
0001
0010
0000
,
0001
0100
0001
0000
1000
0010
1000
0000
,
0001
0010
0100
0000
1100
0000
1000
0010
,
0100
0000
0101
0000
0001
0010
0100
0000
,
1000
0010
1000
0000
0001
0010
0001
0000
,
1000
0100
1000
0000
0001
0100
0001
0000
,
1000
0010
1000
0000
1001
0000
0001
0010
,
0001
0000
1001
0000
1000
0100
1000
0000
,
0010
0100
0010
0000
0100
0001
0100
0000
,
0001
0010
0001
0000
1000
0100
1000
0000
,
0001
0000
1001
0000
1000
0010
0100
0001
,
0010
0100
1000
0100
0010
0001
0100
0010
,
1000
0000
1010
0000
0010
1000
0100
0010
,
0001
1000
0010
0100
0000
0100
0000
1001
,
0110
0000
0100
0000
0101
0000
0001
0010
,
0100
0000
1000
0010
0100
0000
0001
0000
,
1001
0000
1000
0000
1010
0000
0010
1000
,
0100
0000
0010
0001
0100
0000
0010
0000
,
1001
0000
1000
0000
0101
0000
0001
0010
,
0100
0000
1000
0010
0100
0000
0001
0000
,
0010
0001
0100
0001
0010
0000
0100
1000
,
0010
1000
0100
0000
0010
0001
0100
0000
,
0110
0000
0010
0000
1010
0000
1000
0010
,
0100
0000
0001
0010
0100
0000
1000
0000
,
1001
0000
0001
0000
0101
0000
0001
0100
,
0010
0000
1000
0100
0010
0000
0001
0000
,
1001
0000
1000
0000
1010
0000
1000
0010
,
0100
0000
0001
0010
0100
0000
1000
0000
,
0001
0100
0010
0100
0001
0000
0010
0100
,
1000
0100
0010
0000
0001
1000
0010
0000
,
1010
0000
0010
0000
0110
0000
0100
0001
,
1000
0000
0100
1000
0010
0000
0100
0000
,
0101
0000
0001
0000
0011
0000
0001
0010
,
0100
0000
1000
0010
0100
0000
0001
0000
,
1001
0000
0100
0000
1010
0000
1000
0010
,
0100
0000
0001
0010
0100
0000
1000
0000
,
0001
0010
0001
0100
0001
0000
0010
0100
,
1000
0100
0010
0000
0001
1000
0010
0000
,
1010
0000
0010
0000
0110
0000
0100
0001
,
0010
0000
0100
1000
0010
0000
0100
0000
,
0101
0000
0001
0000
0011
0000
0001
0010
,
0100
0000
1000
0010
0100
0000
0001
0000
,
1001
0000
1000
0000
1010
0000
1000
0010
,
0100
0000
0001
0010
0100
0000
1000
0000
,
0100
0010
0001
0010
0100
0000
1000
0010
,
0100
0010
1000
0000
0100
1000
0001
0010
,
0001
1000
0010
0000
1000
0001
0010
0000
,
0001
0100
0010
0000
1000
0100
0001
0000
,
0100
1000
0010
1000
0100
0000
0010
0001
,
0100
0001
0010
0000
0100
1000
0001
0000
,
0010
0001
0100
0000
0010
1000
0100
0000
,
0010
0001
0100
0000
0110
0000
0000
0000
;
