#TITLE:Say Hey (I Love You);
#SUBTITLE:;
#ARTIST:Michael Franti & Spearhead;
#TITLETRANSLIT:;
#SUBTITLETRANSLIT:;
#ARTISTTRANSLIT:;
#CREDIT:;
#BANNER:Say Hey (I Love You).png;
#BACKGROUND:Say Hey (I Love You)-bg.png;
#LYRICSPATH:;
#CDTITLE:;
#MUSIC:Say Hey (I Love You).mp3;
#OFFSET:-0.025;
#SAMPLESTART:4.685;
#SAMPLELENGTH:14.020;
#SELECTABLE:YES;
#BPMS:0.000=186.000;
#STOPS:;
#BGCHANGES:;

//---------------dance-single - ----------------
#NOTES:
     dance-single:
     :
     Hard:
     8:
     0.682,0.693,0.409,0.551,0.000: // measure 1
0000
0000
0000
0000
,  // measure 2
0000
0000
0000
0000
,  // measure 3
0000
0000
0000
0000
,  // measure 4
0000
0000
0000
0000
0000
1000
0001
0000
,  // measure 5
0102
0000
0100
0000
1003
0000
0001
1000
,  // measure 6
0010
0000
0100
0002
0000
1000
1003
0001
,  // measure 7
0200
0000
0320
0000
1030
0000
0001
1000
,  // measure 8
0100
0000
0010
0002
0000
0100
0103
0000
,  // measure 9
0101
0000
0110
0000
1010
0000
1000
0200
,  // measure 10
0000
0320
0000
0032
0000
1000
1003
0001
,  // measure 11
0101
0000
0110
0000
1010
0000
1000
0200
,  // measure 12
0000
0320
0000
0032
0000
1000
1003
0000
,  // measure 13
0001
1000
0010
0200
0000
0010
0310
0000
,  // measure 14
0100
0010
1000
0200
0000
1000
1300
0000
,  // measure 15
1100
0000
1000
0200
0000
0010
0310
0000
,  // measure 16
0011
0000
0001
0200
0000
0010
0310
0000
,  // measure 17
0100
0010
1000
0002
0000
1000
1003
0000
,  // measure 18
0001
0100
0010
2000
0000
0100
3100
0000
,  // measure 19
1100
0000
0100
0020
0000
0001
0031
0000
,  // measure 20
0011
0000
0001
0200
0000
0010
0310
0000
,  // measure 21
0100
0010
0100
0000
0010
1000
0010
0000
,  // measure 22
1000
0000
0001
0020
0000
0001
0031
0000
,  // measure 23
0010
0100
1000
0100
0010
0000
0011
0000
,  // measure 24
0001
0100
0010
1000
0010
0000
0110
0000
,  // measure 25
0100
0001
0010
0001
0200
0000
0301
0000
,  // measure 26
0100
0000
0010
1000
0100
0000
1001
0000
,  // measure 27
1000
0010
0100
0001
1000
0100
0010
0001
,  // measure 28
1000
0000
0010
0100
0001
0000
0101
0000
,  // measure 29
0001
0010
0100
0010
0002
0000
0103
0000
,  // measure 30
0010
1000
0100
1000
0000
0001
0100
0000
,  // measure 31
0010
0000
1000
0100
0001
0100
1000
0000
,  // measure 32
0010
0000
0001
0010
1000
0000
1001
0000
,  // measure 33
1000
0010
0100
0001
0200
0000
0310
0000
,  // measure 34
1000
0100
0010
0002
0000
1000
1003
0000
,  // measure 35
1001
0000
1000
0010
0200
0000
0310
0000
,  // measure 36
0110
0000
1000
0002
0000
0100
0103
0000
,  // measure 37
2010
0000
0010
0000
3001
0000
1000
0001
,  // measure 38
0100
0000
0010
2000
0000
0001
3001
1000
,  // measure 39
0020
0000
0230
0000
0301
0000
1000
0001
,  // measure 40
0010
0000
0100
2000
0000
0010
3010
0000
,  // measure 41
1010
0000
0110
0000
0101
0000
0001
0020
,  // measure 42
0000
0230
0000
2300
0000
0001
3001
1000
,  // measure 43
1010
0000
0110
0000
0101
0000
0001
0020
,  // measure 44
0000
0230
0000
2300
0000
0001
3001
0000
,  // measure 45
1000
0001
0100
0020
0000
0100
0130
0000
,  // measure 46
0010
0100
0001
0020
0000
0001
0031
0000
,  // measure 47
0011
0000
0001
0020
0000
0100
0130
0000
,  // measure 48
1100
0000
1000
0020
0000
0100
0130
0000
,  // measure 49
0010
0100
0001
2000
0000
0001
3001
0000
,  // measure 50
1000
0010
0100
0002
0000
0010
0013
0000
,  // measure 51
0011
0000
0010
0200
0000
1000
1300
0000
,  // measure 52
1100
0000
1000
0020
0000
0100
0130
0000
,  // measure 53
0010
1000
0010
0100
0001
0000
0101
0000
,  // measure 54
0001
0010
0100
2000
0000
0001
3001
0000
,  // measure 55
1001
0000
1000
0010
0100
0000
0010
1000
,  // measure 56
0100
0010
0000
0100
1000
0000
1001
0000
,  // measure 57
0001
0010
0100
0010
0001
0000
0101
0000
,  // measure 58
0100
0010
1000
0200
0000
1000
1300
0000
,  // measure 59
1100
0000
1000
0100
0010
0000
0001
0100
,  // measure 60
0010
1000
0001
1000
0000
0001
0010
0000
,  // measure 61
0001
0010
0100
1000
0100
0000
0011
0000
,  // measure 62
0001
0100
0010
2000
0000
0010
3010
0000
,  // measure 63
1001
0000
1000
0010
0100
0000
0001
0010
,  // measure 64
0100
1000
0000
0001
0010
0000
1010
0000
,  // measure 65
0010
0001
0100
0001
0010
0000
0110
0000
,  // measure 66
0100
1000
0010
0200
0000
0010
0310
0000
,  // measure 67
0110
0000
0010
1000
0100
0000
0010
0001
,  // measure 68
0100
0000
0010
1000
0001
0000
0100
0001
,  // measure 69
1000
0000
0100
1000
0010
0000
0100
0001
,  // measure 70
0010
0000
0100
1000
0001
0000
0010
0001
,  // measure 71
0100
0000
0010
2000
0000
0001
3001
0000
,  // measure 72
0010
0000
0100
2000
0000
0010
3010
0000
,  // measure 73
0100
0000
0001
0020
0000
0001
0031
0000
,  // measure 74
0100
0000
0010
2000
0000
0001
3001
0000
,  // measure 75
2001
0000
0010
0000
,  // measure 76
0001
0000
3100
0000
,  // measure 77
1002
0000
0010
0000
,  // measure 78
0100
0000
1003
0000
,  // measure 79
0210
0000
0010
0000
,  // measure 80
1000
0000
0301
0000
,  // measure 81
2002
0000
0000
0000
,  // measure 82
3003
0000
0000
0000
;

//---------------dance-single - ----------------
#NOTES:
     dance-single:
     :
     Easy:
     4:
     0.362,0.342,0.010,0.162,0.000:
0000
0000
0000
0000
,
0000
0000
0000
0000
,
0000
0000
0000
0000
,
0000
0000
0000
1000
,
2000
0001
3001
1000
,
0010
0100
0001
0000
,
0010
0100
1000
0100
,
0010
0001
0100
0000
,
0010
1000
0100
1000
,
0001
0010
0001
0000
,
0100
0010
1000
0010
,
0100
0001
0010
0000
,
0100
0200
0000
0300
,
0010
0020
0000
0030
,
0001
0002
0000
0003
,
1000
0010
0100
0001
,
0001
0002
0003
1000
,
1000
2000
3000
0010
,
0010
0020
0030
0100
,
0001
0010
0100
0000
,
1000
0100
0010
0001
,
0010
0100
1000
0000
,
0010
1000
0001
0100
,
0001
0010
0100
1000
,
0100
0010
0001
1000
,
0000
0010
1000
0100
,
0010
0001
0100
0010
,
1000
0001
0010
0000
,
0001
0010
0100
1000
,
0100
0010
0001
0000
,
1000
0010
0100
0001
,
0000
0100
0010
0000
,
1000
0100
0010
0001
,
0100
0010
1000
0000
,
0001
0010
0100
1000
,
0100
0010
0001
0001
,
2000
0001
3001
1000
,
0010
0100
0001
0000
,
0010
0100
1000
0100
,
0010
0001
0100
0000
,
0010
1000
0100
1000
,
0001
0010
0001
0000
,
0100
0010
1000
0010
,
0100
0001
0010
0000
,
0100
0200
0000
0300
,
0010
0020
0000
0030
,
0001
0002
0000
0003
,
1000
0010
0100
0001
,
0001
0002
0003
1000
,
1000
2000
3000
0010
,
0010
0020
0030
0100
,
0001
0010
0100
0000
,
1000
0100
0010
0001
,
1000
0010
0100
0001
,
1000
1000
0001
0001
,
0000
1000
0010
0000
,
0100
0001
0010
0100
,
1000
0001
0010
0001
,
0100
0100
0010
0010
,
0000
1000
0100
0000
,
0010
0001
0100
0010
,
1000
0001
0010
0001
,
1000
1000
0001
0001
,
0000
1000
0010
0000
,
0100
0001
0010
0100
,
1000
0100
0010
0001
,
1000
1000
0001
0001
,
0100
0100
0010
0010
,
1000
1000
0100
0100
,
0010
0010
0001
0001
,
0100
0010
0100
0000
,
0010
1000
0010
0000
,
1000
0100
1000
0000
,
0001
0100
0001
0000
,
2000
0000
0001
0000
,
0001
0000
3001
0000
,
0002
0000
1000
0000
,
1000
0000
1003
0000
,
2000
0000
0001
0000
,
0001
0000
3001
0000
,
1001
0000
0000
0000
;

//---------------dance-single - ----------------
#NOTES:
     dance-single:
     :
     Beginner:
     2:
     0.129,0.190,0.010,0.000,0.000:
0000
0000
0000
0000
,
0000
0000
0000
0000
,
0000
0000
0000
0000
,
0000
0000
0000
0000
,
1000
0000
0000
0000
,
0001
0000
0000
0000
,
0010
0000
0010
0000
,
0010
0000
0000
0000
,
0100
0000
0000
0000
,
1000
0000
0000
0000
,
0010
0000
0010
0000
,
0010
0000
0000
0000
,
0100
0000
0000
0000
,
0001
0000
0000
0000
,
1000
0000
0000
0000
,
0001
0000
0001
0000
,
0001
0000
0000
0000
,
0010
0000
0000
0000
,
0100
0000
0000
0000
,
1000
0000
0000
0000
,
0010
0000
0000
0000
,
1000
0000
0000
0000
,
0001
0000
0000
0000
,
0100
0000
0100
0000
,
0100
0000
0000
0000
,
0010
0000
0000
0000
,
1000
0000
0000
0000
,
0100
0000
0100
0000
,
0100
0000
0000
0000
,
1000
0000
0000
0000
,
0001
0000
0000
0000
,
0010
0000
0010
0000
,
0010
0000
0000
0000
,
0001
0000
0000
0000
,
0100
0000
0000
0000
,
0010
0000
0010
0000
,
0010
0000
0000
0000
,
1000
0000
0000
0000
,
0001
0000
0000
0000
,
0100
0000
0100
0000
,
0100
0000
0000
0000
,
0010
0000
0000
0000
,
1000
0000
0000
0000
,
0100
0000
0100
0000
,
0100
0000
0000
0000
,
1000
0000
0000
0000
,
0001
0000
0000
0000
,
0010
0000
0010
0000
,
0010
0000
0000
0000
,
0001
0000
0000
0000
,
0100
0000
0000
0000
,
0010
0000
0000
0000
,
1000
0000
0000
0000
,
0001
0000
0000
0000
,
1000
0000
1000
0000
,
0001
0000
0001
0000
,
0100
0000
0000
0000
,
0010
0000
0000
0000
,
0100
0000
0100
0000
,
0010
0000
0010
0000
,
0100
0000
0000
0000
,
0001
0000
0000
0000
,
1000
0000
1000
0000
,
0010
0000
0010
0000
,
0100
0000
0000
0000
,
0001
0000
0000
0000
,
0010
0000
0010
0000
,
0100
0000
0100
0000
,
1000
0000
1000
0000
,
0001
0000
0001
0000
,
0010
0000
0000
0000
,
0001
0000
0000
0000
,
1000
0000
0000
0000
,
0100
0000
0000
0000
,
1000
0000
0000
0000
,
0000
0000
0000
0000
,
0001
0000
0000
0000
,
0000
0000
0000
0000
,
0010
0000
0000
0000
,
0000
0000
0000
0000
,
1001
0000
0000
0000
;

//---------------dance-single - ----------------
#NOTES:
     dance-single:
     :
     Medium:
     6:
     0.500,0.534,0.133,0.133,0.000:
0000
0000
0000
0000
,
0000
0000
0000
0000
,
0000
0000
0000
0000
,
0000
0000
0000
0000
0000
1000
0001
0000
,
0200
0010
0310
0100
,
0010
0000
1000
0001
0000
1000
0100
0000
,
0010
0001
0100
0001
,
0010
0000
0100
1000
0000
0010
1000
0000
,
0100
0000
0010
0000
0001
0000
1000
0010
,
0000
1000
0000
0001
0000
0010
0001
0000
,
0100
0000
0010
0000
1000
0000
0010
0100
,
0000
0001
0000
1000
0000
0100
0010
0000
,
0002
1000
1000
1003
,
2000
0001
0001
3001
,
1000
0000
0010
0100
0000
0010
0100
0000
,
0001
0000
0010
0100
0000
0010
0100
0000
,
0020
0001
0001
0031
,
0200
0010
0010
0310
,
2000
0100
0100
3100
,
1000
0000
0100
0010
0000
0100
0010
0000
,
0001
0100
0010
1000
,
0001
0000
1000
0100
0000
0000
0010
0000
,
0001
0100
0001
0000
1000
0000
0100
0000
,
1000
0100
1000
0000
0100
0000
0010
0000
,
0001
0000
1000
0001
1000
0000
0010
0000
,
0000
0100
0001
0010
,
0100
1000
0100
0000
0010
0001
0010
0000
,
0011
0001
0101
0000
,
0100
0010
0100
0000
0010
0000
1000
0000
,
0100
0000
0010
0001
0000
0000
1000
0000
,
0001
0000
0100
0010
0100
0000
0010
0000
,
0000
0000
1000
0001
1000
0000
1100
0000
,
0001
0100
0001
0000
1000
0000
0010
0000
,
1000
0000
0100
0010
0000
0000
0001
0000
,
0100
0010
0100
0000
0010
0000
1000
0000
,
0001
0000
1000
0100
0000
0010
0001
0000
,
0200
0010
0310
0100
,
0010
0000
1000
0001
0000
1000
0100
0000
,
0010
0001
0100
0001
,
0010
0000
0100
1000
0000
0010
1000
0000
,
0100
0000
0010
0000
0001
0000
1000
0010
,
0000
1000
0000
0001
0000
0010
0001
0000
,
0100
0000
0010
0000
1000
0000
0010
0100
,
0000
0001
0000
1000
0000
0100
0010
0000
,
0002
1000
1000
1003
,
2000
0001
0001
3001
,
1000
0000
0010
0100
0000
0010
0100
0000
,
0001
0000
0010
0100
0000
0010
0100
0000
,
0020
0001
0001
0031
,
0200
0010
0010
0310
,
2000
0100
0100
3100
,
1000
0000
0100
0010
0000
0100
0010
0000
,
0001
1000
0100
0010
,
0001
0100
0001
0100
0000
0010
1000
0000
,
0100
1000
0010
0100
,
0001
1000
0000
0001
1000
0000
1001
0000
,
1000
0010
0100
0001
,
0010
0100
0010
0100
0000
0010
0100
0000
,
1000
0010
0100
0001
,
1000
0010
0000
1000
0000
0001
0010
0000
,
0001
0100
0010
1000
,
0001
0010
0001
0010
0000
0001
0100
0000
,
0010
1000
0001
0100
,
0010
1000
0000
0100
1000
0000
1001
0000
,
1000
0010
0100
0001
,
1000
0010
1000
0010
0000
1000
0001
0000
,
1001
1000
1010
0010
,
0110
0100
0101
0001
,
0011
0010
0110
0100
,
1100
1000
1010
0010
,
0110
0000
0100
0001
0000
0100
0010
0000
,
1000
0000
0100
1000
0000
0001
0010
0000
,
0001
0000
0100
0010
0000
1000
0010
0000
,
0100
0000
0001
0010
0000
0100
1000
0000
,
0100
1000
0100
0010
,
0001
0100
0010
0000
,
1000
0001
0010
0001
,
0100
0010
1000
0000
,
0100
0200
0000
0300
,
1000
2000
0000
3010
,
0010
0010
0000
0000
;
