#TITLE:SPEEDWAY;
#SUBTITLE:;
#ARTIST:NIKO;
#TITLETRANSLIT:;
#SUBTITLETRANSLIT:;
#ARTISTTRANSLIT:;
#CREDIT:;
#BANNER:SPEEDWAY.png;
#BACKGROUND:SPEEDWAY-bg.png;
#LYRICSPATH:;
#CDTITLE:;
#MUSIC:SPEEDWAY.mp3;
#OFFSET:-0.048;
#SAMPLESTART:47.365;
#SAMPLELENGTH:14.440;
#SELECTABLE:YES;
#BPMS:0.000=157.100;
#STOPS:;
#BGCHANGES:;

//---------------dance-single - ----------------
#NOTES:
     dance-single:
     :
     Hard:
     9:
     0.679,0.680,0.336,0.093,0.492:
0000
0000
0000
0000
,
0000
0000
0000
0000
,
0000
0000
0000
0000
,
0000
0000
0000
0000
,
0000
0000
0000
0000
,
1001
0000
0000
0000
1000
0100
0000
0100
0010
0000
0010
0001
0000
0001
1000
0000
,
0010
0000
0000
0000
1000
0100
0000
0100
0010
0000
0010
0001
0000
0001
0100
0000
,
0010
0000
0000
0000
1000
0001
0000
0001
0010
0000
0010
0001
0000
0001
0100
0000
,
0010
1000
0010
0000
0100
0000
0001
1000
0001
0000
1000
0000
0100
1000
0100
0000
,
0010
0000
0000
0000
0001
0010
0000
0010
0100
0000
0100
1000
0000
1000
0010
0000
,
0100
0000
0000
0000
0001
1000
0000
1000
0100
0000
0100
0010
0000
0010
0001
0000
,
1000
0000
0000
0000
0010
0100
0000
0100
0001
0000
0001
1000
0000
1000
0100
0000
,
0010
0001
0010
0000
0001
0000
0100
0010
0100
0000
0010
0000
1000
0001
1000
0000
,
0001
0100
0010
1000
0010
0100
0001
0000
,
0010
0100
1000
0100
0010
0001
1000
0000
,
0010
1000
0001
0100
0010
0000
1000
0000
,
1001
0000
0000
0000
1000
0000
1000
0100
0000
0100
0010
0000
0001
0000
1000
0000
,
1010
0000
0000
0000
0010
0000
0010
0100
0000
0100
0001
0000
1000
0100
1000
0001
,
1000
0010
0100
0001
0010
1000
0010
0000
,
0001
0100
0010
1000
0100
0001
0100
0000
,
1000
0010
0100
0001
1000
0000
0001
0000
,
1001
0000
0000
0000
1000
0000
1000
0100
0000
0100
0010
0000
0001
0000
1000
0000
,
1010
0000
0000
0000
0010
0000
0010
0100
0000
0100
0001
0000
1000
0001
0100
0000
,
0101
0000
0110
0000
0010
1000
0100
0001
,
0101
0000
1100
0000
1000
0010
0100
0002
,
0000
0203
0000
0310
0000
1000
0100
0001
,
0100
1000
0000
0010
0001
0010
1000
0000
,
1001
0000
0101
0000
0001
0100
0010
1000
,
1010
0000
1100
0000
1000
0100
0010
0002
,
0000
0203
0000
0310
0000
1000
0100
0001
,
0100
1000
0000
2200
0000
0000
3300
0000
,
1001
0000
0001
0100
0010
1000
0100
0000
,
1100
0000
1000
0100
0010
0001
1000
0000
,
1001
0000
0001
0100
0000
0010
1000
0100
,
0000
0000
0001
0000
0100
0000
0000
0000
1000
0001
0000
0001
0100
0010
0000
0010
,
1000
0000
0001
0010
0001
1000
0100
0000
,
1100
0000
1000
0100
0010
0001
0100
0000
,
0110
0000
0010
1000
0100
0000
0010
0001
,
0101
0000
0000
0000
0000
0000
1010
0000
1000
0001
0000
0001
0010
0100
0000
0100
,
1000
0000
0010
0100
0001
0100
0010
0000
,
0110
0000
0010
1000
0001
0010
0001
0000
,
0011
0000
0001
0010
0000
0100
1000
0010
,
0000
0000
0100
0000
0001
0000
0000
0000
1000
0100
0000
0000
0010
0000
0001
0100
,
0001
0000
0100
0010
1000
0100
0001
0000
,
0101
0000
0001
0100
1000
0010
0100
0001
,
0101
0000
0000
0110
0010
1000
0100
0001
,
0101
0000
0000
0000
0000
0000
1100
0000
0000
0100
0000
1000
0010
0100
0000
0001
,
1000
0000
0000
0000
0001
0010
0000
0010
0100
0000
0100
1000
0000
1000
0001
0000
,
0100
0000
0000
0000
0001
0010
0000
0010
0100
0000
0100
1000
0000
1000
0010
0000
,
0100
0000
0000
0000
0001
1000
0000
1000
0100
0000
0100
1000
0000
1000
0010
0000
,
0100
0001
0100
0000
0010
0000
1000
0001
1000
0000
0001
0000
0010
0001
0010
0000
,
0100
0000
0000
0000
1000
0100
0000
0100
0010
0000
0010
0001
0000
0001
0100
0000
,
0010
0000
0000
0000
1000
0001
0000
0001
0010
0000
0010
0100
0000
0100
1000
0000
,
0001
0000
0000
0000
0100
0010
0000
0010
1000
0000
1000
0001
0000
0001
0010
0000
,
0100
1000
0100
0000
1000
0000
0010
0100
0010
0000
0100
0000
0001
1000
0001
0000
,
2002
0000
0000
0000
,
3003
0000
0000
0000
;

//---------------dance-single - ----------------
#NOTES:
     dance-single:
     :
     Beginner:
     1:
     0.111,0.127,0.012,0.000,0.000: // measure 1
0000
0000
0000
0000
,  // measure 2
0000
0000
0000
0000
,  // measure 3
0000
0000
0000
0000
,  // measure 4
0000
0000
0000
0000
,  // measure 5
0000
0000
0000
0000
,  // measure 6
1000
0000
0000
0000
,  // measure 7
0001
0000
0000
0000
,  // measure 8
0010
0000
0000
0000
,  // measure 9
0100
0000
0100
0000
,  // measure 10
0100
0000
0000
0000
,  // measure 11
1000
0000
0000
0000
,  // measure 12
0010
0000
0000
0000
,  // measure 13
0001
0000
0001
0000
,  // measure 14
0001
0000
0000
0000
,  // measure 15
1000
0000
0000
0000
,  // measure 16
0010
0000
0010
0000
,  // measure 17
0010
0000
0000
0000
,  // measure 18
0100
0000
0000
0000
,  // measure 19
0001
0000
0000
0000
,  // measure 20
1000
0000
0000
0000
,  // measure 21
0010
0000
0010
0000
,  // measure 22
0010
0000
0000
0000
,  // measure 23
0100
0000
0000
0000
,  // measure 24
0001
0000
0000
0000
,  // measure 25
1000
0000
0000
0000
,  // measure 26
0001
0000
0001
0000
,  // measure 27
1000
0000
1000
0000
,  // measure 28
0010
0000
0000
0000
,  // measure 29
0100
0000
0000
0000
,  // measure 30
0001
0000
0001
0000
,  // measure 31
0100
0000
0100
0000
,  // measure 32
0010
0000
0000
0000
,  // measure 33
1000
0000
0000
0000
,  // measure 34
0100
0000
0000
0000
,  // measure 35
0010
0000
0010
0000
,  // measure 36
0010
0000
0000
0000
,  // measure 37
0001
0000
0000
0000
,  // measure 38
1000
0000
1000
0000
,  // measure 39
0001
0000
0001
0000
,  // measure 40
1000
0000
0000
0000
,  // measure 41
0010
0000
0000
0000
,  // measure 42
0100
0000
0000
0000
,  // measure 43
0001
0000
0001
0000
,  // measure 44
0001
0000
0000
0000
,  // measure 45
1000
0000
0000
0000
,  // measure 46
0010
0000
0000
0000
,  // measure 47
0100
0000
0100
0000
,  // measure 48
0100
0000
0000
0000
,  // measure 49
0001
0000
0000
0000
,  // measure 50
0010
0000
0000
0000
,  // measure 51
0100
0000
0100
0000
,  // measure 52
0100
0000
0000
0000
,  // measure 53
1000
0000
0000
0000
,  // measure 54
0010
0000
0000
0000
,  // measure 55
0100
0000
0100
0000
,  // measure 56
1001
0000
0000
0000
;

//---------------dance-single - ----------------
#NOTES:
     dance-single:
     :
     Easy:
     4:
     0.314,0.318,0.104,0.012,0.000: // measure 1
0000
0000
0000
0000
,  // measure 2
0000
0000
0000
0000
,  // measure 3
0000
0000
0000
0000
,  // measure 4
0000
0000
0000
0000
,  // measure 5
0000
0000
0000
0000
,  // measure 6
1000
0100
1000
1000
,  // measure 7
0001
0100
0001
0001
,  // measure 8
1000
0010
1000
1000
,  // measure 9
0001
0010
0100
1000
,  // measure 10
0001
0010
0001
0001
,  // measure 11
1000
0010
1000
1000
,  // measure 12
0001
0100
0001
0001
,  // measure 13
1000
0100
0010
0001
,  // measure 14
1000
0010
1000
0001
,  // measure 15
0100
0001
0100
0010
,  // measure 16
1000
0100
0010
0001
,  // measure 17
1001
0000
0000
0000
,  // measure 18
0110
0000
0000
0000
,  // measure 19
1000
0010
0100
0001
,  // measure 20
1000
0100
0010
0001
,  // measure 21
1000
0010
0100
0001
,  // measure 22
1001
0000
0000
0000
,  // measure 23
0110
0000
0000
0000
,  // measure 24
1000
0100
0010
0010
,  // measure 25
0001
0100
0010
0010
,  // measure 26
1000
0100
0010
0001
,  // measure 27
1000
0010
0100
0001
,  // measure 28
1000
0100
0001
0001
,  // measure 29
0100
1000
0010
0010
,  // measure 30
1000
0100
0010
0001
,  // measure 31
0100
0010
2000
3000
,  // measure 32
0001
0100
0001
0001
,  // measure 33
1000
0100
1000
1000
,  // measure 34
0001
0010
1000
0010
,  // measure 35
0001
0001
1000
1000
,  // measure 36
0010
0100
0001
0001
,  // measure 37
0010
0100
1000
1000
,  // measure 38
0001
0000
1001
0000
,  // measure 39
0100
0000
0110
0000
,  // measure 40
0010
1000
0100
0100
,  // measure 41
1000
0010
0100
0100
,  // measure 42
0001
0010
1000
0010
,  // measure 43
0001
0001
1000
1000
,  // measure 44
0010
0100
0001
0001
,  // measure 45
0010
0100
1000
1000
,  // measure 46
0001
0000
1001
0000
,  // measure 47
0010
0000
0110
0000
,  // measure 48
0010
1000
0100
0100
,  // measure 49
0010
0001
0100
0100
,  // measure 50
0010
1000
0001
0001
,  // measure 51
1000
0010
0100
0001
,  // measure 52
1000
0100
0010
0010
,  // measure 53
0001
0100
0010
0010
,  // measure 54
1000
0001
0010
0010
,  // measure 55
0001
0100
0010
1000
,  // measure 56
1001
0000
0000
0000
;

//---------------dance-single - ----------------
#NOTES:
     dance-single:
     :
     Medium:
     6:
     0.422,0.446,0.370,0.012,0.000: // measure 1
0000
0000
0000
0000
,  // measure 2
0000
0000
0000
0000
,  // measure 3
0000
0000
0000
0000
,  // measure 4
0000
0000
0000
0000
,  // measure 5
0000
0000
0000
0000
,  // measure 6
1000
0000
0001
0000
0100
0000
0010
1000
,  // measure 7
0010
0000
0100
0000
0001
0000
1000
0100
,  // measure 8
1000
0000
0100
0000
0010
0000
0001
1000
,  // measure 9
0001
1001
1000
1010
,  // measure 10
0010
0000
0100
0000
0001
0000
0010
0001
,  // measure 11
0010
0000
0001
0000
0100
0000
0010
1000
,  // measure 12
0010
0000
1000
0000
0100
0000
1000
0001
,  // measure 13
1000
1010
0001
0011
,  // measure 14
0001
0000
0010
0000
0100
1000
0100
0000
,  // measure 15
0010
0000
0001
0000
0100
0010
0100
0000
,  // measure 16
1000
0001
0100
0010
,  // measure 17
0110
0000
0000
0000
0000
0000
0000
0100
,  // measure 18
0010
0000
0000
0000
0000
0000
0000
0010
,  // measure 19
1000
0000
0001
0000
0100
0010
0100
0000
,  // measure 20
0010
0000
1000
0000
0100
1000
0100
0000
,  // measure 21
0010
0001
1000
0010
,  // measure 22
0110
0000
0000
0000
0000
0000
0000
0100
,  // measure 23
0001
0000
0000
0000
0001
0010
0001
0000
,  // measure 24
0010
0000
1100
0000
1000
0000
0010
0100
,  // measure 25
0001
0000
0101
0000
0001
0000
0100
0010
,  // measure 26
1000
1000
0001
0001
,  // measure 27
0010
0010
0100
0100
,  // measure 28
1000
0000
1100
0000
1000
0000
0100
0001
,  // measure 29
0100
0000
0101
0000
0001
0000
0100
1000
,  // measure 30
0100
0100
1000
1000
,  // measure 31
0010
0100
0000
0002
0000
0000
0003
0000
,  // measure 32
1001
0000
1000
0000
0010
0100
0001
0000
,  // measure 33
0011
0000
0001
0000
0010
0100
1000
0000
,  // measure 34
1100
0000
1000
0000
0010
0100
0001
0000
,  // measure 35
1000
0100
1000
0000
0001
0100
0001
0000
,  // measure 36
1001
0000
1000
0000
0010
0100
0001
0000
,  // measure 37
0011
0000
0001
0000
0010
0100
1000
0000
,  // measure 38
1001
0000
0110
0000
,  // measure 39
1001
0000
0110
0110
,  // measure 40
1001
0000
1000
0000
0010
0100
0001
0000
,  // measure 41
0010
0000
0100
0000
1000
0001
0010
0000
,  // measure 42
0001
0000
0100
0000
0010
0100
0010
0000
,  // measure 43
1000
0010
1000
0000
0100
1000
0100
0000
,  // measure 44
1001
0000
1000
0000
0010
0100
0001
0000
,  // measure 45
0010
0000
0100
0000
1000
0001
0010
0000
,  // measure 46
0011
0000
1100
0000
,  // measure 47
0101
0000
1010
1010
,  // measure 48
1000
0000
0001
0000
0100
0000
0010
1000
,  // measure 49
0010
0000
0100
0000
0001
0000
1000
0100
,  // measure 50
1000
0000
0100
0000
0010
0000
0001
1000
,  // measure 51
0001
1001
1000
1010
,  // measure 52
0010
0000
0100
0000
0001
0000
0010
0001
,  // measure 53
0010
0000
0001
0000
0100
0000
0010
1000
,  // measure 54
0010
0000
1000
0000
0100
0000
1000
0001
,  // measure 55
1000
1010
0001
0011
,  // measure 56
1001
0000
0000
0000
;
