#TITLE:Party Rock Anthem;
#SUBTITLE:;
#ARTIST:LMFAO;
#TITLETRANSLIT:;
#SUBTITLETRANSLIT:;
#ARTISTTRANSLIT:;
#CREDIT:;
#BANNER:Party Rock Anthem.png;
#BACKGROUND:Party Rock Anthem-bg.png;
#LYRICSPATH:;
#CDTITLE:;
#MUSIC:Party Rock Anthem.mp3;
#OFFSET:-0.060;
#SAMPLESTART:73.865;
#SAMPLELENGTH:12.000;
#SELECTABLE:YES;
#BPMS:0.000=130.000;
#STOPS:30.750=0.462
,91.000=0.923
,192.750=1.846
;
#BGCHANGES:;

//---------------dance-single - ----------------
#NOTES:
     dance-single:
     :
     Hard:
     8:
     0.529,0.523,0.168,0.187,0.257:
0000
0000
0000
0000
,
0000
0000
0000
0000
,
0000
0000
0000
0000
,
0000
0000
0000
0000
,
1000
0000
0000
0100
0000
0000
0010
0000
0001
0000
0100
0000
0010
0000
1000
0000
,
0002
0000
0000
0000
1003
0000
0100
0000
2000
0000
0010
0000
0000
0010
3000
0000
,
1001
0000
1000
0010
0100
0001
0010
0100
,
2000
0000
0000
0000
3000
0000
1000
0010
,
0100
0000
0010
0000
1000
0000
0100
0010
0000
0000
0100
1000
0000
1000
0100
0000
,
0010
0000
0001
0000
1000
0000
0010
0100
0000
0000
0000
0000
0001
0000
0010
0000
,
0100
0000
1000
0000
0010
0000
0100
0001
0000
0000
1000
0010
0000
0010
1000
0000
,
0010
0000
0100
0000
0001
0000
1000
0200
0000
0000
1300
0000
0100
0000
0010
0000
,
0001
0000
0100
0000
0010
0000
1000
0001
0000
0000
1000
0100
0000
0100
1000
0000
,
0100
0000
0010
0000
0001
0000
0100
0010
0000
0000
1000
0000
0001
0000
0100
0000
,
0010
0000
1000
0000
0100
0000
0010
0001
0000
0000
0010
0000
0100
0000
0000
1000
,
0000
0000
0002
0000
0000
0000
1000
0000
0000
1003
0000
0000
0001
0000
0100
0000
,
0010
0000
0000
0000
1000
0000
0100
1000
0000
0000
0000
0000
0001
0100
0001
0000
,
1000
0000
0000
0000
0001
0000
0100
0010
0000
0000
1010
0000
0000
0000
0010
0000
,
0100
0000
0001
0000
0010
0000
0001
1000
0000
0000
0000
0000
0001
0100
0001
0000
,
1000
0000
0100
0000
0010
0000
0001
1000
0000
0000
1010
0000
1000
0000
0001
0000
,
0010
0000
0000
0000
0100
0000
1000
0001
0000
0000
1000
0000
0010
0000
0100
0000
,
0001
0000
1000
0000
0100
0000
0010
0001
0000
0000
1000
0000
1001
0000
0001
0000
,
0010
0000
0000
0000
0000
0000
0000
0000
0100
0000
0000
0000
0000
0000
0000
0000
1000
0000
0000
0000
0000
0000
0000
0000
0001
0000
0000
0000
0100
0000
0000
0000
0000
0000
0000
0000
0000
0000
0000
0000
0001
0000
0000
0000
1000
0000
0000
0000
0001
0001
0000
0000
0000
0000
0000
0000
1000
0000
0000
0000
0010
0000
0000
0000
,
0000
1000
0001
0000
1001
0000
0000
0000
1000
0000
0010
0000
0100
0000
0010
0000
,
1000
0100
0020
0000
0031
0010
0100
1000
,
0001
0100
0010
1000
0100
0000
1100
0000
,
0010
0001
0101
0000
0010
1000
0001
0100
,
0001
0010
0200
0000
1300
0000
1100
0000
,
1000
0100
0010
0001
1000
0010
0000
1000
,
0010
0100
0001
0000
0010
0001
0100
0000
,
0101
2001
0010
0000
,
3010
0000
1010
0000
1000
0010
0100
0001
,
1000
0100
0020
0000
0031
0100
0002
1000
,
0003
1000
0000
0000
0001
0000
0000
0000
0100
0000
0001
0000
0010
0000
0100
0000
,
1000
0000
0010
1000
0100
0000
0020
0001
,
0030
0001
0000
0000
0011
0000
0000
0010
0000
0000
0100
0000
1000
0000
0010
0000
,
0100
0001
2000
0000
3010
0100
0002
1000
,
0003
1000
0000
0000
1001
0000
0000
0000
1000
0000
0010
0000
0100
0000
0001
0000
,
1000
0000
0100
0010
0001
0000
1000
0010
,
0100
0000
0110
0000
0010
1000
0001
0010
,
0001
0100
0020
0000
1030
0100
0020
0001
,
0030
0001
0000
0000
0011
0000
0000
0000
0001
0000
0010
0000
0100
0000
1000
0000
,
0010
0000
1000
0100
0001
0000
0200
1000
,
0300
1000
0000
0000
1100
0000
0000
0100
0000
0000
0010
0000
0001
0000
0100
0000
,
0010
1000
0002
0000
0103
0010
2000
0001
,
3000
0001
0000
0000
1000
0000
0000
0000
0010
0000
0100
0000
0001
0000
0100
0000
,
0010
0000
1000
0000
0001
0000
0000
1000
0000
0000
0020
0000
0000
0000
0030
0000
,
0100
0001
0000
0000
0000
0000
0000
0000
,
0000
0000
0000
0000
1001
0000
1000
0000
0010
0000
0100
0000
0010
0000
1000
0100
,
0000
0000
0100
0010
0000
0010
0100
0000
0010
0000
0001
0000
0100
0000
0010
1000
,
0000
0000
0001
0000
1000
0000
0010
0000
0100
0000
0001
0000
1000
0000
0100
0010
,
0000
0000
0001
0010
0000
0010
0001
0000
0010
0000
0100
0000
1000
0000
0010
0200
,
0001
0000
0300
0000
0101
0000
0001
0000
0100
0000
0010
0000
1000
0000
0100
1000
,
0000
0000
0001
0010
0000
0010
0001
0000
0010
0000
0100
0000
1000
0000
0010
0100
,
0000
0000
0010
0000
1000
0000
0100
0000
0001
0000
0100
0000
1000
0000
0010
0100
,
0000
0000
0001
0010
0000
0010
0001
0000
0100
0000
0010
0000
1000
0000
0001
1000
,
0001
0000
0000
0000
;

//---------------dance-single - ----------------
#NOTES:
     dance-single:
     :
     Beginner:
     1:
     0.093,0.078,0.000,0.000,0.000: // measure 1
0000
0000
0000
0000
,  // measure 2
0000
0000
0000
0000
,  // measure 3
0000
0000
0000
0000
,  // measure 4
0000
0000
0000
0000
,  // measure 5
1000
0000
0000
0000
,  // measure 6
0001
0000
0000
0000
,  // measure 7
0010
0000
0000
0000
,  // measure 8
0001
0000
0000
1000
,  // measure 9
0000
0000
0000
0010
,  // measure 10
0000
0010
0000
0010
,  // measure 11
0000
0000
0000
0100
,  // measure 12
0000
0100
0000
0100
,  // measure 13
0000
0000
0000
0001
,  // measure 14
0000
0001
0000
0001
,  // measure 15
0000
0000
0000
1000
,  // measure 16
0000
1000
0000
1000
,  // measure 17
0000
0000
0000
0001
,  // measure 18
0000
0000
0000
0010
,  // measure 19
0000
0000
0000
0100
,  // measure 20
0000
0100
0000
0100
,  // measure 21
0000
0000
0000
1000
,  // measure 22
0000
0000
0000
0010
,  // measure 23
0000
0000
0000
0100
,  // measure 24
0000
1000
0000
0000
,  // measure 25
0000
0001
0000
0000
,  // measure 26
0000
0100
0000
0100
,  // measure 27
0000
0010
0000
0010
,  // measure 28
0000
1000
0000
0000
,  // measure 29
0000
0001
0000
0000
,  // measure 30
0000
0010
0000
0000
,  // measure 31
0000
0100
0000
0100
,  // measure 32
0000
0100
0000
0000
,  // measure 33
0000
1000
0000
0000
,  // measure 34
0000
0001
0000
0000
,  // measure 35
0000
0010
0000
0010
,  // measure 36
0000
0010
0000
0000
,  // measure 37
0000
0001
0000
0000
,  // measure 38
0000
0100
0000
0000
,  // measure 39
0000
0010
0000
0010
,  // measure 40
0000
0010
0000
0000
,  // measure 41
0000
1000
0000
1000
,  // measure 42
0000
1000
0000
0000
,  // measure 43
0000
0001
0000
0001
,  // measure 44
0000
0001
0000
0000
,  // measure 45
0000
0010
0000
0010
,  // measure 46
0000
0010
0000
0000
,  // measure 47
0000
0100
0000
0100
,  // measure 48
0000
0000
0000
0000
,  // measure 49
0000
1000
0000
0000
,  // measure 50
0000
0001
0000
0001
,  // measure 51
0000
0001
0000
0000
,  // measure 52
0000
0010
0000
0010
,  // measure 53
0000
0010
0000
0000
,  // measure 54
0000
0100
0000
0100
,  // measure 55
0000
0100
0000
0000
,  // measure 56
0000
1000
0000
1000
;

//---------------dance-single - ----------------
#NOTES:
     dance-single:
     :
     Easy:
     3:
     0.255,0.262,0.047,0.000,0.000: // measure 1
0000
0000
0000
0000
,  // measure 2
0000
0000
0000
0000
,  // measure 3
0000
0000
0000
0000
,  // measure 4
0000
0000
0000
0000
,  // measure 5
1000
0001
0010
0001
,  // measure 6
0100
0010
1000
0000
,  // measure 7
0010
0100
0001
0010
,  // measure 8
0100
1000
0001
1000
,  // measure 9
0010
0100
0001
0010
,  // measure 10
0100
1000
0001
1000
,  // measure 11
0010
1000
0100
0010
,  // measure 12
0001
0100
0010
1000
,  // measure 13
0001
0010
1000
0010
,  // measure 14
0001
0100
0010
1000
,  // measure 15
0100
0010
0001
0100
,  // measure 16
0010
1000
0001
1000
,  // measure 17
0000
0001
0100
0001
,  // measure 18
0000
1000
0100
1000
,  // measure 19
0000
0001
0010
0001
,  // measure 20
0000
1000
0010
1000
,  // measure 21
0000
0001
0010
0100
,  // measure 22
0000
1000
0010
0100
,  // measure 23
0000
0001
1000
1001
,  // measure 24
1000
0010
0000
1000
,  // measure 25
0010
0100
0001
1000
,  // measure 26
0100
0010
0001
1000
,  // measure 27
0010
0001
0010
1000
,  // measure 28
0100
0001
0000
0100
,  // measure 29
1000
0010
0100
0001
,  // measure 30
0010
0001
0100
0010
,  // measure 31
1000
0001
0000
1000
,  // measure 32
0000
1001
1000
0010
,  // measure 33
0100
0010
1000
0100
,  // measure 34
0000
0010
0100
1000
,  // measure 35
0010
0100
0001
0010
,  // measure 36
0000
1000
0010
0001
,  // measure 37
0100
0010
1000
0100
,  // measure 38
0000
0010
0001
0100
,  // measure 39
0010
1000
0001
0010
,  // measure 40
0011
0001
0010
0100
,  // measure 41
1000
0010
0100
0001
,  // measure 42
0000
1000
0010
0001
,  // measure 43
0010
1000
0100
0001
,  // measure 44
0000
0100
1000
0010
,  // measure 45
0100
0001
0010
0100
,  // measure 46
0000
1000
0100
0010
,  // measure 47
0001
1000
1000
0001
,  // measure 48
0000
0000
0000
0000
,  // measure 49
0000
1000
0010
0100
,  // measure 50
0001
1000
0100
0010
,  // measure 51
0001
1000
0010
0001
,  // measure 52
0010
1000
0100
0001
,  // measure 53
1001
0001
0100
1000
,  // measure 54
0010
1000
0100
0010
,  // measure 55
0001
0100
0010
1000
,  // measure 56
0001
0010
0001
1000
,  // measure 57
1001
0000
0000
0000
;

//---------------dance-single - ----------------
#NOTES:
     dance-single:
     :
     Medium:
     5:
     0.395,0.393,0.280,0.000,0.019: // measure 1
0000
0000
0000
0000
,  // measure 2
0000
0000
0000
0000
,  // measure 3
0000
0000
0000
0000
,  // measure 4
0000
0000
0000
0000
,  // measure 5
1000
0000
0001
0000
0010
0001
0010
0000
,  // measure 6
0001
0000
0100
0001
0100
0000
0101
0000
,  // measure 7
0100
0000
0010
0000
1000
0010
1000
0000
,  // measure 8
0001
0000
0000
1000
0000
0000
0010
0000
0000
0000
0000
0000
0100
0000
0001
0000
,  // measure 9
0100
0000
0010
0000
1010
0000
1000
0100
,  // measure 10
1000
0001
1000
0000
1001
0000
1000
0010
,  // measure 11
1000
0000
0001
0000
0011
0000
0001
0010
,  // measure 12
0100
0010
0001
0000
0011
0000
0001
0100
,  // measure 13
0001
0000
0100
0000
0110
0000
0010
1000
,  // measure 14
0001
1000
0010
0000
1010
0000
0010
0100
,  // measure 15
0001
0000
0000
0000
0010
0000
0000
0000
0110
0000
0000
0000
0100
0000
0000
1000
,  // measure 16
0000
0000
0001
0000
0000
0000
0010
0000
0000
0001
0000
0000
0100
0000
0000
0000
,  // measure 17
0010
0000
1000
0001
1000
0000
0010
0000
,  // measure 18
0100
0000
0001
0010
0001
0000
0100
0000
,  // measure 19
0010
0000
1000
0100
1000
0000
0001
0010
,  // measure 20
0001
0000
1000
0100
1000
0000
0010
0000
,  // measure 21
0100
0000
0001
1000
0010
0000
1000
0000
,  // measure 22
0100
0000
0010
0001
0100
0000
0010
1000
,  // measure 23
0100
0000
0010
0001
0100
0000
1001
0000
,  // measure 24
1000
0010
0100
0000
0001
0000
0010
0100
,  // measure 25
1000
0000
0100
0000
0010
0000
0001
0100
,  // measure 26
0010
0000
1000
0001
0010
0000
0011
0000
,  // measure 27
0100
0000
1100
0000
1000
0000
0100
0010
,  // measure 28
0001
0100
0010
0000
1000
0000
1001
0000
,  // measure 29
1000
0000
0010
0000
0100
0001
0000
0010
,  // measure 30
0001
0100
0010
0000
1000
0100
0010
0000
,  // measure 31
0001
1000
1001
0000
,  // measure 32
0110
0000
1001
0000
1000
0000
0010
0100
,  // measure 33
0001
0000
0010
0000
0100
1000
0001
0000
,  // measure 34
1001
0000
1000
0000
0010
0000
0100
0001
,  // measure 35
0010
0000
0100
1000
0010
0000
0100
0000
,  // measure 36
0101
0000
0001
0000
0010
0000
0100
1000
,  // measure 37
0001
0000
1000
0000
0010
0100
0001
0000
,  // measure 38
0101
0000
0001
0000
0010
0000
0100
1000
,  // measure 39
0010
0000
0100
0001
0010
0000
0100
1000
,  // measure 40
0001
0000
1001
0000
1000
0000
0010
0100
,  // measure 41
0001
0000
0010
0000
0100
1000
0001
0000
,  // measure 42
1001
0000
1000
0000
0010
0000
0100
0001
,  // measure 43
0010
0000
0100
1000
0010
0000
0100
0000
,  // measure 44
0101
0000
0001
0000
0010
0000
0100
1000
,  // measure 45
0001
1000
0100
0000
1000
0010
0100
0000
,  // measure 46
0110
0000
0010
0000
1000
0000
0100
0010
,  // measure 47
0001
0000
0000
0000
0100
0000
0000
0010
0000
0000
1000
0000
0000
0000
0000
0000
,  // measure 48
0001
1000
0000
0000
0000
0000
0000
0000
,  // measure 49
0000
0000
1000
0010
0100
0000
0001
0000
,  // measure 50
0101
0000
0001
0010
0100
0010
0001
0000
,  // measure 51
0011
0000
0001
0100
0010
0000
1000
0000
,  // measure 52
1001
0000
1000
0100
0010
0001
1000
0000
,  // measure 53
1001
0000
1000
0010
0100
0000
0001
0000
,  // measure 54
0101
0000
0001
0010
0100
1000
0001
0000
,  // measure 55
1001
0000
1000
0010
0100
0000
0001
0000
,  // measure 56
0101
0000
0001
0010
0100
1000
0001
0000
,  // measure 57
1001
0000
0000
0000
;
