#TITLE:One Room Disco;
#SUBTITLE:;
#ARTIST:Perfume;
#TITLETRANSLIT:;
#SUBTITLETRANSLIT:;
#ARTISTTRANSLIT:;
#CREDIT:;
#BANNER:One Room Disco.png;
#BACKGROUND:One Room Disco-bg.png;
#LYRICSPATH:;
#CDTITLE:;
#MUSIC:One Room Disco.mp3;
#OFFSET:-0.042;
#SAMPLESTART:52.045;
#SAMPLELENGTH:16.420;
#SELECTABLE:YES;
#BPMS:0.000=128.010;
#STOPS:;
#BGCHANGES:;

//---------------dance-single - ----------------
#NOTES:
     dance-single:
     :
     Hard:
     7:
     0.483,0.437,0.299,0.196,0.000: // measure 1
0000
0000
0000
0000
,  // measure 2
0000
0000
0000
0000
,  // measure 3
0000
0000
0000
0000
0000
0000
0000
2001
,  // measure 4
0000
0010
3010
0000
1000
0010
0100
0001
,  // measure 5
1000
0100
0001
1000
0010
0001
0000
2001
,  // measure 6
0000
0100
3100
0000
1000
0010
0100
0001
,  // measure 7
1000
0010
0001
1000
0100
0001
1000
0000
,  // measure 8
0020
0100
0130
0002
1000
1003
0001
0000
,  // measure 9
1000
0010
0100
0001
0010
0100
0000
2100
,  // measure 10
0000
0001
3001
0000
1000
0001
0010
0100
,  // measure 11
1000
0010
0100
0001
0010
0100
1000
0000
,  // measure 12
1001
0000
1000
0010
0100
0100
0001
0001
,  // measure 13
1000
1001
0101
0110
,  // measure 14
0010
1000
0100
0010
0000
0001
0100
0001
,  // measure 15
0010
0110
1100
1010
,  // measure 16
1000
0010
0100
0001
0000
0010
0001
0100
,  // measure 17
0010
0110
1010
1100
,  // measure 18
0100
0010
0001
0010
0000
0100
1000
0010
,  // measure 19
0100
0000
0001
1000
0001
0000
1000
0100
,  // measure 20
1000
0002
0000
1003
0000
0001
0101
0000
,  // measure 21
0100
0110
1010
1100
,  // measure 22
1000
0100
0001
0100
0000
1000
0010
0001
,  // measure 23
0010
1010
0110
0101
,  // measure 24
0001
0010
0100
1000
0000
0001
0010
1000
,  // measure 25
0010
0000
0011
0000
0101
0000
0001
1000
,  // measure 26
0010
1000
0100
0001
0000
0100
1000
0010
,  // measure 27
0000
0100
0001
0010
0001
0100
0010
2000
,  // measure 28
0000
0010
0010
0001
3001
0000
1000
0010
,  // measure 29
0100
0000
0101
0001
0010
1000
0010
0002
,  // measure 30
1000
0000
0103
0000
0001
0100
0010
1000
,  // measure 31
0000
0100
1000
0010
0001
0010
0000
1000
,  // measure 32
0010
1000
0100
0000
0010
0001
0100
0001
,  // measure 33
0010
0000
0110
0100
1000
0010
0100
0002
,  // measure 34
1000
0000
0103
0000
0001
0100
0010
1000
,  // measure 35
0000
0100
1000
0010
0001
0010
0000
1000
,  // measure 36
0100
0010
0001
0000
0100
0010
1000
0001
,  // measure 37
0101
0000
0001
0100
0010
1000
0100
2000
,  // measure 38
0010
0000
3001
0000
1000
0010
0100
0001
,  // measure 39
0000
0010
0001
0100
0010
1000
0000
0100
,  // measure 40
0001
0100
1000
0000
0010
0001
0010
1000
,  // measure 41
0100
0000
0110
0010
0001
0100
0010
2000
,  // measure 42
0000
0001
3001
0000
1000
0010
0100
0001
,  // measure 43
0000
0010
1000
0010
0001
0100
0010
2000
,  // measure 44
0000
0000
0010
0000
3001
1000
1001
0000
,  // measure 45
0001
0010
1000
0001
0100
1000
0000
1002
,  // measure 46
0000
0010
0013
0000
0001
0100
0010
1000
,  // measure 47
0001
0100
1000
0001
0010
1000
0001
0000
,  // measure 48
0200
0010
0310
2000
0001
3001
1000
0000
,  // measure 49
0001
0100
0010
1000
0100
0010
0000
0012
,  // measure 50
0000
1000
1003
0000
0001
1000
0100
0010
,  // measure 51
0001
0100
0010
1000
0100
0010
0000
0021
,  // measure 52
0000
0001
0031
0000
0010
0100
1000
0010
,  // measure 53
0220
0000
0000
0000
,  // measure 54
0000
0000
0000
0330
,  // measure 55
2002
0000
0000
0000
,  // measure 56
3003
0000
0000
0000
;

//---------------dance-single - ----------------
#NOTES:
     dance-single:
     :
     Beginner:
     1:
     0.083,0.101,0.000,0.000,0.000: // measure 1
0000
0000
0000
0000
,  // measure 2
0000
0000
0000
0000
,  // measure 3
0000
0000
0000
0000
,  // measure 4
0000
0000
0000
0000
,  // measure 5
1000
0000
0000
0000
,  // measure 6
0001
0000
0000
0000
,  // measure 7
0010
0000
0000
0000
,  // measure 8
0100
0000
0100
0000
,  // measure 9
0100
0000
0000
0000
,  // measure 10
1000
0000
0000
0000
,  // measure 11
0010
0000
0000
0000
,  // measure 12
0100
0000
0100
0000
,  // measure 13
0100
0000
0000
0000
,  // measure 14
0001
0000
0000
0000
,  // measure 15
1000
0000
0000
0000
,  // measure 16
0010
0000
0010
0000
,  // measure 17
0010
0000
0000
0000
,  // measure 18
1000
0000
0000
0000
,  // measure 19
0001
0000
0000
0000
,  // measure 20
0100
0000
0100
0000
,  // measure 21
0100
0000
0000
0000
,  // measure 22
0010
0000
0000
0000
,  // measure 23
1000
0000
0000
0000
,  // measure 24
0001
0000
0001
0000
,  // measure 25
0001
0000
0000
0000
,  // measure 26
1000
0000
0000
0000
,  // measure 27
0010
0000
0000
0000
,  // measure 28
0100
0000
0100
0000
,  // measure 29
0100
0000
0000
0000
,  // measure 30
0001
0000
0000
0000
,  // measure 31
0010
0000
0010
0000
,  // measure 32
0010
0000
0000
0000
,  // measure 33
0100
0000
0000
0000
,  // measure 34
1000
0000
0000
0000
,  // measure 35
0001
0000
0001
0000
,  // measure 36
0001
0000
0000
0000
,  // measure 37
1000
0000
0000
0000
,  // measure 38
0010
0000
0000
0000
,  // measure 39
0100
0000
0100
0000
,  // measure 40
0100
0000
0000
0000
,  // measure 41
0001
0000
0000
0000
,  // measure 42
1000
0000
0000
0000
,  // measure 43
0010
0000
0010
0000
,  // measure 44
0010
0000
0000
0000
,  // measure 45
1000
0000
0000
0000
,  // measure 46
0001
0000
0000
0000
,  // measure 47
0010
0000
0000
0000
,  // measure 48
0001
0000
0001
0000
,  // measure 49
0001
0000
0000
0000
,  // measure 50
1000
0000
0000
0000
,  // measure 51
0010
0000
0000
0000
,  // measure 52
0100
0000
0100
0000
,  // measure 53
0100
0000
0000
0000
,  // measure 54
0000
0000
0000
0000
,  // measure 55
0010
0000
0000
0000
;

//---------------dance-single - ----------------
#NOTES:
     dance-single:
     :
     Easy:
     3:
     0.211,0.257,0.037,0.028,0.000: // measure 1
0000
0000
0000
0000
,  // measure 2
0000
0000
0000
0000
,  // measure 3
0000
0000
0000
0000
,  // measure 4
1000
0010
0100
0001
,  // measure 5
1000
0100
0001
0000
,  // measure 6
1000
0010
0100
0001
,  // measure 7
0010
1000
0010
0000
,  // measure 8
0001
0100
0010
0000
,  // measure 9
1000
0100
0010
0000
,  // measure 10
0001
0100
0010
1000
,  // measure 11
0100
0001
0100
0000
,  // measure 12
1000
0010
0100
0001
,  // measure 13
1000
0000
0010
0000
,  // measure 14
1000
0100
1000
0000
,  // measure 15
0001
0000
0010
0000
,  // measure 16
0001
0100
0001
0000
,  // measure 17
0100
0000
0010
0000
,  // measure 18
1000
0001
1000
0001
,  // measure 19
0100
0000
0010
1000
,  // measure 20
0100
1000
0001
0000
,  // measure 21
1000
0000
0010
0000
,  // measure 22
0100
0001
0100
0000
,  // measure 23
0001
0000
0010
0000
,  // measure 24
0100
1000
0100
0000
,  // measure 25
0010
0000
0001
0000
,  // measure 26
1000
0010
1000
0010
,  // measure 27
0100
0000
0001
0010
,  // measure 28
0001
0010
0100
0000
,  // measure 29
1001
0000
1000
0010
,  // measure 30
0100
0000
0001
0000
,  // measure 31
0010
0100
1000
0100
,  // measure 32
0010
0000
0001
0000
,  // measure 33
0100
0000
0010
1000
,  // measure 34
0100
0000
1000
0000
,  // measure 35
0001
0010
1000
0010
,  // measure 36
0001
0000
0100
0000
,  // measure 37
0110
0000
0010
1000
,  // measure 38
0100
0000
1000
0000
,  // measure 39
0001
0010
1000
0010
,  // measure 40
0001
0000
0100
0000
,  // measure 41
0010
0000
1000
0100
,  // measure 42
0001
0100
0000
1000
,  // measure 43
0010
0001
0010
1000
,  // measure 44
0001
0100
0010
0110
,  // measure 45
1000
0100
0001
0000
,  // measure 46
1000
0010
0100
0001
,  // measure 47
0010
1000
0010
0000
,  // measure 48
0001
0100
0010
0000
,  // measure 49
1000
0100
0010
0000
,  // measure 50
0001
0100
0010
1000
,  // measure 51
0100
0001
0100
0000
,  // measure 52
1000
0010
0100
0001
,  // measure 53
2000
0000
0000
0000
,  // measure 54
0000
0000
3000
0000
,  // measure 55
2002
0000
0000
0000
,  // measure 56
3003
0000
0000
0000
;

//---------------dance-single - ----------------
#NOTES:
     dance-single:
     :
     Medium:
     5:
     0.354,0.334,0.112,0.056,0.000: // measure 1
0000
0000
0000
0000
,  // measure 2
0000
0000
0000
0000
,  // measure 3
0000
0000
0000
0000
0000
0000
0000
1000
,  // measure 4
0000
0001
0010
0000
0001
0100
0001
0100
,  // measure 5
0010
0000
1000
0000
0100
1000
0000
0001
,  // measure 6
0000
0010
1000
0000
0010
0000
0011
0000
,  // measure 7
0001
0000
0100
0000
0010
1000
0010
0000
,  // measure 8
0100
0000
0001
0000
1000
0100
1000
0000
,  // measure 9
0001
0000
0010
0000
1000
0010
0000
0001
,  // measure 10
0000
0100
0010
0000
1000
0000
1001
0000
,  // measure 11
1000
0000
0100
0000
0010
0001
0010
0000
,  // measure 12
0001
0000
0100
0010
0100
0000
0010
0000
,  // measure 13
1001
1000
0010
0100
,  // measure 14
0001
0100
0001
0100
0000
0001
1000
0000
,  // measure 15
0010
1000
0100
0010
,  // measure 16
0001
0010
0001
0010
0000
0100
1000
0000
,  // measure 17
0010
0100
0001
1000
,  // measure 18
0010
1000
0010
1000
0000
0001
0010
0001
,  // measure 19
0010
0000
0001
0100
0001
0000
1000
0100
,  // measure 20
1000
0001
0000
1000
0000
0010
0100
0000
,  // measure 21
0001
0010
0100
1000
,  // measure 22
0010
0100
0010
1000
0000
0010
0100
0000
,  // measure 23
0010
0100
0001
0010
,  // measure 24
0100
1000
0001
1000
0000
0010
1000
0000
,  // measure 25
0001
0010
0100
1000
,  // measure 26
0010
0100
0001
0100
0000
0010
1000
0100
,  // measure 27
0000
0010
0001
0000
0100
0000
0010
1000
,  // measure 28
0000
0001
0010
0000
0001
0000
1001
0000
,  // measure 29
0110
0000
0010
0000
1000
0100
1000
0000
,  // measure 30
0001
0000
0010
0000
0001
0100
0001
0000
,  // measure 31
1000
0000
0010
0000
0100
0001
0100
0001
,  // measure 32
0100
0010
1000
1001
,  // measure 33
1000
0000
0010
0000
0100
0001
0100
0000
,  // measure 34
0001
0000
0010
0000
0100
0010
0100
0000
,  // measure 35
1000
0000
0010
0000
1000
0001
1000
0000
,  // measure 36
0010
0100
0010
0000
1000
0001
1000
0000
,  // measure 37
0110
0000
0010
0000
1000
0100
1000
0000
,  // measure 38
0001
0000
0010
0000
0001
0100
0001
0000
,  // measure 39
1000
0000
0010
0000
0100
0001
0100
0001
,  // measure 40
0100
0010
1000
1001
,  // measure 41
1000
0000
0010
0000
0100
0001
0100
0000
,  // measure 42
0001
0000
0010
0000
0100
0010
0100
0000
,  // measure 43
1000
0000
0010
0000
1000
0001
1000
0000
,  // measure 44
0010
2000
3002
1003
,  // measure 45
0010
0000
1000
0000
0100
1000
0000
0001
,  // measure 46
0000
0010
1000
0000
0010
0000
0011
0000
,  // measure 47
0001
0000
0100
0000
0010
1000
0010
0000
,  // measure 48
0100
0000
0001
0000
1000
0100
1000
0000
,  // measure 49
0001
0000
0010
0000
1000
0010
0000
0001
,  // measure 50
0000
0100
0010
0000
1000
0000
1001
0000
,  // measure 51
1000
0000
0100
0000
0010
0001
0010
0000
,  // measure 52
0001
0000
0100
0010
0100
0000
0010
0000
,  // measure 53
2002
0000
0000
0000
,  // measure 54
0000
0000
3003
0000
,  // measure 55
0220
0000
0000
0000
,  // measure 56
0330
0000
0000
0000
;
