#TITLE:My Revolution;
#SUBTITLE:;
#ARTIST:SHIHORI;
#TITLETRANSLIT:;
#SUBTITLETRANSLIT:;
#ARTISTTRANSLIT:;
#CREDIT:;
#BANNER:My Revolution.png;
#BACKGROUND:My Revolution-bg.png;
#LYRICSPATH:;
#CDTITLE:;
#MUSIC:My Revolution.mp3;
#OFFSET:-0.040;
#SAMPLESTART:75.005;
#SAMPLELENGTH:13.220;
#SELECTABLE:YES;
#BPMS:0.000=144.000;
#STOPS:;
#BGCHANGES:;

//---------------dance-single - ----------------
#NOTES:
     dance-single:
     :
     Hard:
     8:
     0.643,0.623,0.265,0.265,0.229:
0000
0000
0000
0000
,
0000
0000
0000
0000
,
0000
0000
0000
0000
,
0000
0000
0000
0000
,
0001
0000
0100
0000
0010
1000
0000
0000
0100
0000
0010
0001
0000
0000
1000
0000
,
0002
0000
0000
0000
0100
0000
0000
0000
1003
0000
0001
1000
0001
0000
0000
0000
,
0011
0000
0001
0100
0001
0000
1000
0000
0100
0000
0010
0000
0001
0000
0011
0000
,
0000
0101
0202
0000
0303
0000
1010
0000
,
2100
0000
0000
0000
3001
0000
0000
0000
1000
0000
0010
0100
0010
0000
0100
0000
,
0002
0000
0000
0000
0013
0000
0000
0000
0100
0000
0001
0000
0100
0000
0010
1000
,
0020
0000
0000
0000
0130
0000
1000
0001
1000
0000
0001
0000
0010
0000
0100
0000
,
1000
0000
0010
0000
0100
0000
0000
0000
0001
0010
0001
0000
1000
0010
1000
0000
,
0002
0000
0000
0000
1003
0000
0000
0000
0001
0000
0100
0010
0100
0000
0010
0000
,
2000
0000
0000
0000
3100
0000
0000
0000
0100
0001
0000
0001
0100
0000
0010
0000
,
0002
0000
0000
0000
0103
0000
0001
0010
0001
0000
0010
0000
0100
0000
1000
0000
,
0000
0000
0001
0000
0101
0000
0000
0000
1010
0000
0000
0000
0001
1000
0001
1000
,
0001
1000
0010
0000
0100
0000
0110
0000
,
0100
0001
0010
0000
0100
0000
1100
0000
,
2000
0000
3001
1000
0001
1000
0100
0010
,
0001
0000
1000
0000
0010
0000
0100
0001
0100
0000
0010
0000
1000
0000
0001
0000
,
0010
0100
1000
0100
0010
0000
0011
0000
,
0001
0100
0010
1000
0010
0000
0110
0000
,
0200
0001
0010
1300
,
0001
0000
0100
0000
0010
0000
1000
0000
0001
0100
0001
0000
1000
0000
0100
0000
,
0010
0001
0100
0000
0010
0000
1010
0000
,
1000
0100
0010
0000
0001
0000
0101
0000
,
0200
0000
0000
0000
0301
0000
1000
0010
1000
0000
0001
0000
1000
0000
0100
0000
,
0010
0000
0001
0000
0100
0000
0010
1000
0010
0000
0100
0000
0001
0000
1000
0000
,
0100
0010
0001
1000
0100
0000
1100
0000
,
1000
0010
0100
0001
0010
0000
0011
0000
,
0010
0100
1000
0100
0010
0001
0100
0010
,
1000
0001
0000
1000
0001
0000
1000
0000
0010
0100
0000
0010
0100
0000
0010
0000
,
0100
0000
0001
0000
0010
0000
0001
1000
0000
0000
1001
0000
0000
0000
1000
0000
,
0100
0000
0010
0000
0001
0000
0100
0010
0000
0000
1010
0000
1000
0010
1000
0000
,
0001
0000
1000
0000
0100
0000
0010
0001
0000
0000
1000
0000
0010
0000
1000
0000
,
0002
0000
0000
0000
0013
0000
0100
0000
1000
0000
0000
0000
0001
1000
0001
1000
,
0001
0000
0100
0000
0010
0000
1000
0010
0000
0000
0110
0000
0000
0000
0100
0000
,
0001
0000
0010
0000
0100
0000
1000
0001
0000
0000
1001
0000
1000
0010
1000
0000
,
0010
0000
1000
0000
0100
0000
1000
0010
0000
0000
0100
0000
0001
0000
0010
0000
,
0200
0000
0000
0000
1300
0000
0010
0000
0100
0000
0000
0000
0001
1000
0001
1000
,
0001
0000
1000
0000
0010
0000
1000
0001
0000
0000
1001
0000
0000
0000
0001
0000
,
0100
0000
0010
0000
1000
0000
0100
0010
0200
0000
2300
0000
3020
0000
0130
0000
,
0010
0000
1000
0000
0010
0000
0100
0001
0000
0000
1000
0000
0100
0000
0001
0000
,
0100
0000
1000
0010
0200
0000
0301
0000
,
0100
0000
0000
0010
0000
0000
1000
0000
0001
0010
0001
0000
1000
0000
0010
1000
,
0010
0100
0001
0010
0100
1000
0001
0100
,
0002
0000
0000
0000
1003
0000
0010
1000
0010
0000
0000
0000
0101
0000
0000
0000
,
0001
0010
0100
1000
0001
0100
0010
1000
,
0002
0000
1003
0010
0100
0100
0001
0001
,
0010
0001
1000
0100
0001
0100
1000
0010
,
0200
0000
0301
1000
0010
0000
0100
0001
,
0011
0000
0100
1000
1010
0000
0010
0000
,
0200
0000
0000
0000
0301
0000
1000
0000
0010
0000
0100
0000
0001
1000
0001
0000
,
1000
0100
0001
0100
1000
0010
0001
0010
,
2000
0000
0000
0000
3100
0000
0010
0000
0002
0000
0000
0000
0103
0000
0010
1000
,
0010
0100
0001
1000
0100
1000
0001
0010
,
0002
0000
0000
0000
1003
0000
0010
0000
0100
0000
0002
0000
0003
0000
1000
0010
,
1000
0010
0100
0001
0010
0100
1000
0001
,
0200
0000
0301
0010
0100
0000
1000
0010
,
0101
0000
0001
0010
1100
0000
0010
0000
,
0100
0000
0000
0001
0000
0000
0010
0000
0100
0000
1000
0000
0010
1000
0001
1000
,
0100
0010
0001
0100
0010
0000
1000
0100
,
0010
0000
0001
0100
0010
0000
1010
0000
,
0010
0000
0100
0000
0001
0000
0010
0000
0100
0000
1000
0001
1000
0001
1000
0000
,
0011
0000
2020
0000
0000
0000
0000
3030
;

//---------------dance-single - ----------------
#NOTES:
     dance-single:
     :
     Beginner:
     1:
     0.106,0.119,0.000,0.009,0.000:
0000
0000
0000
0000
,
0000
0000
0000
0000
,
0000
0000
0000
0000
,
0000
0000
0000
0000
,
1000
0000
0000
0000
,
0001
0000
0000
0000
,
0010
0000
0000
0000
,
0100
0100
0000
0000
,
1000
0000
0000
0000
,
0001
0000
0000
0000
,
0010
0000
0000
0000
,
0001
0000
0001
0000
,
0001
0000
0000
0000
,
1000
0000
0000
0000
,
0010
0000
0000
0000
,
0100
0000
0100
0000
,
0100
0000
0000
0000
,
0001
0000
0000
0000
,
1000
0000
0000
0000
,
0010
0000
0010
0000
,
0010
0000
0000
0000
,
1000
0000
0000
0000
,
0001
0000
0000
0000
,
0100
0000
0100
0000
,
0100
0000
0000
0000
,
0010
0000
0000
0000
,
1000
0000
0000
0000
,
0001
0000
0001
0000
,
0001
0000
0000
0000
,
0010
0000
0000
0000
,
0100
0000
0000
0000
,
1000
0000
1000
0000
,
1000
0000
0000
0000
,
0001
0000
0000
0000
,
0010
0000
0000
0000
,
0001
0000
0001
0000
,
0001
0000
0000
0000
,
0100
0000
0000
0000
,
0010
0000
0000
0000
,
1000
0000
1000
0000
,
1000
0000
0000
0000
,
0001
0000
0000
0000
,
0010
0000
0000
0000
,
0100
0000
0000
0000
,
1000
0000
1000
0000
,
1000
0000
0000
0000
,
0001
0000
0001
0000
,
0001
0000
0000
0000
,
0010
0000
0010
0000
,
0010
0000
0000
0000
,
0100
0000
0100
0000
,
0100
0000
0000
0000
,
1000
0000
1000
0000
,
1000
0000
0000
0000
,
0010
0000
0010
0000
,
0010
0000
0000
0000
,
0100
0000
0100
0000
,
0100
0000
0000
0000
,
0001
0000
0001
0000
,
0001
0000
0000
0000
,
1000
0000
1000
0000
,
1000
0000
0000
0000
,
0010
0000
0000
0000
,
0100
0000
0000
0000
,
0010
0000
0020
0000
0000
0000
0000
0030
;

//---------------dance-single - ----------------
#NOTES:
     dance-single:
     :
     Easy:
     4:
     0.332,0.326,0.174,0.055,0.000: // measure 1
0000
0000
0000
0000
,  // measure 2
0000
0000
0000
0000
,  // measure 3
0000
0000
0000
0000
,  // measure 4
0000
0000
0000
0000
,  // measure 5
1000
0010
1000
1000
,  // measure 6
0001
0010
0001
0001
,  // measure 7
1000
0010
0100
0001
,  // measure 8
1000
1001
0000
0010
,  // measure 9
2000
0001
3001
1000
,  // measure 10
0020
0100
0130
0010
,  // measure 11
1000
0100
0001
0100
,  // measure 12
1000
0010
0001
0010
,  // measure 13
2000
0001
3001
1000
,  // measure 14
0020
0100
0130
0010
,  // measure 15
1000
0001
0010
0001
,  // measure 16
0100
0010
1000
1001
,  // measure 17
1000
0010
0100
0100
,  // measure 18
0001
0010
0100
0100
,  // measure 19
1000
0010
1000
0001
,  // measure 20
0010
0001
1000
0100
,  // measure 21
1000
0001
0010
0001
,  // measure 22
0100
0010
1000
0010
,  // measure 23
0100
0001
0010
0100
,  // measure 24
1000
0001
0010
0011
,  // measure 25
0001
0010
0100
0100
,  // measure 26
1000
0010
0100
0100
,  // measure 27
0001
1000
0010
1000
,  // measure 28
0001
0010
0001
0100
,  // measure 29
0010
1000
0001
0001
,  // measure 30
1000
0010
0100
0100
,  // measure 31
0001
0010
0100
1000
,  // measure 32
0010
0100
0001
1001
,  // measure 33
1000
0010
1000
1000
,  // measure 34
0001
0010
0001
0001
,  // measure 35
1000
0010
0100
0001
,  // measure 36
0010
0100
1000
1001
,  // measure 37
1000
0010
0100
0100
,  // measure 38
0001
0010
0100
0100
,  // measure 39
1000
0010
0001
0010
,  // measure 40
1000
0100
0001
0101
,  // measure 41
0001
0100
1000
0010
,  // measure 42
1000
0100
0010
0001
,  // measure 43
0100
0010
1000
0001
,  // measure 44
0010
0001
1000
0010
,  // measure 45
0110
0110
1001
0000
,  // measure 46
1000
0010
0100
0001
,  // measure 47
0010
0000
0100
0110
,  // measure 48
0100
1000
0010
0100
,  // measure 49
0001
0000
1000
1001
,  // measure 50
1000
0010
0100
0001
,  // measure 51
0010
0000
0100
1000
,  // measure 52
1100
0000
0101
0000
,  // measure 53
0001
0100
0010
1000
,  // measure 54
1001
1000
0010
0100
,  // measure 55
0001
0000
0010
0110
,  // measure 56
0100
1000
0010
0100
,  // measure 57
0001
0000
1000
1010
,  // measure 58
1000
0010
0100
0001
,  // measure 59
0010
0000
0100
1000
,  // measure 60
1001
0000
0110
0000
,  // measure 61
1000
0010
0100
0001
,  // measure 62
1000
0100
0001
0100
,  // measure 63
1000
0010
0000
0010
,  // measure 64
1000
0010
0100
0001
,  // measure 65
0100
0000
2002
0000
0000
0000
0000
3003
;

//---------------dance-single - Copied from----------------
#NOTES:
     dance-single:
     Copied from:
     Medium:
     6:
     0.459,0.445,0.247,0.037,0.005:
0000
0000
0000
0000
,
0000
0000
0000
0000
,
0000
0000
0000
0000
,
0000
0000
0000
0000
,
1000
0000
0001
0000
0100
0001
0100
0000
,
0010
0000
1000
0000
0001
1000
0001
0000
,
1000
0000
0010
0000
0100
0001
0100
0010
,
0000
1000
0001
0000
0000
0000
1001
0000
,
1000
0000
0010
0000
0100
0001
0100
0000
,
0001
0000
0010
0000
0100
1000
0100
0000
,
0010
0000
0001
0000
1000
0010
1000
0000
,
0001
0010
0001
0000
1000
0100
1000
0000
,
0001
0000
0100
0000
0010
1000
0010
0000
,
0100
0000
0001
0000
1000
0010
1000
0000
,
0100
0000
0010
0000
0001
0100
0001
0000
,
1000
0100
1000
0000
0001
0000
1001
0000
,
1000
0000
0010
0000
0100
0001
0010
0000
,
0100
0000
1000
0000
0010
1000
0001
0000
,
0100
0000
0001
0000
0010
0100
1000
0000
,
0010
1000
0001
0000
0100
0001
1000
0000
,
0010
0000
1000
0100
1000
0000
0101
0000
,
0001
0000
0010
0001
0010
0000
1010
0000
,
1000
0000
0010
0100
0010
0000
1001
0000
,
1000
0010
1000
0000
0001
0010
0001
0000
,
0100
0000
0010
0000
1000
0100
0010
0000
,
0001
0000
0100
0000
0010
1000
0001
0000
,
0100
0000
0001
0000
0010
0100
1000
0000
,
0010
0100
0001
0000
1000
0010
0001
0000
,
0010
0000
1000
0100
0010
0000
0011
0000
,
0001
0000
0100
0010
1000
0000
1010
0000
,
0010
0100
0001
0000
0010
0100
1000
0000
,
0001
1000
0001
0000
0010
0100
0010
0000
,
0001
0000
0100
0010
0100
0000
1010
0000
,
0010
0000
1000
0100
1000
0000
0011
0000
,
0001
0000
0100
0001
0100
0000
0010
1000
,
0010
0000
1000
0100
1000
0000
1001
0000
,
1000
0000
0010
0100
0010
0000
1001
0000
,
1000
0000
0100
0010
0100
0000
1001
0000
,
1000
0000
0010
1000
0010
0000
0100
0001
,
0100
0000
0001
0010
0001
0000
0101
0000
,
0100
0000
0010
1000
0100
0000
1100
0000
,
0010
0000
0001
0100
0010
0000
0110
0000
,
0010
0000
1000
0100
0001
0000
1000
0010
,
0001
0000
1000
0100
0010
0000
0001
0000
,
0100
0000
0000
0010
0000
0000
1000
0000
0002
0000
0000
0000
1003
0000
0000
0000
,
0010
1000
0100
0000
0010
0001
0100
0000
,
0010
0000
1000
0001
0100
0000
0101
0000
,
0001
0010
0100
0000
1000
0010
0100
0000
,
0001
0000
1000
0010
0100
0000
1001
0000
,
1000
0010
0100
0000
0001
0010
0100
0000
,
1000
0000
0001
0010
0100
0000
1000
0000
,
1010
0001
0011
1000
,
1001
0000
1000
0010
0200
0000
0301
0000
,
0100
0010
1000
0000
0010
0100
0001
0000
,
0010
0000
0100
1000
0001
0000
1001
0000
,
1000
0010
0100
0000
0001
0010
0100
0000
,
1000
0000
0001
0010
0100
0000
0110
0000
,
0100
1000
0010
0000
0100
0001
0010
0000
,
0100
0000
1000
0001
0010
0000
0001
0000
,
0101
1000
1100
0001
,
1001
0000
1000
0010
0100
0000
0001
0010
,
0100
1000
0100
1000
0100
0000
0001
0010
,
0001
0000
0100
0001
0100
0000
1010
0000
,
1000
0100
0010
0001
1000
0010
0100
0001
,
1000
0000
2002
0000
0000
0000
0000
3003
;
