#TITLE:Mr. Saxobeat;
#SUBTITLE:;
#ARTIST:Alexandra Stan;
#TITLETRANSLIT:;
#SUBTITLETRANSLIT:;
#ARTISTTRANSLIT:;
#GENRE:;
#CREDIT:Unknown StepMaker;
#MENUCOLOR:;
#BANNER:Mr. Saxobeat.png;
#DISC:Mr. Saxobeat.png;
#BACKGROUND:Mr. Saxobeat-bg.png;
#PREVIEW:Mr. Saxobeat-bg.png;
#LYRICSPATH:;
#CDTITLE:;
#MUSIC:Mr. Saxobeat.mp3;
#SAMPLESTART:86.880;
#SAMPLELENGTH:16.420;
#SELECTABLE:YES;
#SMAVERSION:b3.0;
#ROWSPERBEAT:0=192;
#BEATSPERMEASURE:0=4;
#OFFSET:-0.040;
#BPMS:0.000=127.000;
#STOPS:;
#BGCHANGES:;

//---------------dance-single - ----------------
#ROWSPERBEAT:0=192;
#BEATSPERMEASURE:0=4;
#OFFSET:-0.040;
#BPMS:0.000=127.000;
#STOPS:;
#DELAYS:;
#TICKCOUNT:0.000=2;
#SPEED:0.000=1.000;
#MULTIPLIER:0.000=1;
#FAKES:;
#METERTYPE:DDR;
#ATTACKS:;
#NOTES:
     dance-single:
     :
     Beginner:
     1:
     0.099,0.131,0.000,0.000,0.000:
0000
0000
0000
0000
,
0000
0000
0000
0000
,
0000
0000
0000
0000
,
0000
0000
1000
0000
,
0001
0000
1000
0000
,
0010
0000
1000
0000
,
0001
0000
0010
0000
,
0100
0000
1000
0000
,
0100
0000
1000
0000
,
0100
0000
0010
0000
,
0100
0100
0000
0000
,
0001
0000
1000
0000
,
0100
0000
1000
0000
,
0100
0000
0010
0000
,
0001
0000
0010
0000
,
0100
0000
0000
0000
,
1000
0000
0100
0000
,
1000
0000
0100
0000
,
0010
0000
0100
0000
,
0010
0000
0000
0000
,
1000
0000
0001
0000
,
1000
0000
0100
0000
,
1000
0000
0010
0000
,
0100
0000
0000
0000
,
1000
0000
0001
0000
,
1000
0000
0010
0000
,
0100
0000
1000
0000
,
1000
0000
0000
0000
,
1000
0000
0000
0000
,
0000
0000
0000
0000
,
0000
0000
0000
0000
,
0000
0000
0000
0000
,
0000
0000
0000
0000
,
0000
0000
0000
0000
,
0000
0000
0000
0000
,
0000
0000
0000
0000
,
0000
0000
0000
0000
,
0000
0000
0000
0000
,
0100
0000
0000
0000
,
0010
0000
0000
0000
,
0100
0000
0000
0000
,
0010
0000
0000
0000
,
1000
0000
0000
0100
,
0000
0000
0000
0000
,
0010
0000
0000
0000
,
1000
0000
0100
0000
,
0100
0000
0001
0000
,
0100
0000
1000
0000
,
0100
0000
0001
0000
,
1000
0000
0000
0000
,
0100
0000
0010
0000
,
0100
0000
1000
0000
,
0100
0000
0010
0000
,
0100
0000
1000
0000
,
0100
0000
0010
0000
,
0100
0000
1000
0000
,
0100
0000
0000
0000
,
1000
0000
0000
0000
,
0000
0000
0100
0000
,
1000
0000
0100
0000
,
0010
0000
0000
0000
,
0100
0000
0000
0000
,
1000
0000
0000
0000
;

//---------------dance-single - ----------------
#ROWSPERBEAT:0=192;
#BEATSPERMEASURE:0=4;
#OFFSET:-0.040;
#BPMS:0.000=127.000;
#STOPS:;
#DELAYS:;
#TICKCOUNT:0.000=2;
#SPEED:0.000=1.000;
#MULTIPLIER:0.000=1;
#FAKES:;
#METERTYPE:DDR;
#ATTACKS:;
#NOTES:
     dance-single:
     :
     Easy:
     2:
     0.147,0.235,0.000,0.008,0.000: // measure 1
0000
0000
0000
0000
,  // measure 2
0000
0000
0000
0000
,  // measure 3
0000
0000
0000
0000
,  // measure 4
0000
0000
0100
1000
,  // measure 5
0100
0000
0000
1000
,  // measure 6
0000
0001
0000
1000
,  // measure 7
0000
0001
0000
1000
,  // measure 8
0001
0000
0010
0100
,  // measure 9
1000
0010
0001
1000
,  // measure 10
0001
1000
0100
1000
,  // measure 11
0100
0010
0100
0010
,  // measure 12
0100
0000
1000
0000
,  // measure 13
0001
0000
0000
1000
,  // measure 14
0000
0000
0001
0000
,  // measure 15
1000
0000
0100
0000
,  // measure 16
1000
0000
0100
0000
,  // measure 17
0010
0000
0100
0000
,  // measure 18
1000
0000
0100
0000
,  // measure 19
0010
0000
0100
0000
,  // measure 20
0001
0000
0000
0000
,  // measure 21
1000
0000
0000
0100
,  // measure 22
0000
0000
1000
0000
,  // measure 23
0000
0000
0000
0000
,  // measure 24
0100
0000
1000
0000
,  // measure 25
0001
0000
1000
0000
,  // measure 26
0100
0000
1000
0000
,  // measure 27
0100
0000
1000
0000
,  // measure 28
0100
0000
1000
0100
,  // measure 29
1000
0000
0000
0000
,  // measure 30
0001
0000
0000
0000
,  // measure 31
1000
0000
0000
0000
,  // measure 32
0100
0000
0000
0000
,  // measure 33
1000
0000
0000
0000
,  // measure 34
0100
0000
0000
0000
,  // measure 35
0010
0000
0000
0000
,  // measure 36
0100
0000
0000
0000
,  // measure 37
1000
0000
0000
0000
,  // measure 38
0100
0000
1000
0000
,  // measure 39
0010
0000
0100
0000
,  // measure 40
1000
0000
0001
1000
,  // measure 41
0100
0000
1000
0001
,  // measure 42
0000
1000
0100
0000
,  // measure 43
1000
0000
0010
0100
,  // measure 44
0010
0000
1000
0000
,  // measure 45
0100
0000
0010
0100
,  // measure 46
0020
0000
0000
0000
,  // measure 47
0030
0000
0100
0010
,  // measure 48
0100
1000
0100
0000
,  // measure 49
0010
0000
0100
0000
,  // measure 50
0010
0000
1000
0001
,  // measure 51
1000
0000
0100
0000
,  // measure 52
0010
0000
0100
0000
,  // measure 53
1000
0000
0100
0000
,  // measure 54
1000
0000
0100
0000
,  // measure 55
1000
0000
0100
1000
,  // measure 56
0000
0100
0000
0001
,  // measure 57
0000
1000
0000
0001
,  // measure 58
0000
1000
0001
1000
,  // measure 59
0100
0000
1000
0000
,  // measure 60
0100
0000
0010
0000
,  // measure 61
0100
0000
1000
0100
,  // measure 62
0000
1000
0000
0001
,  // measure 63
1000
0000
0000
0000
;

//---------------dance-single - ----------------
#ROWSPERBEAT:0=192;
#BEATSPERMEASURE:0=4;
#OFFSET:-0.040;
#BPMS:0.000=127.000;
#STOPS:;
#DELAYS:;
#TICKCOUNT:0.000=2;
#SPEED:0.000=1.000;
#MULTIPLIER:0.000=1;
#FAKES:;
#METERTYPE:DDR;
#ATTACKS:;
#NOTES:
     dance-single:
     :
     Medium:
     4:
     0.252,0.288,0.008,0.034,0.000: // measure 1
0000
0000
0000
0000
,  // measure 2
0000
0000
0000
0000
,  // measure 3
0000
0000
0000
0000
,  // measure 4
0000
0000
1000
0001
,  // measure 5
1000
0100
1000
0100
,  // measure 6
0010
0100
0010
0001
,  // measure 7
0010
0100
1000
0100
,  // measure 8
0110
0000
1000
0000
0100
1000
0100
0000
,  // measure 9
0010
0100
0010
1000
,  // measure 10
0100
0000
1000
0000
0001
0010
0001
0000
,  // measure 11
0100
1000
0100
1000
,  // measure 12
0010
0100
0000
0000
0010
0000
0100
0000
,  // measure 13
1000
0100
1000
0100
,  // measure 14
0010
0001
0010
0001
,  // measure 15
0100
0001
0100
0001
,  // measure 16
0010
0000
1000
0100
,  // measure 17
1000
0000
0001
1000
,  // measure 18
0000
0010
0000
1000
,  // measure 19
0000
0001
1000
0001
,  // measure 20
0010
0000
1000
0001
,  // measure 21
1000
0000
0100
1000
,  // measure 22
0100
0010
0100
1000
,  // measure 23
0001
1000
0001
1000
,  // measure 24
0100
0000
0010
1000
,  // measure 25
0010
0000
0100
1000
,  // measure 26
0100
0010
0100
1000
,  // measure 27
0100
0001
0100
1000
,  // measure 28
0100
0000
1000
0100
,  // measure 29
1000
0000
1000
0001
,  // measure 30
1000
0100
1000
0100
,  // measure 31
0010
0000
0100
0000
0010
0001
0010
0000
,  // measure 32
1000
0001
1000
0100
,  // measure 33
1000
0000
0100
0000
1000
0010
0001
0000
,  // measure 34
1000
0100
1000
0100
,  // measure 35
0010
0100
0010
1000
,  // measure 36
0010
1000
0100
0001
,  // measure 37
0100
1000
0100
0001
,  // measure 38
0100
1000
0100
0001
,  // measure 39
0010
0100
1000
0100
,  // measure 40
1000
0010
0100
0010
,  // measure 41
0001
0010
0100
0010
,  // measure 42
0100
1000
0100
1000
,  // measure 43
0100
0000
0001
1000
,  // measure 44
0001
0000
1000
0100
,  // measure 45
1000
0000
0100
0010
,  // measure 46
0200
0320
2030
3200
,  // measure 47
0300
0001
1000
0001
,  // measure 48
0000
0100
0010
1000
,  // measure 49
0000
0001
0100
0010
,  // measure 50
1000
0000
1000
0100
,  // measure 51
1000
0001
0000
1000
,  // measure 52
0000
0001
0000
1000
,  // measure 53
0100
1000
0010
1000
,  // measure 54
0001
0000
1000
0000
,  // measure 55
0001
0000
1000
0000
,  // measure 56
0001
0000
1000
0000
,  // measure 57
0100
1000
0100
0000
,  // measure 58
0010
0000
0000
0000
,  // measure 59
1000
0001
1000
0100
,  // measure 60
1000
0100
0010
0000
,  // measure 61
1000
0000
0001
0000
,  // measure 62
1000
0000
0100
1000
,  // measure 63
0100
0000
0000
0000
;

//---------------dance-single - ----------------
#ROWSPERBEAT:0=192;
#BEATSPERMEASURE:0=4;
#OFFSET:-0.040;
#BPMS:0.000=127.000;
#STOPS:;
#DELAYS:;
#TICKCOUNT:0.000=2;
#SPEED:0.000=1.000;
#MULTIPLIER:0.000=1;
#FAKES:;
#METERTYPE:DDR;
#ATTACKS:;
#NOTES:
     dance-single:
     :
     Hard:
     7:
     0.500,0.444,0.059,0.245,0.569: // measure 1
0000
0000
0000
0000
,  // measure 2
0000
0000
0000
0000
,  // measure 3
0000
0000
0000
0000
,  // measure 4
0000
0000
0000
0000
1000
0100
0010
0001
,  // measure 5
2000
0000
0000
0010
0000
0010
3000
0000
2000
0000
0000
0001
0000
0001
3000
0000
,  // measure 6
0020
0000
0000
0001
0000
0001
0030
0000
0200
0000
0000
0001
0000
0001
0300
0000
,  // measure 7
2000
0000
0000
0010
0000
0010
3000
0000
0200
0000
0000
0001
0000
0001
0300
0000
,  // measure 8
1000
0000
0010
1000
0010
0100
0001
0010
,  // measure 9
0100
1000
0100
1000
0010
1000
0010
1000
,  // measure 10
0010
0100
0010
0100
0001
0100
0001
0100
,  // measure 11
0001
0001
0010
0010
0100
0100
1000
1000
,  // measure 12
0001
1000
0000
0000
0010
0000
0000
0000
1000
0001
0000
0000
0100
0000
0000
0000
,  // measure 13
0010
0000
0000
1000
0000
0100
0000
0000
1000
0000
0000
0010
0000
0100
0000
0000
,  // measure 14
0001
0000
0000
0010
0000
0001
0000
0000
1000
0000
0000
0000
0100
0000
1000
0000
,  // measure 15
0001
0000
0000
0010
0000
0001
0000
0000
0100
0000
0000
0010
0000
1000
0000
0000
,  // measure 16
0100
0000
0110
0000
0010
0001
1000
0010
,  // measure 17
0100
0000
0000
0001
0000
0010
0000
0000
0001
0000
0000
0100
0000
0010
0000
0000
,  // measure 18
1000
0000
0000
0010
0000
0100
0000
0000
0001
0000
0000
0000
0010
0000
0100
0000
,  // measure 19
1000
0000
0000
0010
0000
1000
0000
0000
0001
0000
0000
0010
0000
0001
0000
0000
,  // measure 20
1000
0000
1001
0000
1000
0100
0001
0100
,  // measure 21
1000
0000
0000
0010
0000
0100
0000
0000
0001
0000
0000
0010
0000
0100
0000
0000
,  // measure 22
1000
0000
0000
0010
0000
1000
0000
0000
0001
0000
0000
0000
0100
0000
0001
0000
,  // measure 23
0010
0000
0000
0100
0000
1000
0000
0000
0001
0000
0000
0010
0000
0001
0000
0000
,  // measure 24
1000
0000
1001
0000
0001
0010
0100
1000
,  // measure 25
0010
0000
0000
0100
0000
0001
0000
0000
0100
0000
0000
1000
0000
0100
0000
0000
,  // measure 26
0001
0000
0000
0010
0000
0100
0000
0000
1000
0000
0000
0000
0100
0000
0010
0000
,  // measure 27
0001
0000
0000
1000
0000
0010
0000
0000
1000
0000
0000
0001
0000
0010
0000
0000
,  // measure 28
0001
0000
1001
0000
1000
0100
0010
0001
,  // measure 29
2000
0000
0000
0000
3002
0010
0010
0013
,  // measure 30
0011
0000
0010
0000
0100
0000
0000
1000
0000
0010
0000
1000
0000
0000
0100
0000
,  // measure 31
0010
0000
0001
0000
1000
0000
0000
0010
0000
1000
0000
0010
0000
0000
0100
0000
,  // measure 32
0001
0000
0010
0000
0100
0000
1000
0000
0010
0000
0000
0100
0000
0000
0001
0000
,  // measure 33
0100
0000
0010
0000
1000
0000
0100
0000
0001
0000
0000
0100
0000
0000
1000
0000
,  // measure 34
0010
0000
0100
0000
0001
0000
0000
0010
0000
0100
0000
0010
0000
0000
0100
0000
,  // measure 35
1000
0000
0010
0000
1000
0000
0000
0001
0000
0010
0000
0100
0000
0000
1000
0000
,  // measure 36
0010
0000
1000
0000
0001
0000
0100
0000
0001
0000
0000
0010
0000
0000
0100
0000
,  // measure 37
1000
0000
0001
0000
0010
0000
0001
0000
1000
0000
0000
0010
0000
0000
1000
0000
,  // measure 38
0001
0000
0010
0000
0100
0000
1000
0000
0020
0000
0000
0100
0000
0100
0000
0100
,  // measure 39
0030
0000
0100
0000
0001
0000
0010
0000
0200
0000
0000
1000
0000
1000
0000
1000
,  // measure 40
0300
0000
1000
0000
0010
0000
0100
0000
0002
0000
0000
0010
0000
0010
0000
0010
,  // measure 41
0003
0000
0010
0000
0100
0000
1000
0000
0002
0000
0000
1000
0000
1000
0003
1000
,  // measure 42
0000
0000
1000
0000
0010
0000
0100
0000
0001
0000
1000
0100
0000
0010
0000
0001
,  // measure 43
0000
0000
1000
0000
0010
0000
0100
0000
0001
0000
0010
0001
0000
1000
0000
0100
,  // measure 44
0000
0000
1000
0000
0010
0000
0100
0000
0001
0000
0010
0001
0000
1000
0000
0010
,  // measure 45
0000
1000
0010
0100
0001
0010
0100
2000
,  // measure 46
0000
3002
0000
2003
0000
3002
0000
2003
,  // measure 47
3001
0000
0000
0010
0000
0100
0000
0000
1000
0000
0000
0010
0000
0100
0000
0000
,  // measure 48
0001
0000
0000
0010
0000
1000
0000
0000
0010
0000
0000
0000
0001
0000
0100
0000
,  // measure 49
0010
0000
0000
1000
0000
0001
0000
0000
0010
0000
0000
0001
0000
1000
0000
0000
,  // measure 50
0010
0000
0110
0000
0100
0001
0010
0100
,  // measure 51
1000
0000
0000
0010
0000
1000
0000
0000
0100
0000
0000
0010
0000
0001
0000
0000
,  // measure 52
0010
0000
0000
0100
0000
1000
0000
0000
0010
0000
0000
0000
0100
0000
0001
0000
,  // measure 53
1000
0000
0000
0010
0000
1000
0000
0000
0001
0000
0000
0100
0000
0001
0000
0000
,  // measure 54
0010
0000
0011
0000
0010
0100
1000
0001
,  // measure 55
2000
0000
0000
0010
0000
0010
3000
0000
2000
0000
0000
0001
0000
0001
3000
0000
,  // measure 56
0020
0000
0000
0001
0000
0001
0030
0000
0200
0000
0000
0001
0000
0001
0300
0000
,  // measure 57
2000
0000
0000
0010
0000
0010
3000
0000
0200
0000
0000
0001
0000
0001
0300
0000
,  // measure 58
1000
0000
0010
1000
0010
0100
0001
0010
,  // measure 59
0002
0000
0000
0100
0000
0100
0003
0000
0002
0000
0000
1000
0000
1000
0003
0000
,  // measure 60
0200
0000
0000
1000
0000
1000
0300
0000
0020
0000
0000
1000
0000
1000
0030
0000
,  // measure 61
0002
0000
0000
0100
0000
0100
0003
0000
0020
0000
0000
1000
0000
1000
0030
0000
,  // measure 62
0001
0000
0100
0001
0100
0010
1000
0100
,  // measure 63
0010
0000
0000
0000
;
