#TITLE:ムーンバイク;
#SUBTITLE:;
#ARTIST:BeForU;
#TITLETRANSLIT:Moonbike;
#SUBTITLETRANSLIT:;
#ARTISTTRANSLIT:;
#CREDIT:;
#BANNER:Moonbike.png;
#BACKGROUND:Moonbike-bg.png;
#LYRICSPATH:;
#CDTITLE:;
#MUSIC:Moonbike.mp3;
#OFFSET:-0.100;
#SAMPLESTART:66.665;
#SAMPLELENGTH:16.420;
#SELECTABLE:YES;
#BPMS:0.000=173.001;
#STOPS:;
#BGCHANGES:;

//---------------dance-single - ----------------
#NOTES:
     dance-single:
     :
     Hard:
     8:
     0.690,0.709,0.599,0.451,0.039:
0000
0000
0000
0000
,
0000
0000
0000
0000
,
0000
0000
0000
0000
,
0000
0000
0000
0000
1000
0100
0010
0001
,
1001
0000
1000
0020
0000
1030
0000
0010
,
0100
0101
0011
0110
,
0010
0000
0100
2000
0000
3100
0000
0010
,
0001
0011
0101
0110
,
2010
3001
0012
1003
,
2100
3001
0102
1003
,
0001
0100
1010
0000
1000
0100
0011
0000
,
1000
0000
0000
1000
0001
0000
0100
0000
0010
0000
0010
0000
1000
0000
1000
0000
,
0002
0010
0100
1003
,
0001
1000
0010
0100
0000
0001
0010
0100
,
2000
0000
0010
0000
0100
0000
3001
1000
,
0000
1100
1000
0000
0101
0001
0000
1001
,
1000
0010
0000
0200
0000
0301
0000
0101
,
0000
0100
0010
0000
1000
1000
0001
0000
,
1000
0100
0010
0002
0000
1003
0000
1001
,
0000
1000
0010
0000
0100
0100
0001
0000
,
0010
0100
0000
2000
0000
3001
0000
1001
,
0000
1000
0010
0100
0001
0010
0001
0000
,
0011
0000
0001
0010
0100
0000
1000
0010
,
0100
0000
0000
0000
0001
0000
1000
0000
0010
0000
1000
0000
0001
1000
0001
0000
,
1000
0010
0100
0002
0000
1003
0000
1001
,
0000
0001
0100
0000
0010
0010
1000
0000
,
0100
1000
0000
0002
0000
0103
0000
0101
,
0000
0100
0010
0000
1000
1000
0001
0000
,
1000
0010
0100
0002
0000
0013
0000
0011
,
0000
0001
0010
0100
1000
0020
0130
0000
,
0010
1000
0100
0010
0002
1000
0003
0001
,
1000
0000
0010
0000
0100
0000
0001
0000
1000
0100
1000
0000
0001
0100
0001
0000
,
1000
0000
0100
0010
0002
0000
0010
0000
,
0103
0101
0110
1010
,
1000
0000
0100
0010
0002
0000
1003
0001
,
0000
0100
0010
1000
0001
0001
1000
0000
,
1001
0000
1000
0020
0000
0130
0000
0002
,
0000
0013
0000
0200
0000
1300
0000
0001
,
0201
0000
0301
0002
0000
0013
0020
0000
,
0130
0000
1000
0000
0001
0000
0010
0000
0001
0000
1000
0000
0010
0100
0010
0000
,
0100
0000
0010
2000
0000
3001
0000
2001
,
0000
3100
0000
1000
0010
0100
0000
0001
,
0010
0000
0100
1000
0020
0000
0130
0000
,
0002
1003
0100
1100
,
1000
0100
0010
0002
0000
0010
0013
0100
,
1000
0010
0100
0002
0000
1000
1003
0001
,
1000
1010
0000
0110
0000
0101
0000
2002
,
0000
0003
3100
0000
1000
0010
0100
0001
,
1001
0000
1000
0020
0000
0130
0000
0001
,
0000
0010
0100
1000
1100
0000
1000
0010
,
0100
0000
0001
0020
0000
0130
0000
1000
,
0000
0001
0010
0001
0101
0000
1010
0000
,
1100
0000
0100
0020
0000
0031
0010
0100
,
0000
1000
0010
0100
0001
0000
1000
0001
,
0100
0010
0110
0000
0001
1000
1001
0000
,
1000
0000
0010
0000
0100
0000
0001
0000
1000
0001
1000
0000
0010
0100
0010
0000
,
0110
0000
0010
2000
0000
3001
0000
1000
,
0000
0010
0000
0100
0101
0000
0001
0010
,
0100
0000
1000
0020
0000
1030
0000
0010
,
0000
0100
0001
0010
0011
0000
1100
0000
,
2001
0000
3010
0100
0001
0000
0101
0001
,
0100
0010
1000
0100
0000
0010
0001
0010
,
0100
0000
0000
0000
1100
0000
0000
1000
0010
0000
0100
0000
0001
0000
0101
0000
,
0000
1010
0000
1100
0000
0011
0000
1000
,
0002
0000
1003
0000
0001
0100
0010
1000
,
0200
0000
1300
0000
0100
0010
0001
0100
,
0020
0000
1030
0000
0010
0100
0001
0101
,
0000
1010
0000
1100
0000
0011
0000
0010
,
0200
0000
1300
0000
0100
0010
0001
0100
,
0020
0000
1030
0000
0010
0100
0001
1000
,
0200
0000
1300
0000
0100
0010
0001
0011
,
0000
0101
0000
0110
0000
1010
0000
2002
,
0000
3003
0000
0000
;

//---------------dance-single - ----------------
#NOTES:
     dance-single:
     :
     Beginner:
     1:
     0.132,0.177,0.020,0.000,0.000: // measure 1
0000
0000
0000
0000
,  // measure 2
0000
0000
0000
0000
,  // measure 3
0000
0000
0000
0000
,  // measure 4
0000
0000
0000
0000
,  // measure 5
1000
0000
0000
0000
,  // measure 6
0001
0000
0000
0000
,  // measure 7
0010
0000
0000
0000
,  // measure 8
0100
0000
0000
0000
,  // measure 9
1000
0000
0000
0000
,  // measure 10
0010
0000
0000
0000
,  // measure 11
0100
0000
0100
0000
,  // measure 12
0010
0000
0010
0000
,  // measure 13
1000
0000
0000
0000
,  // measure 14
0001
0000
0000
0000
,  // measure 15
0010
0000
0000
0000
,  // measure 16
0001
0000
0001
0000
,  // measure 17
0001
0000
0000
0000
,  // measure 18
1000
0000
0000
0000
,  // measure 19
0010
0000
0000
0000
,  // measure 20
0100
0000
0100
0000
,  // measure 21
0100
0000
0000
0000
,  // measure 22
0001
0000
0000
0000
,  // measure 23
1000
0000
0000
0000
,  // measure 24
0010
0000
0010
0000
,  // measure 25
0010
0000
0000
0000
,  // measure 26
1000
0000
0000
0000
,  // measure 27
0100
0000
0000
0000
,  // measure 28
0010
0000
0010
0000
,  // measure 29
0010
0000
0000
0000
,  // measure 30
0001
0000
0000
0000
,  // measure 31
1000
0000
0000
0000
,  // measure 32
0100
0000
0100
0000
,  // measure 33
0100
0000
0000
0000
,  // measure 34
1000
0000
0000
0000
,  // measure 35
0010
0000
0000
0000
,  // measure 36
0100
0000
0100
0000
,  // measure 37
0100
0000
0000
0000
,  // measure 38
0001
0000
0000
0000
,  // measure 39
0010
0000
0000
0000
,  // measure 40
0001
0000
0001
0000
,  // measure 41
0001
0000
0000
0000
,  // measure 42
1000
0000
0000
0000
,  // measure 43
0010
0000
0000
0000
,  // measure 44
0100
0000
0100
0000
,  // measure 45
0001
0000
0001
0000
,  // measure 46
1000
0000
1000
0000
,  // measure 47
0010
0000
0010
0000
,  // measure 48
0110
0000
0000
0000
,  // measure 49
0100
0000
0000
0000
,  // measure 50
0001
0000
0001
0000
,  // measure 51
0001
0000
0000
0000
,  // measure 52
1000
0000
1000
0000
,  // measure 53
1000
0000
0000
0000
,  // measure 54
0010
0000
0010
0000
,  // measure 55
0010
0000
0000
0000
,  // measure 56
0100
0000
0100
0000
,  // measure 57
0100
0000
0000
0000
,  // measure 58
0001
0000
0001
0000
,  // measure 59
0001
0000
0000
0000
,  // measure 60
0010
0000
0010
0000
,  // measure 61
0010
0000
0000
0000
,  // measure 62
0100
0000
0100
0000
,  // measure 63
0100
0000
0000
0000
,  // measure 64
1000
0000
1000
0000
,  // measure 65
1000
0000
0000
0000
,  // measure 66
0001
0000
0000
0000
,  // measure 67
0010
0000
0000
0000
,  // measure 68
0100
0000
0100
0000
,  // measure 69
0100
0000
0000
0000
,  // measure 70
1000
0000
0000
0000
,  // measure 71
0010
0000
0000
0000
,  // measure 72
0100
0000
0100
0000
,  // measure 73
1001
0000
0000
0000
;

//---------------dance-single - ----------------
#NOTES:
     dance-single:
     :
     Easy:
     4:
     0.342,0.424,0.147,0.039,0.000: // measure 1
0000
0000
0000
0000
,  // measure 2
0000
0000
0000
0000
,  // measure 3
0000
0000
0000
0000
,  // measure 4
0000
0000
0000
0000
,  // measure 5
1000
0000
0010
0100
,  // measure 6
0001
0100
0010
1000
,  // measure 7
0100
0000
1000
0010
,  // measure 8
0100
0001
0010
1000
,  // measure 9
0020
0030
0002
0003
,  // measure 10
0200
0300
0020
0030
,  // measure 11
1000
1001
0001
1001
,  // measure 12
1000
0010
0100
0001
,  // measure 13
1001
0000
1000
0000
,  // measure 14
0010
0100
0001
0100
,  // measure 15
0010
0000
1000
0000
,  // measure 16
0100
0100
0010
0010
,  // measure 17
0001
0010
0100
1000
,  // measure 18
0100
0010
0001
0000
,  // measure 19
0100
0010
1000
0010
,  // measure 20
0100
0001
0100
0000
,  // measure 21
0010
1000
0100
1000
,  // measure 22
0010
0100
0001
0100
,  // measure 23
0010
0000
1000
0000
,  // measure 24
0001
0010
0100
0000
,  // measure 25
1000
0010
0100
0001
,  // measure 26
0010
0001
0100
0000
,  // measure 27
0010
1000
0100
0001
,  // measure 28
0100
1000
0010
0000
,  // measure 29
0001
0010
1000
0100
,  // measure 30
0010
0001
0100
0010
,  // measure 31
1000
0001
0010
0001
,  // measure 32
0100
0010
1000
0000
,  // measure 33
0001
0100
0001
0000
,  // measure 34
1000
0000
1001
0000
,  // measure 35
1000
0010
1000
0000
,  // measure 36
0001
0000
1001
0000
,  // measure 37
1000
0100
0010
0000
,  // measure 38
0001
0100
0010
0000
,  // measure 39
1000
0000
0010
0001
,  // measure 40
1000
1000
0001
0001
,  // measure 41
0100
0010
1000
0010
,  // measure 42
0100
0001
0010
0100
,  // measure 43
1000
0000
0001
0000
,  // measure 44
0101
0000
1010
0000
,  // measure 45
1000
0100
0010
0010
,  // measure 46
0001
0100
0010
0010
,  // measure 47
1000
0001
0010
0001
,  // measure 48
1001
0000
0110
0000
,  // measure 49
1000
0010
0100
0001
,  // measure 50
0010
0100
1000
0000
,  // measure 51
0001
0010
1000
0010
,  // measure 52
0001
1000
0001
1001
,  // measure 53
1000
0010
0100
0001
,  // measure 54
0010
0100
1000
0000
,  // measure 55
0101
0000
1010
0000
,  // measure 56
1000
0100
0010
0001
,  // measure 57
1001
1000
0010
1000
,  // measure 58
0100
0010
0001
0000
,  // measure 59
0100
0010
1000
0010
,  // measure 60
0100
0001
1000
0010
,  // measure 61
1000
0000
1001
0000
,  // measure 62
1000
0010
0100
0001
,  // measure 63
0010
0000
0100
0000
,  // measure 64
1000
1000
0001
0001
,  // measure 65
1000
0000
0010
0100
,  // measure 66
0001
0000
0010
0100
,  // measure 67
1000
0000
0001
0010
,  // measure 68
0001
0001
1000
1000
,  // measure 69
0010
0000
0100
0001
,  // measure 70
0010
0000
0100
1000
,  // measure 71
0010
0000
0100
0001
,  // measure 72
0010
0010
0100
0100
,  // measure 73
1001
0000
0000
0000
;

//---------------dance-single - ----------------
#NOTES:
     dance-single:
     :
     Medium:
     6:
     0.503,0.529,0.226,0.049,0.000: // measure 1
0000
0000
0000
0000
,  // measure 2
0000
0000
0000
0000
,  // measure 3
0000
0000
0000
0000
,  // measure 4
0000
0000
0000
0000
,  // measure 5
1000
0000
0010
0100
0000
0010
0000
1000
,  // measure 6
0000
0100
0010
0000
0001
0000
0010
0000
,  // measure 7
0100
0000
1000
0001
0000
0010
0000
0001
,  // measure 8
0000
0100
0010
0000
1000
0000
0100
0000
,  // measure 9
0020
0031
0200
0310
,  // measure 10
2000
3001
0020
0031
,  // measure 11
0100
0001
0100
0000
0010
1000
0010
0000
,  // measure 12
1001
0000
1001
0000
1000
0100
1000
0001
,  // measure 13
2000
0010
0100
3001
,  // measure 14
1000
0000
0010
0100
0000
0001
0000
0010
,  // measure 15
0100
0000
1000
0000
0001
0000
0010
0001
,  // measure 16
0000
0100
0100
0000
0010
0010
0000
1000
,  // measure 17
0001
0010
0000
0001
0000
0100
0000
0010
,  // measure 18
0000
1000
0001
0000
1000
0100
1000
0000
,  // measure 19
0001
0010
0000
0001
0000
0100
0000
0010
,  // measure 20
0000
1000
0001
0000
0010
0001
0100
0000
,  // measure 21
0001
0010
0000
0100
0000
1000
0000
0010
,  // measure 22
0000
0100
0001
0000
1000
0010
1000
0000
,  // measure 23
0001
0000
0100
0001
0100
0000
0010
1000
,  // measure 24
0010
0000
1000
0001
0000
0100
0001
0000
,  // measure 25
0010
0001
0000
0100
0000
0010
0000
1000
,  // measure 26
0000
0100
1000
0000
0001
0010
0001
0000
,  // measure 27
0100
0010
0000
1000
0000
0010
0000
0100
,  // measure 28
0000
0001
0010
0000
0100
1000
0100
0000
,  // measure 29
0010
0001
0000
0100
0000
0010
0000
1000
,  // measure 30
0000
0001
0100
0000
0010
1000
0000
0100
,  // measure 31
1000
0000
0001
0010
0001
0100
0000
1000
,  // measure 32
0000
0010
1000
0000
0100
0010
0001
0000
,  // measure 33
0100
0000
0010
1000
0010
0000
0100
0000
,  // measure 34
0001
0101
0011
0110
,  // measure 35
1000
0000
0010
1000
0001
0000
0100
0000
,  // measure 36
0101
0010
1010
1000
,  // measure 37
1100
0000
0100
0010
0000
0001
0000
0010
,  // measure 38
0000
0100
0000
1000
0000
0010
0000
0100
,  // measure 39
0001
0000
1000
0010
0000
1000
0100
0000
,  // measure 40
0010
0000
0001
0000
1000
0010
1000
0000
,  // measure 41
1001
0000
1000
0010
0000
0100
0000
0001
,  // measure 42
0000
0010
0000
0100
1000
0100
0000
0010
,  // measure 43
0001
0000
1000
0010
0100
0000
0001
0000
,  // measure 44
0101
1000
1100
1000
,  // measure 45
0001
1000
0001
0000
1000
0001
1000
0000
,  // measure 46
0010
0100
0010
0000
0100
0010
0100
0000
,  // measure 47
0010
1000
0000
0100
0000
0010
0000
0001
,  // measure 48
1000
0010
0110
1001
,  // measure 49
0110
0000
0010
1000
0000
0100
0000
0010
,  // measure 50
0000
0001
0100
0000
0010
0000
1010
0000
,  // measure 51
0010
0000
0100
0001
0000
0010
0000
0100
,  // measure 52
0000
1000
0001
0000
1001
0000
0110
0000
,  // measure 53
1001
0000
1000
0010
0000
0100
0000
0001
,  // measure 54
0000
0010
0100
0000
1000
0000
1001
0000
,  // measure 55
0001
0100
0001
0000
1000
0100
1000
0000
,  // measure 56
0001
0010
0001
0000
1000
0000
1001
0000
,  // measure 57
1000
0000
0010
0100
0000
0001
0000
0010
,  // measure 58
0000
0100
0000
1000
0001
0000
1001
0000
,  // measure 59
1000
0000
0010
0100
0000
0001
0000
0010
,  // measure 60
0000
0100
1000
0000
0100
0000
0010
0000
,  // measure 61
0011
0000
0001
0100
0001
0000
0100
0000
,  // measure 62
0010
1000
0010
1000
0000
0100
1000
0100
,  // measure 63
1000
0000
0100
0000
0010
0000
0001
1000
,  // measure 64
0000
0010
0000
1000
0000
0001
0000
0010
,  // measure 65
0001
0000
0100
0000
0010
0000
1000
0100
,  // measure 66
1000
0000
0001
0000
0010
0000
0001
0100
,  // measure 67
0001
0000
0100
0000
0010
0000
1000
0001
,  // measure 68
0000
0010
0000
0001
0000
0100
0000
0010
,  // measure 69
1000
0000
0100
0000
0010
0000
0001
0010
,  // measure 70
0001
0000
0100
0000
0010
0000
1000
0001
,  // measure 71
1000
0000
0010
0000
0100
0000
0001
0010
,  // measure 72
0000
0100
0000
1000
0000
0001
0000
1001
;
