#TITLE:Mermaid girl;
#SUBTITLE:;
#ARTIST:Cream puff;
#TITLETRANSLIT:;
#SUBTITLETRANSLIT:;
#ARTISTTRANSLIT:;
#CREDIT:;
#BANNER:Mermaid girl.png;
#BACKGROUND:Mermaid girl-bg.png;
#LYRICSPATH:;
#CDTITLE:;
#MUSIC:Mermaid Girl.mp3;
#OFFSET:-3.460;
#SAMPLESTART:59.500;
#SAMPLELENGTH:18.020;
#SELECTABLE:YES;
#BPMS:0.000=140.000;
#STOPS:;
#BGCHANGES:;

//---------------dance-single - ----------------
#NOTES:
     dance-single:
     :
     Hard:
     8:
     0.569,0.538,0.192,0.301,0.155:
0000
0000
0000
0000
,
0000
0000
0000
0000
,
0000
0000
0000
0000
,
0000
0000
0000
0000
0000
0000
1000
0001
,
0010
0000
0000
0001
0000
0000
1000
0000
0100
0000
0001
0000
0100
0000
0000
0000
,
1000
0010
1000
0001
0010
0001
0100
0000
,
0010
0000
1000
0001
0000
0001
1000
0000
0010
0000
0100
0000
0001
0000
0000
0000
,
1000
0000
0001
1000
0000
1000
0001
0000
0010
0000
0001
0000
0100
0000
0010
0000
,
1000
0100
0010
0001
1000
0010
0100
0000
,
0001
0010
0100
1000
0100
0001
0100
0000
,
1000
0000
0010
1000
0000
1000
0010
0000
0100
0000
0001
0000
0010
0000
0000
0000
,
0100
1000
0001
0010
0001
0000
0100
0010
,
1000
0100
0001
0100
1000
0010
0001
0000
,
0010
1000
0010
0100
0001
0010
0100
0000
,
1000
0000
0001
0010
0000
0010
0001
0000
0100
0000
0010
0000
1000
0000
0000
0000
,
0100
0000
0010
0100
0000
0100
0010
0000
0001
0000
1000
0000
0010
0000
0000
0000
,
0120
0000
0230
0000
0000
0300
0001
1000
,
0020
0000
2030
0000
3200
0000
0301
0100
,
1000
0010
0100
0001
0010
0000
0001
1000
,
0020
0000
2030
0000
3002
0000
0013
0001
,
0100
0010
1000
0100
0001
0000
0100
1000
,
0020
0000
2030
0000
3002
0000
2003
3000
,
1001
0000
0011
0000
0101
0000
0100
0010
,
2000
0000
3200
0000
0302
0000
0103
1000
,
0010
0000
0100
0000
0001
0000
0010
0000
0001
0000
1000
0000
0001
1000
0001
0000
,
1000
0010
1000
0001
0010
0001
0100
0000
,
0010
1000
0100
0002
0000
0103
0000
1000
,
0020
2030
3002
0023
,
0031
0100
0010
1000
0100
0010
0001
0000
,
1000
0010
0100
0001
1000
0100
0010
0001
,
0011
0000
0101
0000
0110
0000
0010
1000
,
2100
3100
0210
0310
,
0011
0000
0101
0000
0100
0010
1000
0001
,
0010
0000
0000
0001
0000
0000
1000
0000
0100
0000
1000
0000
0010
0000
0000
0000
,
0100
0001
0010
1000
0010
0001
0100
0000
,
0010
0000
1000
0001
0000
1000
0001
0000
1000
0000
0010
0000
0100
0000
0000
0000
,
0001
0010
0100
1000
0010
0000
0100
0001
,
0010
0000
0000
0001
0000
0000
0100
0000
0010
0000
1000
0000
0100
0000
0000
0000
,
0001
0100
1000
0010
0100
0001
0010
0000
,
0001
0000
1000
0001
0000
1000
0001
0000
1000
0000
0010
0000
0100
0000
0000
0000
,
0001
0000
1000
0001
0000
1000
0001
0000
1000
0000
0010
0000
0100
0000
0001
0000
,
1000
0000
0100
0000
1000
0000
0001
0000
0010
0000
0001
0000
0100
0000
0010
1000
,
0020
0000
0000
0030
1000
1001
1001
0000
,
0001
0000
0010
0100
0000
1000
0001
0000
0010
0000
0100
0000
1000
0000
0100
0000
,
0110
0000
0011
0000
0102
0100
0103
0000
,
0100
0010
1000
0100
0001
0100
1000
0000
,
0010
1000
0001
0010
0001
0100
0010
0000
,
1000
0000
0001
0010
0000
0001
0010
0000
0001
0000
1000
0000
0010
0000
0000
0000
,
1000
0000
0010
1000
0000
0010
1000
0000
0010
0000
0100
0000
0001
0000
0000
0000
,
2000
0100
3100
0000
0002
0100
0103
0000
,
1000
0010
0100
0001
0020
0000
0031
0100
,
0020
2030
3002
0023
,
0031
1000
0100
0001
0100
1000
0010
0000
,
0100
0001
0010
0001
0100
0010
1000
0100
,
0020
0000
0032
0000
2003
0000
3010
0100
,
0101
0001
0011
0010
,
0110
0000
0000
0000
1100
0000
0000
0000
1000
0000
0010
0000
0100
0001
1000
0000
,
1001
0000
0000
0000
1001
0000
0000
0000
0001
0000
0010
0000
0100
1000
0100
0000
,
0010
0000
0000
0001
0000
0000
1000
0000
0010
0000
1000
0000
0100
0000
0000
0000
,
0001
0100
1000
0010
0001
0010
1000
0000
,
0100
0000
0010
0100
0000
0010
0100
0000
0010
0000
0001
0000
1000
0000
0000
0000
,
0010
1000
0001
0100
0001
0000
0010
0100
,
1000
0000
0000
0100
0000
0000
0010
0000
0001
0000
1000
0000
0010
0000
0000
0000
,
1000
0001
0010
0001
0100
1000
0100
0000
,
0001
0000
0010
0100
0000
1000
0010
0000
0100
0000
0001
0000
0010
0000
0000
0000
,
0001
0000
1000
0010
0000
0100
0001
0000
0010
0000
0100
0000
1000
0000
0000
0000
,
2002
0000
0000
0000
,
0000
0000
0000
3003
;

//---------------dance-single - ----------------
#NOTES:
     dance-single:
     :
     Easy:
     3:
     0.283,0.276,0.042,0.000,0.000:
0000
0000
0000
0000
,
0000
0000
0000
0000
,
0000
0000
0000
0000
,
0000
0000
0000
1000
,
0001
0010
0001
1000
,
0100
1000
0001
0000
,
1000
0010
0100
0001
,
0010
1000
0010
0011
,
0001
0100
0001
1000
,
0100
1000
0010
0100
,
0001
0010
1000
0010
,
0001
0100
0001
0000
,
0010
0001
1000
0100
,
0001
0100
1000
0010
,
0100
0001
0010
1000
,
0010
0001
0100
0010
,
1000
1000
0000
0001
,
0100
0001
1000
0100
,
1000
0001
0000
0010
,
0100
1000
0010
0100
,
0001
0010
0000
1000
,
0010
0001
0100
0010
,
1000
0100
0001
0100
,
1000
0010
0100
0001
,
0010
0100
0000
0100
,
1000
0010
1000
0010
,
0001
0010
0001
0010
,
1000
0100
1000
0100
,
0001
0100
0001
0100
,
1000
0010
0100
0001
,
1000
0100
0010
0001
,
1000
0010
0001
0010
,
1000
0100
0001
0101
,
0100
1000
0010
1000
,
0100
0001
0100
1000
,
0010
0100
0001
0010
,
1000
0010
0001
0000
,
0100
0010
1000
0100
,
0001
0100
1000
0010
,
0100
0001
0010
0001
,
0100
0010
1000
0010
,
0100
0001
0010
0100
,
1000
0000
0000
1001
,
0001
0010
0100
1000
,
0010
0100
0001
0101
,
0001
0100
0010
1000
,
0100
1000
0010
0100
,
0001
0010
1000
0010
,
0001
0100
0010
1000
,
0100
0000
0010
0000
,
0001
0100
0001
0000
,
1000
0100
1000
0010
,
0100
0000
0001
0000
,
0010
0100
1000
0100
,
0010
0001
1000
0000
,
0010
0100
0001
0100
,
0010
0010
1000
1000
,
0001
0000
1000
0000
,
0001
0010
1000
0010
,
0001
0100
1000
0100
,
0001
0010
0100
1000
,
0010
0100
0001
0000
,
1000
0010
1000
0100
,
1000
0010
0100
0001
,
0010
1000
0010
0001
,
0100
0010
1000
0100
,
1001
0000
0000
0000
;

//---------------dance-single - ----------------
#NOTES:
     dance-single:
     :
     Medium:
     5:
     0.400,0.442,0.125,0.100,0.000:
0000
0000
0000
0000
,
0000
0000
0000
0000
,
0000
0000
0000
0000
,
0000
0000
0000
0000
0000
0000
1000
0001
,
1000
0000
0001
0000
0010
0001
0010
0000
,
0001
0000
0100
0000
0010
0100
0010
0000
,
1000
0000
0100
0000
0010
0001
0010
0000
,
0001
0000
1000
0000
0001
1000
0001
1000
,
0010
0000
0100
0000
0001
0100
0001
0000
,
0100
0000
0010
0000
1000
0010
1000
0000
,
0100
0000
0010
0000
0100
0001
0100
0000
,
0010
0000
0001
0100
0001
0000
0100
0000
,
1000
0000
0010
0000
0100
0010
0100
0000
,
0010
0000
1000
0000
0100
1000
0100
0000
,
1000
0000
0001
0000
0010
0001
0010
0000
,
0100
0000
1000
0000
0001
0010
0001
0000
,
0011
0000
0110
0000
0000
0000
0100
1000
,
0100
1000
0010
0100
,
0001
0100
0001
0100
0000
0000
0010
1000
,
0010
0100
0001
0010
,
1000
0010
1000
0010
0000
0000
0001
0010
,
0001
0010
0100
1000
,
1001
0000
0110
0000
1001
0000
0001
0100
,
0001
0100
0010
1000
,
0001
0010
0100
1000
0001
0000
1001
0000
,
1000
0100
1000
0000
0001
0100
0001
0000
,
1000
0010
1000
0000
0001
0010
0001
0000
,
1000
0100
0010
0000
0001
0100
0010
0000
,
1000
0001
0100
0000
0001
0000
1000
0000
,
0100
1000
0010
0000
0100
0001
0010
0000
,
0100
1000
0010
0000
0100
0001
1000
0000
,
0100
1000
0001
0000
0010
0001
1000
0000
,
1001
0000
1001
0000
1001
0000
0001
1000
,
0001
0000
1000
0000
0100
1000
0100
0000
,
1000
0000
0010
0000
0100
0010
0100
0000
,
0001
0000
0010
0000
0100
1000
0100
0000
,
1000
0000
0010
1000
0010
0000
0100
0000
,
0001
0000
0010
0000
0100
1000
0100
0000
,
1000
0000
0001
0000
0010
0001
0010
0000
,
0100
0000
1000
0000
0010
1000
0010
0000
,
0100
0000
0001
0000
0010
0001
0010
0000
,
0001
0000
0100
0000
0010
1000
0001
0000
,
1001
0000
0000
0000
0000
1000
0001
0000
,
1000
0010
1000
0000
0001
0010
0001
0000
,
1001
1001
2001
3001
,
1000
0000
0010
0000
0100
0001
0100
0000
,
0001
0000
0010
0000
0100
1000
0100
0000
,
0010
0000
0001
0000
1000
0010
1000
0000
,
0001
0000
0010
0000
0001
0100
0001
0000
,
2000
3100
0002
0103
,
1000
0010
0100
0001
,
0010
1000
0010
0001
,
0100
0010
1000
0001
,
1000
0100
1000
0000
0001
0100
0001
0000
,
2000
0000
3020
0000
0230
0000
0300
0001
,
0020
0230
2300
3002
,
1003
0010
0100
0001
,
2002
0000
0000
0000
3003
0000
1000
0001
,
1000
0000
0010
0000
0100
0001
0100
0000
,
0010
0000
1000
0000
0001
0010
0001
0000
,
1000
0000
0100
0000
1000
0001
1000
0000
,
0010
0000
0100
0001
0100
0000
0010
0000
,
1000
0000
0001
0000
0010
0001
0100
0000
,
0010
0000
1000
0000
0100
1000
0001
0000
,
0010
0000
0001
0000
1000
0010
0100
0000
,
0001
0000
0010
0000
0100
1000
0001
0000
,
1001
0000
0000
0000
;

//---------------dance-single - ----------------
#NOTES:
     dance-single:
     :
     Beginner:
     1:
     0.096,0.138,0.025,0.000,0.000: // measure 1
0000
0000
0000
0000
,  // measure 2
0000
0000
0000
0000
,  // measure 3
0000
0000
0000
0000
,  // measure 4
0000
0000
0000
0000
,  // measure 5
1000
0000
0000
0000
,  // measure 6
0001
0000
0000
0000
,  // measure 7
0010
0000
0000
0000
,  // measure 8
0001
0000
0001
0000
,  // measure 9
0001
0000
0000
0000
,  // measure 10
0100
0000
0000
0000
,  // measure 11
0010
0000
0000
0000
,  // measure 12
1000
0000
1000
0000
,  // measure 13
1000
0000
0000
0000
,  // measure 14
0001
0000
0000
0000
,  // measure 15
0010
0000
0000
0000
,  // measure 16
0001
0000
0001
0000
,  // measure 17
0001
0000
0000
0000
,  // measure 18
1000
0000
0000
0000
,  // measure 19
0100
0100
0000
0000
,  // measure 20
0010
0000
0000
0000
,  // measure 21
0001
0001
0000
0000
,  // measure 22
1000
0000
0000
0000
,  // measure 23
0010
0000
0000
0000
,  // measure 24
0100
0000
0000
0000
,  // measure 25
0010
0010
0000
0000
,  // measure 26
1000
0000
0000
0000
,  // measure 27
0001
0000
0000
0000
,  // measure 28
0010
0000
0010
0000
,  // measure 29
0010
0000
0000
0000
,  // measure 30
0100
0000
0000
0000
,  // measure 31
1000
0000
0000
0000
,  // measure 32
0001
0000
0001
0000
,  // measure 33
0001
0000
0000
0000
,  // measure 34
0100
0000
0000
0000
,  // measure 35
0010
0000
0000
0000
,  // measure 36
1000
0000
0000
0000
,  // measure 37
0001
0000
0001
0000
,  // measure 38
0001
0000
0000
0000
,  // measure 39
1000
0000
0000
0000
,  // measure 40
0100
0000
0000
0000
,  // measure 41
0010
0000
0010
0000
,  // measure 42
0010
0000
0000
0000
,  // measure 43
1001
0000
0000
0000
,  // measure 44
0100
0000
0000
0000
,  // measure 45
1001
0000
0000
0000
,  // measure 46
1000
0000
0000
0000
,  // measure 47
0010
0000
0000
0000
,  // measure 48
0100
0000
0000
0000
,  // measure 49
0001
0000
0001
0000
,  // measure 50
0001
0000
0000
0000
,  // measure 51
1000
0000
0000
0000
,  // measure 52
0010
0000
0010
0000
,  // measure 53
0010
0000
0000
0000
,  // measure 54
0100
0000
0000
0000
,  // measure 55
0001
0000
0000
0000
,  // measure 56
1000
0000
1000
0000
,  // measure 57
1000
0000
0000
0000
,  // measure 58
0000
0000
0000
0000
,  // measure 59
0001
0000
0000
0000
,  // measure 60
0010
0000
0000
0000
,  // measure 61
0100
0000
0000
0000
,  // measure 62
1000
0000
1000
0000
,  // measure 63
1000
0000
0000
0000
,  // measure 64
0010
0000
0000
0000
,  // measure 65
0100
0000
0000
0000
,  // measure 66
0001
0000
0001
0000
,  // measure 67
1001
0000
0000
0000
;
