#TITLE:Limitation;
#SUBTITLE:;
#ARTIST:Seiya Murai;
#TITLETRANSLIT:;
#SUBTITLETRANSLIT:;
#ARTISTTRANSLIT:;
#CREDIT:;
#BANNER:Limitation.png;
#BACKGROUND:Limitation-bg.png;
#LYRICSPATH:;
#CDTITLE:;
#MUSIC:Limitation.mp3;
#OFFSET:-0.200;
#SAMPLESTART:12.945;
#SAMPLELENGTH:14.020;
#SELECTABLE:YES;
#BPMS:0.000=150.000;
#STOPS:;
#BGCHANGES:;

//---------------dance-single - ----------------
#NOTES:
     dance-single:
     :
     Hard:
     8:
     0.626,0.615,0.112,0.308,0.242:
0000
0000
0000
0000
,
0000
0000
0000
0000
,
0000
0000
0000
0000
,
0000
0000
0000
0000
,
1000
0010
0100
0010
0000
2000
0000
3000
,
0010
0000
0000
0100
0000
0000
0001
0000
0020
0000
0000
0000
0130
0000
0000
0000
,
1000
0000
0000
0010
0000
0000
0100
0000
0001
0000
0000
0010
0000
0000
0100
0000
,
2000
0000
0000
0000
3001
0000
0000
0000
1001
0000
1000
0000
0010
0100
0010
0000
,
1000
0010
0100
0002
0000
1000
1003
0000
,
0001
0010
0000
0010
0001
0000
0001
0010
0000
0000
0001
0000
0100
0000
0020
0000
,
0000
1000
1030
0010
0100
0000
0101
0000
,
0001
0000
1000
0000
0100
1000
0100
0000
0010
0000
0001
0000
0100
0010
0100
0000
,
0010
1000
0001
0200
0000
0010
0310
0000
,
1000
0001
0000
0001
1000
0000
0001
0000
0200
0000
0000
0000
0310
0000
0000
0000
,
1000
0000
0000
0100
0000
0000
0010
0000
0001
0000
0000
0100
0000
0000
0010
0000
,
1000
0000
0000
0001
0000
0000
0100
0000
0001
0000
1000
0000
0100
1000
0100
0000
,
0010
0001
1000
0002
0000
0100
0103
0000
,
0010
1000
0000
1000
0100
0000
0100
1000
0000
0000
0010
0000
0100
0000
0002
0000
,
0000
1000
1003
0001
0100
0000
0110
0000
,
0010
0000
1000
0000
0001
0100
0001
0000
0010
0000
0100
0000
1000
0100
1000
0000
,
0010
0100
0001
2000
0000
0100
3100
0000
,
0010
0001
0000
0001
0100
0000
0001
0000
2000
0000
0000
0000
3001
0000
0000
0000
,
1000
0000
0000
0010
0000
0000
0100
0000
0001
0000
0000
0010
0000
0000
0100
0000
,
1000
0000
0000
0001
0000
0000
0010
0000
0001
0000
1000
0000
0100
1000
0100
0000
,
0010
0010
0001
0002
0000
1000
1003
0000
,
0001
0100
0010
1000
0001
0010
0100
1000
,
0001
0001
1000
2000
0000
0100
3100
0000
,
1000
0100
0010
0001
1000
0010
0100
0001
,
0100
0100
0010
0020
0000
1000
1030
0000
,
0001
0010
1000
0010
0001
0100
1000
0100
,
0001
0010
0100
2000
0000
0001
3001
0000
,
1000
0100
0001
0100
1000
0010
0001
0010
,
1000
1000
0100
0100
0010
0010
0001
0001
,
1000
1000
0010
0010
0100
0001
0010
0001
,
2000
0000
0000
0000
3010
0000
0100
0001
0200
0000
0000
0000
0301
0000
0000
0000
,
1000
1010
0110
0101
,
0001
0001
0010
0010
0100
0100
1000
1000
,
0010
0010
0100
0100
0001
1000
0010
1000
,
0002
0000
0000
0000
0103
0000
0010
1000
0020
0000
0000
0000
0130
0000
0000
0000
,
0001
0101
1001
1010
,
1000
1000
0100
0100
0010
0010
0001
0001
,
1000
1000
0010
0010
0100
0100
0001
0001
,
1000
1000
0100
0100
0001
0001
0100
0100
,
1000
1000
0010
0010
0001
0001
0010
0010
,
2000
0000
3100
0000
0010
0001
0100
0001
,
0020
0230
2300
3001
,
1001
1000
0010
0001
0010
1000
0100
0001
,
0100
0000
1000
0000
0010
0000
1000
0000
0100
0000
0010
0000
0001
1000
0001
1000
,
0001
0100
0010
2000
0000
0001
3001
0000
,
1000
0100
0000
0100
1000
0000
1000
0100
0000
0000
1000
0000
0010
0000
0200
0000
,
0000
0001
0301
0100
0010
0000
1010
0000
,
1000
0000
0001
0000
0010
0001
0010
0000
0100
0000
1000
0000
0010
0100
0010
0000
,
0100
0001
1000
0020
0000
0100
0130
0000
,
0001
1000
0000
1000
0001
0000
1000
0000
0020
0000
0000
0000
0130
0000
0000
0000
,
0001
0000
0000
0010
0000
0000
0100
0000
1000
0000
0000
0010
0000
0000
0100
0000
,
0001
0000
0000
1000
0000
0000
0010
0000
1000
0000
0001
0000
0010
0001
0010
0000
,
0100
1000
0001
2000
0000
0010
3010
0000
,
0100
0001
0000
0001
0010
0000
0010
0001
0000
0000
0100
0000
0010
0000
2000
0000
,
0000
0001
3001
1000
0010
0000
0110
0000
,
0100
0000
0001
0000
1000
0010
1000
0000
0100
0000
0010
0000
0001
0010
0001
0000
,
0100
0010
1000
0002
0000
0010
0013
0000
,
0100
1000
0000
1000
0010
0000
1000
0000
0002
0000
0000
0000
1003
0000
0000
0000
,
0001
0000
0000
0100
0000
0000
0010
0000
1000
0000
0000
0100
0000
0000
0010
0000
,
0001
0000
0000
1000
0000
0000
0100
0000
1000
0000
0001
0000
0010
0001
0010
0000
,
0100
1000
0010
0100
0000
0002
0000
0000
,
2003
0000
0000
0000
,
3000
0000
0000
0000
;

//---------------dance-single - ----------------
#NOTES:
     dance-single:
     :
     Beginner:
     1:
     0.113,0.152,0.009,0.000,0.000:
0000
0000
0000
0000
,
0000
0000
0000
0000
,
0000
0000
0000
0000
,
0000
0000
0000
0000
,
1000
0000
0000
0000
,
0000
0000
0000
0000
,
0010
0000
0000
0000
,
0000
0000
0000
0000
,
0001
0000
0001
0000
,
0001
0000
0000
0000
,
1000
0000
1000
0000
,
1000
0000
0000
0000
,
0010
0000
0010
0000
,
0010
0000
0000
0000
,
0100
0000
0100
0000
,
0100
0000
0000
0000
,
0001
0000
0001
0000
,
0001
0000
0000
0000
,
1000
0000
1000
0000
,
1000
0000
0000
0000
,
0100
0000
0100
0000
,
0100
0000
0000
0000
,
0010
0000
0010
0000
,
0010
0000
0000
0000
,
0001
0000
0000
0000
,
1000
0000
1000
0000
,
1000
0000
0000
0000
,
0010
0000
0010
0000
,
0010
0000
0000
0000
,
0100
0000
0100
0000
,
0100
0000
0000
0000
,
0001
0000
0001
0000
,
0001
0000
0000
0000
,
1000
0000
0000
0000
,
0010
0000
0000
0000
,
0100
0000
0000
0000
,
0001
0000
0000
0000
,
0010
0000
0000
0000
,
0100
0000
0000
0000
,
1000
0000
0000
0000
,
0001
0000
0001
0000
,
0001
0000
0001
0000
,
1000
0000
1000
0000
,
1000
0000
1000
0000
,
0010
0000
0000
0000
,
0100
0000
0100
0000
,
1001
0000
0000
0000
,
0000
0000
0000
0000
,
1000
0000
1000
0000
,
1000
0000
0000
0000
,
0001
0000
0001
0000
,
0001
0000
0000
0000
,
0010
0000
0010
0000
,
0010
0000
0000
0000
,
0100
0000
0100
0000
,
0100
0000
0000
0000
,
1000
0000
1000
0000
,
1000
0000
0000
0000
,
0001
0000
0001
0000
,
0001
0000
0000
0000
,
0100
0000
0100
0000
,
0100
0000
0000
0000
,
0010
0000
0010
0000
,
0010
0000
0000
0000
,
0100
0000
0000
0000
,
0010
0000
0000
0000
;

//---------------dance-single - ----------------
#NOTES:
     dance-single:
     :
     Easy:
     4:
     0.293,0.276,0.009,0.019,0.000: // measure 1
0000
0000
0000
0000
,  // measure 2
0000
0000
0000
0000
,  // measure 3
0000
0000
0000
0000
,  // measure 4
0000
0000
0000
0000
,  // measure 5
1000
0000
1000
0000
,  // measure 6
0001
0000
0001
0000
,  // measure 7
0100
0000
0100
0000
,  // measure 8
0010
0000
0010
0000
,  // measure 9
0100
0001
0100
0001
,  // measure 10
0010
0001
0010
0001
,  // measure 11
0010
0100
0010
0100
,  // measure 12
1000
0100
1000
0100
,  // measure 13
1000
0010
1000
0010
,  // measure 14
0100
0010
0100
0010
,  // measure 15
0100
0001
0100
0001
,  // measure 16
0010
0001
0010
0001
,  // measure 17
1000
0100
0010
0100
,  // measure 18
1000
0100
0010
0100
,  // measure 19
1000
0010
0100
0010
,  // measure 20
1000
0010
0100
0010
,  // measure 21
1000
0100
0001
0100
,  // measure 22
1000
0100
0001
0100
,  // measure 23
1000
0010
0001
0010
,  // measure 24
1000
0010
0001
0010
,  // measure 25
1000
0001
1000
0000
,  // measure 26
0001
0100
0010
1000
,  // measure 27
0010
0100
0001
0000
,  // measure 28
0010
0100
1000
0001
,  // measure 29
0100
0010
1000
0000
,  // measure 30
0001
0010
0100
1000
,  // measure 31
0100
0001
0100
0000
,  // measure 32
1000
0010
0100
0001
,  // measure 33
1000
1000
1000
1000
,  // measure 34
0001
0001
0001
0001
,  // measure 35
0100
0000
0010
0000
,  // measure 36
1000
0000
0001
0000
,  // measure 37
0010
0010
0010
0010
,  // measure 38
0100
0100
0100
0100
,  // measure 39
1000
0000
0001
0000
,  // measure 40
0100
0000
0010
0000
,  // measure 41
1000
1000
1000
1000
,  // measure 42
1000
1000
1000
1000
,  // measure 43
0001
0001
0001
0001
,  // measure 44
0001
0001
0001
0001
,  // measure 45
0100
0000
0010
0000
,  // measure 46
1000
0100
0010
0001
,  // measure 47
1001
0000
0000
0000
,  // measure 48
1000
1000
0001
0001
,  // measure 49
0100
0001
0100
0001
,  // measure 50
0010
0001
0010
0001
,  // measure 51
0010
0100
0010
0100
,  // measure 52
1000
0100
1000
0100
,  // measure 53
1000
0010
1000
0010
,  // measure 54
0100
0010
0100
0010
,  // measure 55
0100
0001
0100
0001
,  // measure 56
0010
0001
0010
0001
,  // measure 57
1000
0100
0010
0100
,  // measure 58
1000
0100
0010
0100
,  // measure 59
1000
0010
0100
0010
,  // measure 60
1000
0010
0100
0010
,  // measure 61
1000
0100
0001
0100
,  // measure 62
1000
0100
0001
0100
,  // measure 63
1000
0010
0001
0010
,  // measure 64
1000
0010
0001
0010
,  // measure 65
2000
0000
0000
3000
,  // measure 66
0002
0000
0000
0003
;

//---------------dance-single - ----------------
#NOTES:
     dance-single:
     :
     Medium:
     6:
     0.494,0.552,0.466,0.093,0.000: // measure 1
0000
0000
0000
0000
,  // measure 2
0000
0000
0000
0000
,  // measure 3
0000
0000
0000
0000
,  // measure 4
0000
0000
0000
0000
,  // measure 5
1000
0100
1000
0100
0000
0010
0000
0000
,  // measure 6
0001
0100
0010
1000
,  // measure 7
0001
0000
0001
0100
0010
0000
0010
1000
,  // measure 8
0100
0010
0011
1100
,  // measure 9
0001
0100
0001
0000
0100
0010
0100
0000
,  // measure 10
0010
1000
0010
0000
1000
0000
1100
0000
,  // measure 11
0100
0010
0100
0000
0010
0001
0010
0000
,  // measure 12
0001
0100
0001
0000
0100
0000
0110
0000
,  // measure 13
0010
1000
0010
0000
0100
0001
0100
0000
,  // measure 14
0001
0010
0001
0000
1000
0000
1100
0000
,  // measure 15
0001
0100
0001
0000
1000
0100
1000
0000
,  // measure 16
0001
0010
0001
0000
1000
0000
1001
0000
,  // measure 17
1000
0010
0100
0000
0010
0100
0001
0000
,  // measure 18
0100
0001
0010
0000
0001
0000
0101
0000
,  // measure 19
0100
0010
1000
0000
0010
1000
0100
0000
,  // measure 20
1000
0100
0010
0000
0001
0000
1001
0000
,  // measure 21
0001
0100
0010
0000
0100
0010
1000
0000
,  // measure 22
0010
1000
0100
0000
1000
0000
1001
0000
,  // measure 23
0001
0100
1000
0000
1000
0100
0001
0000
,  // measure 24
0001
0010
1000
0000
1000
0010
0001
0000
,  // measure 25
1000
0001
1000
0001
0000
0000
0000
0000
,  // measure 26
0100
0100
0100
0000
0010
0010
0010
0000
,  // measure 27
1000
0001
1000
0001
0000
0000
0000
0000
,  // measure 28
0100
0100
0100
0000
0010
0010
0010
0000
,  // measure 29
1000
0100
0010
0001
0000
0000
0000
0000
,  // measure 30
0100
0010
0100
0000
0001
1000
0001
0000
,  // measure 31
1000
0100
0010
0001
0000
0000
0000
0000
,  // measure 32
0100
0010
0100
0000
0001
1000
0001
0000
,  // measure 33
1100
1100
1100
1100
,  // measure 34
0011
0011
0011
0011
,  // measure 35
0002
0103
2000
3100
,  // measure 36
0002
1000
1000
1003
,  // measure 37
0011
0011
0011
0011
,  // measure 38
1100
1100
1100
1100
,  // measure 39
0002
0103
2000
3100
,  // measure 40
0002
1000
1000
1003
,  // measure 41
0110
0110
0110
0110
,  // measure 42
0110
0110
0110
0110
,  // measure 43
1001
1001
1001
1001
,  // measure 44
1001
1001
1001
1001
,  // measure 45
0120
1000
0001
1030
,  // measure 46
0210
0001
1000
0301
,  // measure 47
1000
0100
1000
0000
0100
0001
0100
0000
,  // measure 48
0001
0010
0001
0000
0010
1000
0010
0000
,  // measure 49
1000
0010
1000
0000
0010
0100
0010
0000
,  // measure 50
0100
0001
0100
0000
0001
0000
0011
0000
,  // measure 51
0010
0100
0010
0000
0100
1000
0100
0000
,  // measure 52
1000
0010
1000
0000
0010
0000
0110
0000
,  // measure 53
0100
0001
0100
0000
0010
1000
0010
0000
,  // measure 54
1000
0100
1000
0000
0001
0000
0011
0000
,  // measure 55
1000
0010
1000
0000
0001
0010
0001
0000
,  // measure 56
1000
0100
1000
0000
0001
0000
1001
0000
,  // measure 57
0001
0100
0010
0000
0100
0010
1000
0000
,  // measure 58
0010
1000
0100
0000
1000
0000
1010
0000
,  // measure 59
0010
0100
0001
0000
0100
0001
0010
0000
,  // measure 60
0001
0010
0100
0000
1000
0000
1001
0000
,  // measure 61
1000
0010
0100
0000
0010
0100
0001
0000
,  // measure 62
0100
0001
0010
0000
0001
0000
1001
0000
,  // measure 63
1000
0010
0001
0000
0001
0010
1000
0000
,  // measure 64
1000
0100
0001
0000
0001
0100
1000
0000
,  // measure 65
0001
1000
0001
1000
0000
0020
0000
0030
,  // measure 66
0200
0000
0000
0300
;
