#TITLE:Let's Get Away;
#SUBTITLE:;
#ARTIST:NAOKI feat. Brenda Burch;
#TITLETRANSLIT:;
#SUBTITLETRANSLIT:;
#ARTISTTRANSLIT:;
#CREDIT:;
#BANNER:Let's Get Away.png;
#BACKGROUND:Let's Get Away-bg.png;
#LYRICSPATH:;
#CDTITLE:./CDTITLES/DanceDanceRevolution 2010.png;
#MUSIC:Let's Get Away.mp3;
#OFFSET:1.529;
#SAMPLESTART:51.220;
#SAMPLELENGTH:15.000;
#SELECTABLE:YES;
#BPMS:0.000=150.000;
#STOPS:;
#BGCHANGES:;

//---------------dance-single - ----------------
#NOTES:
     dance-single:
     :
     Beginner:
     1:
     0.093,0.117,0.017,0.000,0.000:
0000
0000
0000
0000
,
0000
0000
0000
0000
,
0000
0000
0000
0000
,
0000
0000
0000
0000
,
0000
0000
0000
0000
,
1000
0000
0000
0000
,
0000
0000
0000
0000
,
0001
0000
0000
0000
,
0000
0000
0000
0000
,
0010
0000
0000
0000
,
0010
0000
0000
0000
,
0100
0000
0000
0000
,
0100
0000
0000
0000
,
1000
0000
0000
0000
,
1000
0000
0000
0000
,
0001
0000
0000
0000
,
0001
0000
0000
0000
,
1000
0000
0000
0000
,
0100
0000
0000
0000
,
0010
0000
0000
0000
,
0001
0000
0000
0000
,
1000
0000
0000
0000
,
0010
0000
0000
0000
,
1000
0000
0000
0000
,
0001
0000
0000
0000
,
0010
0000
0010
0000
,
0010
0000
0000
0000
,
0100
0000
0100
0000
,
0100
0000
0000
0000
,
0001
0000
0001
0000
,
0001
0000
0000
0000
,
1000
0000
1000
0000
,
1000
0000
0000
0000
,
0010
0000
0000
0000
,
1000
0000
0000
0000
,
0001
0000
0000
0000
,
0010
0000
0010
0000
,
0010
0000
0000
0000
,
0100
0000
0000
0000
,
0010
0000
0010
0000
,
0010
0000
0000
0000
,
1000
0000
0000
0000
,
0100
0000
0000
0000
,
0010
0000
0000
0000
,
0001
0000
0001
0000
,
0001
0000
0000
0000
,
1000
0000
0000
0000
,
0010
0000
0010
0000
,
0010
0000
0000
0000
,
0100
0000
0000
0000
,
0001
0000
0000
0000
,
1000
0000
1000
0000
,
0000
0000
0000
0000
,
0001
0000
0000
0000
,
0010
0000
0010
0000
,
0010
0000
0000
0000
,
0100
0000
0100
0000
,
0100
0000
0000
0000
,
1000
0000
1000
0000
,
1000
0000
0000
0000
,
0001
0000
0000
0000
,
1001
0000
0000
0000
,
0000
0000
0000
0000
,
1000
0000
0000
0000
,
0010
0000
0000
0000
,
1000
0000
0000
0000
,
0001
0000
0000
0000
,
0010
0000
0010
0000
,
0100
0000
0100
0000
,
1001
0000
0000
0000
;

//---------------dance-single - ----------------
#NOTES:
     dance-single:
     :
     Easy:
     3:
     0.204,0.233,0.008,0.008,0.000:
0000
0000
0000
0000
,
0000
0000
0000
0000
,
0000
0000
0000
0000
,
0000
0000
0000
0000
,
0000
0000
0000
0000
,
1000
0000
0100
0000
,
1000
0010
1000
0000
,
0001
0000
0010
0000
,
0001
0100
0001
0000
,
1000
0000
0100
0000
,
0010
0000
0001
0000
,
1000
0000
0010
0000
,
1000
0000
0001
0000
,
0010
0000
0001
0000
,
0100
0000
0010
0000
,
1000
0000
0001
0000
,
0010
0001
0100
0001
,
0010
0000
0100
0000
,
1000
0000
0010
0000
,
1000
0000
1000
0000
,
0001
0000
0001
0000
,
0010
0000
0001
0000
,
0100
0000
0010
0100
,
0010
0000
1000
0000
,
0100
0000
0010
0001
,
0010
0000
0001
0000
,
0100
0000
0010
1000
,
0010
0000
1000
0000
,
0100
1000
0100
0000
,
0010
0000
0001
0010
,
0001
0000
0100
0000
,
0010
1000
0100
0010
,
0002
0000
0000
0003
,
1000
0100
1000
0000
,
0001
0100
0001
0000
,
1000
0010
1000
0000
,
0001
0010
0001
0010
,
0001
0000
0100
0000
,
0010
0000
1000
0000
,
0100
0010
0001
0010
,
0100
0000
1000
0000
,
0010
1000
0010
0000
,
0100
0001
0100
0000
,
0001
0010
0001
0000
,
1000
0100
1000
0100
,
1000
0000
0010
0000
,
0100
0000
0001
0000
,
1000
0100
1000
0001
,
0100
0000
0001
0000
,
0010
0000
0100
0000
,
1000
0000
0010
0000
,
0100
0001
0100
0010
,
1000
0100
0010
0001
,
1000
0000
0001
0000
,
1000
1000
1000
0000
,
0010
0000
0100
0000
,
0010
0010
0010
0000
,
1000
0000
0001
0000
,
0010
0010
0010
0000
,
0001
0100
0010
1000
,
0100
0000
0010
0000
,
0001
0000
1000
0000
,
0100
0000
1000
0010
,
1000
0000
0010
0000
,
0100
0000
0001
0010
,
0001
0000
0100
0000
,
0010
0000
1000
0001
,
1000
0000
0010
0000
,
1000
0100
0010
0001
,
1001
0000
0000
0000
;

//---------------dance-single - ----------------
#NOTES:
     dance-single:
     :
     Medium:
     5:
     0.362,0.360,0.017,0.034,0.000: // measure 1
0000
0000
0000
0000
,  // measure 2
0000
0000
0000
0000
,  // measure 3
0000
0000
0000
0000
,  // measure 4
0000
0000
0000
0000
,  // measure 5
0000
0000
0000
0000
,  // measure 6
1000
0000
0010
0000
0100
0001
0000
0000
,  // measure 7
0100
0000
0010
0000
1000
0100
0000
0010
,  // measure 8
0001
0000
1000
0000
0010
1000
0000
0000
,  // measure 9
0001
0010
0001
0000
1000
0010
1000
0000
,  // measure 10
0001
0000
0100
0010
0100
0000
0010
0000
,  // measure 11
1000
0000
0100
1000
0100
0000
0010
0000
,  // measure 12
0001
0000
1000
0001
1000
0000
0010
0000
,  // measure 13
1000
0000
0100
1000
0100
0000
0010
0000
,  // measure 14
0001
0000
1000
0001
1000
0000
0010
0000
,  // measure 15
1000
0000
0100
1000
0100
0000
0010
0000
,  // measure 16
0001
0100
0001
0000
1000
0100
1000
0000
,  // measure 17
0001
0000
0010
0000
0100
0000
1000
0010
,  // measure 18
1000
0010
0100
0001
,  // measure 19
1000
0100
0010
0001
,  // measure 20
1000
0000
0010
1000
0010
0000
0100
0000
,  // measure 21
0001
0000
0010
0001
0010
0000
0001
0000
,  // measure 22
0100
0010
1000
0100
,  // measure 23
0001
0100
1000
0010
,  // measure 24
0100
0001
0010
0001
,  // measure 25
0100
0000
0010
1000
0010
0000
1000
0000
,  // measure 26
0100
0000
0010
0000
0001
0000
1000
0001
,  // measure 27
1000
0000
0010
0000
1000
0000
0100
1000
,  // measure 28
0100
0010
0001
0100
,  // measure 29
0010
1000
0010
0000
0100
0000
0001
0000
,  // measure 30
0010
0000
0001
0000
0100
0000
0010
1000
,  // measure 31
0010
1000
0100
0010
,  // measure 32
0001
0000
1000
0000
0001
1000
0001
0000
,  // measure 33
2002
0000
0000
3003
,  // measure 34
1000
0100
1000
0000
0001
0000
0010
0000
,  // measure 35
0001
0100
0010
1000
,  // measure 36
0100
0010
0100
0000
0010
0000
0001
0000
,  // measure 37
1000
0010
1000
0001
,  // measure 38
0010
0000
0001
0000
0100
0001
0100
0000
,  // measure 39
0010
1000
0100
0010
,  // measure 40
0001
0000
1000
0001
0000
1000
0001
0000
,  // measure 41
1000
0010
1000
0000
0010
0000
0110
0000
,  // measure 42
0100
0001
0100
0000
0001
0000
0010
0000
,  // measure 43
0100
1000
0010
1000
,  // measure 44
0100
1000
0100
0000
0010
0000
0001
0000
,  // measure 45
1000
0010
0100
0001
,  // measure 46
0010
0000
0001
0000
0100
0001
0100
0000
,  // measure 47
0010
1000
0100
0010
,  // measure 48
0001
0000
1000
0001
0000
1000
0001
0000
,  // measure 49
1000
0000
0010
0000
0100
0010
0100
0000
,  // measure 50
0001
0000
0000
0010
0000
0000
0100
0000
,  // measure 51
1000
0000
0000
0010
0000
0000
0100
0000
,  // measure 52
0001
0010
0001
0000
1000
0010
1000
0000
,  // measure 53
0001
0000
1000
0000
0100
1000
0100
0000
,  // measure 54
0010
0000
0001
0010
0000
0000
0100
0000
,  // measure 55
1000
0000
0010
1000
0000
0000
0010
0000
,  // measure 56
0100
0000
0001
0010
0000
0000
0001
0000
,  // measure 57
0100
0000
0010
0100
0000
0000
0010
0000
,  // measure 58
1000
0000
0100
0010
0000
0000
0001
0000
,  // measure 59
1000
0000
0010
1000
0000
0000
0001
0000
,  // measure 60
0010
0001
0010
0000
0001
0100
0001
0000
,  // measure 61
0100
0010
0100
0000
0010
1000
0010
0000
,  // measure 62
1000
0000
0100
0000
0010
0001
0000
0010
,  // measure 63
0000
0000
0100
0000
1000
0000
0010
1000
,  // measure 64
0000
0001
0010
0000
0001
0100
0000
0010
,  // measure 65
0000
0000
1000
0000
0100
0000
0010
0001
,  // measure 66
0000
0100
0010
0000
1000
0001
0000
0010
,  // measure 67
0000
0000
0001
0000
0100
0000
0010
1000
,  // measure 68
0000
0100
0010
0000
0001
1000
0000
0010
,  // measure 69
0000
0000
1000
0000
0100
0000
0010
0001
,  // measure 70
0020
0000
0000
0000
,  // measure 71
0200
0000
0000
0000
,  // measure 72
0330
0000
0000
0000
;

//---------------dance-single - ----------------
#NOTES:
     dance-single:
     :
     Hard:
     9:
     0.690,0.709,0.557,0.329,0.308: // measure 1
0000
0000
0000
0000
,  // measure 2
0000
0000
0000
0000
,  // measure 3
0000
0000
0000
0000
,  // measure 4
0000
0000
0000
0000
,  // measure 5
0000
0000
0000
0000
,  // measure 6
1000
0010
0100
0000
0001
0010
0100
1000
,  // measure 7
1001
0000
0101
0000
0100
0010
1000
0010
,  // measure 8
0100
0100
0001
0001
0010
0010
0100
0100
,  // measure 9
1000
0000
0001
0000
1000
0010
0000
0100
0010
1000
0000
0010
0100
0000
0001
0000
,  // measure 10
0010
0000
0000
0100
0000
1000
0100
0000
0010
0000
0000
0001
0000
0100
0010
0000
,  // measure 11
1000
0000
0000
0010
0000
0100
0001
0000
1000
0000
0000
0100
0000
1000
0001
0000
,  // measure 12
0010
0000
0000
0001
0000
0100
0010
0000
1000
0000
0000
0010
0000
0100
0001
0000
,  // measure 13
1000
0000
0000
0100
0000
0010
0001
0000
1000
0010
0000
0100
0001
0000
1000
0000
,  // measure 14
1100
0000
0000
0100
0000
0010
0001
0000
1000
0000
0000
0010
0000
0100
0001
0000
,  // measure 15
1000
0000
0000
0100
0000
0010
0001
0000
1000
0000
0000
0010
0000
1000
0100
0000
,  // measure 16
0010
0000
0001
0000
0100
0000
0010
0000
1000
0100
1000
0000
0001
0100
0001
0000
,  // measure 17
1000
0100
0000
0010
0000
0001
0010
0000
0100
1000
0000
0010
0000
0100
0001
0000
,  // measure 18
0101
0000
0001
0100
0000
0010
1000
0100
,  // measure 19
2000
3002
0023
0031
,  // measure 20
0102
0000
0100
0100
1003
0000
1001
0000
,  // measure 21
2010
0000
0010
0010
0000
0001
0001
3001
,  // measure 22
1001
0000
1000
0010
0000
0100
0001
0010
,  // measure 23
0200
2300
3020
0130
,  // measure 24
0102
0000
0010
0010
1003
0000
1001
0000
,  // measure 25
1010
0000
0010
0000
0100
0000
0001
0100
0001
0000
1000
0100
1000
0000
0001
0000
,  // measure 26
2001
0000
0010
3010
0000
1000
0010
0100
,  // measure 27
0002
0000
1000
1003
0000
0001
0100
0010
,  // measure 28
2000
0000
0100
3100
0000
1000
0100
0010
,  // measure 29
0011
0001
0100
0120
0000
1000
1030
0010
,  // measure 30
0110
0000
0100
0001
0000
0010
0100
1000
,  // measure 31
1001
0001
0100
0010
1000
0010
0100
0001
,  // measure 32
1001
0000
0000
1000
0010
0100
0010
0000
1000
0000
0100
0010
0100
0000
1001
0000
,  // measure 33
0001
0000
0100
0001
0100
0000
0010
0000
1000
0100
1000
0000
0001
0000
0100
0000
,  // measure 34
0110
0010
1000
0200
0300
1000
0010
0200
,  // measure 35
0300
0001
0010
0200
0300
1000
0010
0100
,  // measure 36
0001
1000
0010
2000
3000
0001
0010
0100
,  // measure 37
1100
0000
0000
0000
0011
0000
0000
0000
0001
0100
0000
0000
0110
0000
0010
0000
,  // measure 38
2010
0000
3001
0000
1000
0010
0100
0001
,  // measure 39
0020
0230
2300
3001
,  // measure 40
1001
0000
1000
1010
0000
0010
0100
0001
,  // measure 41
1001
0000
1000
0000
0100
0010
0100
0000
0010
0001
0100
0001
0010
0000
0100
0000
,  // measure 42
0110
0100
0001
0200
0300
1000
0010
0200
,  // measure 43
0300
0001
0010
0200
0300
1000
0010
0100
,  // measure 44
0001
1000
0010
2000
3000
0001
0010
0100
,  // measure 45
1100
0000
0000
0000
0011
0000
0000
0000
0001
0100
0000
0000
0110
0000
0010
0000
,  // measure 46
2010
0000
3001
0000
1000
0010
0100
0001
,  // measure 47
0020
0230
2300
3001
,  // measure 48
1001
0000
1000
1010
0000
0010
0100
0001
,  // measure 49
1001
0000
1000
0000
0100
0010
0100
0000
0010
0001
0100
0001
0010
0000
0100
0010
,  // measure 50
0200
1000
1300
0002
0010
0013
0100
0000
,  // measure 51
2000
0010
3010
0200
0001
0301
0010
0000
,  // measure 52
0011
0001
0010
0100
1000
0010
0100
0001
,  // measure 53
1000
0000
1100
0000
0000
0000
0101
0000
0000
1000
0010
0100
0002
0000
1003
0000
,  // measure 54
0101
0100
0010
1010
0000
1000
0100
0010
,  // measure 55
0011
0000
0000
0001
0000
0000
0102
0000
0000
0000
1000
0000
1003
0000
0001
0000
,  // measure 56
0101
0100
0010
1010
0000
1000
0100
0010
,  // measure 57
0011
0000
0000
0001
0000
0000
0201
0000
0000
0000
0010
0000
0310
0000
0100
0000
,  // measure 58
0110
0010
1000
1001
0000
0001
1000
0100
,  // measure 59
1100
0000
0000
0100
0000
0000
0210
0000
0000
0000
0010
0000
0310
0000
0100
0000
,  // measure 60
0110
0000
0010
0000
0001
0000
0100
0000
0010
0000
1000
0000
0001
0000
0010
0001
,  // measure 61
0010
0000
0100
0000
1000
0000
0010
1000
0010
0000
0100
0000
0001
1000
0001
1000
,  // measure 62
0001
1000
1100
0000
0001
0100
0110
0000
,  // measure 63
0010
0000
1000
0000
1001
0000
1000
0100
1000
0000
0001
0000
0011
0000
0000
0000
,  // measure 64
0001
0100
0110
0000
0010
1000
1001
0000
,  // measure 65
1000
0000
0100
0000
0110
0000
0010
0000
0001
0100
0001
0000
0011
0000
0010
0100
,  // measure 66
0010
0100
1100
0000
1000
0010
0110
0000
,  // measure 67
0100
0000
0001
0000
0011
0000
0010
0000
0100
1000
0100
0000
0011
0000
0000
0000
,  // measure 68
1100
0000
0010
0000
0001
0000
0100
0000
1010
0000
0010
0100
0010
0000
0100
0000
,  // measure 69
0001
0100
0000
0110
0000
0010
1000
0000
0100
0010
0000
0011
0000
0001
0100
0010
,  // measure 70
2000
0000
0000
0000
,  // measure 71
0000
0000
0000
0000
,  // measure 72
0002
0000
0000
0000
,  // measure 73
0000
0000
0000
0000
,  // measure 74
3003
0000
0000
0000
;
