#TITLE:INVOKE;
#SUBTITLE:;
#ARTIST:T.M.REVOLUTION;
#TITLETRANSLIT:;
#SUBTITLETRANSLIT:;
#ARTISTTRANSLIT:;
#CREDIT:;
#BANNER:INVOKE.png;
#BACKGROUND:INVOKE-bg.png;
#LYRICSPATH:;
#CDTITLE:;
#MUSIC:INVOKE.mp3;
#OFFSET:-0.042;
#SAMPLESTART:37.880;
#SAMPLELENGTH:13.820;
#SELECTABLE:YES;
#BPMS:0.000=152.000;
#STOPS:;
#BGCHANGES:;

//---------------dance-single - ----------------
#NOTES:
     dance-single:
     :
     Hard:
     8:
     0.611,0.663,0.517,0.435,0.194: // measure 1
0000
0000
0000
0000
,  // measure 2
0000
0000
0000
0000
,  // measure 3
0000
0000
0000
0000
,  // measure 4
1100
0000
0110
0000
0011
0000
0101
0000
0110
0000
1010
0000
,  // measure 5
1001
0000
1000
0200
0000
0301
0000
0100
,  // measure 6
1000
0010
1000
0100
0010
0001
0000
0001
,  // measure 7
0100
0000
0010
2000
0000
3001
0000
1000
,  // measure 8
0100
1000
0010
0100
0001
0000
0101
0001
,  // measure 9
0100
0010
1000
0100
0000
0001
0000
0200
,  // measure 10
0000
1300
0000
0010
1010
0000
0110
0000
,  // measure 11
0101
0000
0100
0020
0000
1030
0000
0001
,  // measure 12
1000
0000
0000
0100
0000
0000
0010
0000
0001
0000
1000
0000
0001
0000
0000
0000
,  // measure 13
0110
0000
0010
0200
0000
0301
0000
0100
,  // measure 14
0000
0010
0000
1000
1010
0000
1100
0000
,  // measure 15
1001
0000
1000
0020
0000
0130
0000
0001
,  // measure 16
0010
0000
0000
0100
0000
0000
1000
0000
0001
0000
0001
0000
1000
0000
0000
0000
,  // measure 17
1001
0000
1000
0020
0000
0130
0000
0010
,  // measure 18
0000
1000
0000
0001
0011
0000
0110
0000
,  // measure 19
1100
0000
1000
0020
0000
0130
0000
0001
,  // measure 20
1000
0000
0000
0010
0000
0000
1000
0000
0100
0000
0010
0000
0001
0000
0000
0000
,  // measure 21
1000
0000
0010
0000
0100
0000
0001
0000
1000
0000
0010
1000
0000
0000
0100
0000
,  // measure 22
0010
0000
0001
0000
0100
0000
0010
0000
1000
0000
0001
0010
0000
0000
0001
0000
,  // measure 23
0020
0230
2300
3010
,  // measure 24
0110
0000
0101
0000
1001
0000
1100
0000
0110
0000
0011
0000
,  // measure 25
1001
0000
0000
1000
0000
0000
0100
0000
0002
0000
0000
0000
0103
0000
0000
0000
,  // measure 26
0101
0000
1100
0000
1010
0000
0010
0100
,  // measure 27
0002
0000
0000
0000
0013
0000
0100
1000
0200
0000
0000
0000
0310
0000
0000
0000
,  // measure 28
0001
0000
0000
1000
0000
0000
0010
0000
0110
0000
0000
0000
0101
0000
0000
0000
,  // measure 29
1001
0000
0000
1000
0000
0000
0010
0000
0002
0000
0000
0000
0013
0000
0000
0000
,  // measure 30
1000
0000
0000
0100
0000
0000
0010
0000
0200
0000
0000
0000
1300
0000
0010
0000
,  // measure 31
1010
0000
1000
0010
0000
0100
0000
0001
,  // measure 32
0020
0000
0100
0000
1030
0000
0010
0001
,  // measure 33
0100
0000
0010
1000
0100
0000
1100
0000
,  // measure 34
1000
0000
0100
0000
0010
0000
0001
0000
1000
0000
0001
0000
0100
0010
0100
0010
,  // measure 35
0100
0000
0000
0010
0000
0000
0100
0000
0002
0000
0000
0000
1003
0000
0000
0000
,  // measure 36
1001
0000
0011
0000
1001
0000
0001
1000
,  // measure 37
0020
0000
0000
0000
0130
0000
0001
1000
0002
0000
0000
0000
1003
0000
0000
0000
,  // measure 38
0001
0000
0000
0100
0000
0000
0010
0000
1010
0000
0000
0000
1100
0000
0000
0000
,  // measure 39
1010
0000
0000
0010
0000
0000
0100
0000
0002
0000
0000
0000
0013
0000
0000
0000
,  // measure 40
0001
0000
0000
0010
0000
0000
0100
0000
2000
0000
0000
0000
3010
0000
0100
0000
,  // measure 41
0101
0000
0100
0010
0000
1000
0000
0100
,  // measure 42
0020
0000
0001
0000
0130
0000
0010
0001
,  // measure 43
0100
0000
0010
1000
0100
0000
1100
0000
,  // measure 44
1000
0000
0100
0000
0010
0000
0001
0000
0100
0000
0010
0000
1000
0001
1000
0001
,  // measure 45
2000
3020
0230
0302
,  // measure 46
1003
0100
0001
0100
1000
0010
0001
0010
,  // measure 47
2000
3020
0230
0302
,  // measure 48
1003
0100
0010
0001
1000
0010
0100
0001
,  // measure 49
0020
0230
2300
3002
,  // measure 50
0013
0000
0000
0001
0000
0000
0100
0000
0010
0000
0000
1000
0000
0000
0100
0000
,  // measure 51
0110
0000
0010
0000
0001
0000
0000
0001
1000
0000
0010
0000
1000
0000
0000
1000
,  // measure 52
0100
0000
0010
0000
0001
0000
0000
0001
0100
0000
0010
1000
0010
0000
0100
0000
,  // measure 53
2002
0000
0000
0000
,  // measure 54
0000
0000
0000
3003
;

//---------------dance-single - ----------------
#NOTES:
     dance-single:
     :
     Beginner:
     1:
     0.109,0.158,0.012,0.023,0.000:
0000
0000
0000
0000
,
0000
0000
0000
0000
,
0000
0000
0000
0000
,
0000
0000
0000
0000
,
1000
0000
0000
0000
,
0001
0000
0000
0000
,
0010
0000
0000
0000
,
0100
0000
0100
0000
,
0100
0000
0000
0000
,
1000
0000
0000
0000
,
0010
0000
0000
0000
,
0100
0000
0100
0000
,
0100
0000
0000
0000
,
0001
0000
0000
0000
,
1000
0000
0000
0000
,
0100
0000
0100
0000
,
0100
0000
0000
0000
,
1000
0000
0000
0000
,
0001
0000
0000
0000
,
0010
0000
0010
0000
,
0010
0000
0000
0000
,
0001
0000
0000
0000
,
1000
0000
0000
0000
,
0100
0000
0100
0000
,
0100
0000
0000
0000
,
1000
0000
0000
0000
,
0010
0000
0000
0000
,
0100
0000
0100
0000
,
0100
0000
0000
0000
,
0001
0000
0000
0000
,
0100
0000
0100
0000
,
0100
0000
0000
0000
,
1000
0000
1000
0000
,
1000
0000
0000
0000
,
0001
0000
0000
0000
,
0010
0000
0000
0000
,
0100
0000
0000
0000
,
1000
0000
1000
0000
,
1000
0000
0000
0000
,
0001
0000
0000
0000
,
0010
0000
0010
0000
,
0010
0000
0000
0000
,
0100
0000
0100
0000
,
0100
0000
0000
0000
,
1000
0000
0000
0000
,
0010
0000
0000
0000
,
0100
0000
0000
0000
,
0001
0000
0000
0000
,
1000
0000
0000
0000
,
0100
0000
0100
0000
,
0100
0000
0000
0000
,
0010
0000
0010
0000
,
2002
0000
0000
0000
,
0000
0000
0000
3003
;

//---------------dance-single - ----------------
#NOTES:
     dance-single:
     :
     Medium:
     6:
     0.487,0.474,0.317,0.223,0.047:
0000
0000
0000
0000
,
0000
0000
0000
0000
,
0000
0000
0000
0000
,
1000
0000
0001
0000
1000
0000
0001
0000
1000
0000
0001
0000
,
1001
0000
1000
0010
0000
0100
0000
0001
,
0000
1000
0100
0000
1000
0001
0000
0010
,
0001
0000
0100
0010
0000
1000
0000
0010
,
0100
0000
0001
0100
0001
0000
1001
0000
,
1000
0000
0100
0010
0000
0001
0000
0010
,
0000
0100
0000
1000
0010
0000
0110
0000
,
0101
0000
0100
0010
0000
1000
0000
0001
,
0010
0000
0001
0000
0100
0001
0100
0000
,
0110
0000
0010
1000
0000
0100
0000
0010
,
0000
0001
0000
1000
0010
0000
1000
0000
,
1001
0000
0001
0010
0000
1000
0000
0010
,
0001
0101
0100
0110
,
1010
0000
1000
0100
0000
0010
0000
0001
,
0000
1000
0000
0001
0100
0000
0101
0000
,
0110
0000
0010
1000
0000
0100
0000
0010
,
0001
0011
0001
0101
,
0100
0010
1000
0010
0100
0000
0010
0000
,
1000
0100
0010
0100
1000
0000
0100
0000
,
0020
0032
0203
0320
,
1030
0000
0100
0000
0010
0000
0001
0000
0010
0000
0100
0000
,
1000
0000
0001
0100
0001
0000
1000
0000
,
1001
1010
0110
0100
,
0101
0000
0001
0010
0001
0000
1000
0000
,
0100
0000
1000
0001
1000
0000
0010
0000
,
1010
0000
0010
0100
0010
0000
0100
0000
,
0001
0000
1000
0100
1000
0000
0100
0000
,
1100
0000
0100
0010
0000
0001
0000
0010
,
0100
0000
1000
0000
0010
0000
0100
0001
,
0100
0000
0010
1000
0010
0000
1000
0000
,
0001
1000
0100
0000
1000
0000
1001
0000
,
1000
0000
0010
0100
0010
0000
0100
0000
,
0101
0011
0101
0100
,
0110
0000
0010
1000
0100
0000
0010
0000
,
0001
0000
1000
0001
1000
0000
0001
0000
,
0101
0000
0100
0010
0100
0000
0010
0000
,
1000
0000
0100
1000
0100
0000
0010
0000
,
0011
0000
0001
0100
0000
0010
0000
1000
,
0100
0000
0010
0000
0001
0000
1000
0010
,
1000
0000
0001
0010
0001
0000
1000
0000
,
0100
1000
0001
0000
0010
0001
1000
0000
,
0020
2030
3200
0320
,
0031
0100
0010
0000
1000
0001
0010
0000
,
0002
0203
0320
2030
,
3100
1000
0001
0000
0010
0001
1000
0000
,
0200
2300
3020
0230
,
0301
0000
0010
0100
1000
0000
0010
0100
,
0002
0010
0100
1003
,
0001
1000
0010
0100
0001
0010
0100
0000
,
2002
0000
0000
0000
,
0000
0000
0000
3003
;

//---------------dance-single - ----------------
#NOTES:
     dance-single:
     :
     Easy:
     4:
     0.294,0.316,0.106,0.023,0.000:
0000
0000
0000
0000
,
0000
0000
0000
0000
,
0000
0000
0000
0000
,
0000
0000
0000
0000
,
1000
0001
0010
0001
,
1000
0100
1000
0000
,
0010
0100
0001
0100
,
0010
1000
0001
0000
,
0010
0001
1000
0100
,
1000
0010
0001
0010
,
1000
0100
0010
0001
,
1000
0000
1001
0000
,
1000
0010
0100
0001
,
1000
0100
0010
0001
,
1000
0010
0001
0010
,
1000
0000
1100
0000
,
0100
0010
0001
0010
,
1000
0010
0001
0100
,
0010
1000
0001
0010
,
0001
0000
0101
0000
,
0100
0010
1000
0000
,
0010
0100
0001
0000
,
0010
0100
1000
0001
,
1000
1000
0001
0001
,
1000
0010
1000
0001
,
0010
0001
1000
0000
,
1001
0000
1000
0100
,
0001
0100
1000
0000
,
0010
1000
0100
0010
,
0001
0100
0010
0000
,
1000
0001
0010
1000
,
0010
0000
0011
0000
,
0001
0000
0100
0010
,
1000
0100
1000
0000
,
0001
1000
0010
1000
,
0100
0001
0100
0000
,
1100
0000
0100
0010
,
0001
1000
0010
0000
,
0100
0001
0010
0001
,
0100
0010
1000
0000
,
0100
1000
0001
0010
,
0001
0000
0101
0000
,
0100
0000
0010
1000
,
0100
1000
0001
0000
,
1000
0010
0100
0001
,
1000
0100
0010
0001
,
1000
0010
0001
0010
,
1000
0100
0001
0100
,
1000
0010
0100
0001
,
1000
0100
0010
0001
,
1001
0000
0000
0000
,
1000
1000
0001
0001
,
2002
0000
0000
0000
,
0000
0000
0000
3003
;
