#TITLE:華爛漫 -Flowers-;
#SUBTITLE:;
#ARTIST:TЁЯRA;
#TITLETRANSLIT:HANA RANMAN -Flowers-;
#SUBTITLETRANSLIT:;
#ARTISTTRANSLIT:TERRA;
#CREDIT:;
#BANNER:HANA RANMAN -Flowers-.png;
#BACKGROUND:HANA RANMAN -Flowers--bg.png;
#LYRICSPATH:;
#CDTITLE:;
#MUSIC:HANA RANMAN -Flowers-.mp3;
#OFFSET:-0.060;
#SAMPLESTART:35.225;
#SAMPLELENGTH:17.220;
#SELECTABLE:YES;
#BPMS:0.000=160.000;
#STOPS:;
#BGCHANGES:;

//---------------dance-single - ----------------
#NOTES:
     dance-single:
     :
     Hard:
     8:
     0.658,0.650,0.478,0.243,0.143:
0000
0000
0000
0000
,
0000
0000
0000
0000
,
0000
0000
0000
0000
,
0000
0000
0000
0000
,
2000
3200
0320
0031
,
0101
0110
2010
3001
,
1000
0010
0100
0000
0001
0010
0100
0000
,
1000
0000
0001
0000
0010
0000
0001
0000
1000
0000
0001
1000
0001
0000
1000
0100
,
1000
0000
0001
0010
0100
0000
1000
0010
,
0000
0100
0010
1000
0002
0000
1003
0000
,
0001
0000
0100
0010
1000
0000
0100
0010
,
0000
0001
0100
0010
1010
0000
0101
0000
,
1001
0000
1000
0100
0010
0000
0001
0100
,
0000
0010
1000
0001
1000
1000
0001
0001
,
0100
0000
0010
1000
0100
0000
0010
0001
,
0000
0000
0100
0000
0010
0000
1000
0000
0001
0000
1000
0100
1000
0000
0001
0000
,
0101
1010
1100
0011
,
0001
0000
0100
0010
2000
0000
3001
0000
,
1001
0101
0110
1010
,
0010
1000
0100
1000
0002
0000
1003
0000
,
1001
0101
0110
1010
,
1000
0000
0100
0020
0000
0031
0000
0010
,
0100
0000
1000
0010
0000
0100
0001
0000
,
1000
0010
0100
0001
2000
0000
3001
0000
,
1001
0000
0001
0100
0110
0000
0010
1000
,
0100
0000
0000
0100
1000
0000
0010
0000
0100
0000
0000
0000
0001
0000
0100
0000
,
0110
0000
0010
1000
1100
0000
1000
0001
,
0010
0000
0000
0010
0001
0000
0100
0000
0010
0000
0000
0000
1000
0000
0100
0000
,
0101
0000
1000
0010
0011
0000
0001
0100
,
0010
0000
0000
0010
1000
0000
0100
0000
0010
0000
0000
0000
0001
0000
0100
0000
,
1010
0000
1000
0100
0011
0000
1000
0010
,
0100
0000
0000
0100
0001
0000
0010
0000
0100
0000
0000
0000
1000
0001
1000
0001
,
1000
0000
0020
0100
0130
0000
0002
1000
,
1003
0000
0001
0100
0010
1000
0100
1000
,
0001
0100
0001
0010
0100
1000
0100
0010
,
0001
0000
0000
0000
1100
0000
0000
0000
0101
0000
0000
0000
1000
0001
1000
0001
,
2000
0000
0000
0000
3100
0000
0000
0000
0020
0000
0000
0000
0031
0000
0000
0001
,
0100
0000
0000
0000
0101
0000
0000
0000
2010
0000
0000
0000
3001
0000
0000
0001
,
2000
3010
0102
1003
,
0101
0000
0000
0000
1010
0000
0000
0000
1001
0000
1000
0100
1000
0000
0001
0000
,
0101
0000
0100
0010
1010
0000
1000
0100
,
0010
0001
1000
0001
0200
0000
0310
1000
,
1100
0000
0010
0001
0101
0000
0010
1000
,
0001
0010
0001
0100
0020
0000
1030
0100
,
0011
0000
0001
0100
1010
0000
1000
0100
,
0010
0001
0100
0010
2000
0000
3001
0100
,
1010
0000
1000
0100
0011
0000
1000
0010
,
0100
0000
0001
0000
0010
0000
0100
0000
1000
0000
0000
0000
0001
1000
0001
1000
,
0002
0000
0000
0000
1003
0000
0001
0100
,
0010
0000
1000
0100
0010
0000
0001
0100
,
0010
0000
0000
0010
1000
0000
0100
0000
0010
0000
0000
0000
0001
0000
0100
0000
,
0010
0000
1000
0001
0010
0000
0001
0100
,
0010
0000
0000
0010
1000
0000
0100
0000
0010
0000
0000
0000
0001
0000
0100
0000
,
0010
0000
1000
0100
0001
0000
0100
1000
,
0010
0000
0000
0010
0100
0000
0001
0000
0010
0000
0000
0000
0100
0000
1000
0000
,
0001
0000
0000
0000
0010
0000
0001
0000
0100
0000
0010
1000
0010
1000
0010
0000
,
0100
0000
0000
0100
0001
0000
1000
0000
0200
0000
0000
0000
0310
0000
0001
0000
,
0101
0000
0010
1000
1100
0000
1000
0100
,
0010
0000
0000
0010
0001
0000
0100
0000
0010
0000
0000
0000
1000
0000
0001
0000
,
0101
0000
0001
1000
1100
0000
1000
0100
,
0010
0000
0000
0010
0001
0000
0100
0000
0010
0000
0000
0000
1000
0000
0100
0000
,
0011
0000
0001
0100
1010
0000
1000
0100
,
0010
0000
0000
0010
0001
0000
0100
0000
0010
0000
0000
0000
1000
0000
0001
0000
,
0101
0000
0001
0010
0110
0000
0100
1000
,
0001
0000
1000
0100
1000
0000
0001
0100
0001
0000
1000
0010
1000
0000
0001
0010
,
0002
0000
0010
0013
0000
0100
1000
0001
,
0020
0000
0100
0130
0000
0010
0100
1000
,
0002
0000
0100
0103
0000
0001
0100
0010
,
1000
1010
0001
0101
,
2100
0000
0001
3001
0000
0100
0010
1000
,
0200
0000
0010
0310
0000
0100
1000
0001
,
0020
0000
0001
0031
0000
0010
0100
1000
,
1001
0000
0000
0000
0110
0000
0000
0000
1000
0001
1000
0001
1000
0001
1000
0001
,
1000
0000
0010
1000
0100
1000
0001
0010
,
0001
0100
0010
1000
0002
0000
0003
0000
;

//---------------dance-single - ----------------
#NOTES:
     dance-single:
     :
     Beginner:
     2:
     0.128,0.129,0.000,0.000,0.000: // measure 1
0000
0000
0000
0000
,  // measure 2
0000
0000
0000
0000
,  // measure 3
0000
0000
0000
0000
,  // measure 4
0000
0000
0000
0000
,  // measure 5
1000
0000
0000
0000
,  // measure 6
0001
0000
0001
0000
,  // measure 7
0001
0000
0000
0000
,  // measure 8
0100
0000
0100
0000
,  // measure 9
0100
0000
0000
0000
,  // measure 10
0010
0000
0010
0000
,  // measure 11
0010
0000
0000
0000
,  // measure 12
1000
0000
1000
0000
,  // measure 13
1000
0000
0000
0000
,  // measure 14
0001
0000
0001
0000
,  // measure 15
0001
0000
0000
0000
,  // measure 16
0010
0000
0010
0000
,  // measure 17
0010
0000
0000
0000
,  // measure 18
0100
0000
0100
0000
,  // measure 19
0100
0000
0000
0000
,  // measure 20
1000
0000
1000
0000
,  // measure 21
1000
0000
0000
0000
,  // measure 22
0010
0000
0010
0000
,  // measure 23
0010
0000
0000
0000
,  // measure 24
0100
0000
0100
0000
,  // measure 25
0100
0000
0000
0000
,  // measure 26
0001
0000
0001
0000
,  // measure 27
0001
0000
0000
0000
,  // measure 28
0010
0000
0010
0000
,  // measure 29
0010
0000
0000
0000
,  // measure 30
0100
0000
0100
0000
,  // measure 31
0100
0000
0000
0000
,  // measure 32
1000
0000
1000
0000
,  // measure 33
1000
0000
0000
0000
,  // measure 34
0001
0000
0000
0000
,  // measure 35
0010
0000
0000
0000
,  // measure 36
0100
0000
0100
0000
,  // measure 37
0100
0000
0000
0000
,  // measure 38
1000
0000
0000
0000
,  // measure 39
0001
0000
0000
0000
,  // measure 40
0010
0000
0010
0000
,  // measure 41
0010
0000
0000
0000
,  // measure 42
0001
0000
0001
0000
,  // measure 43
0001
0000
0000
0000
,  // measure 44
1000
0000
1000
0000
,  // measure 45
1000
0000
0000
0000
,  // measure 46
0100
0000
0100
0000
,  // measure 47
0100
0000
0000
0000
,  // measure 48
0010
0000
0010
0000
,  // measure 49
0010
0000
0000
0000
,  // measure 50
0001
0000
0000
0000
,  // measure 51
1000
0000
1000
0000
,  // measure 52
1000
0000
0000
0000
,  // measure 53
0010
0000
0010
0000
,  // measure 54
0010
0000
0000
0000
,  // measure 55
0100
0000
0100
0000
,  // measure 56
0100
0000
0000
0000
,  // measure 57
0001
0000
0001
0000
,  // measure 58
0001
0000
0000
0000
,  // measure 59
0010
0000
0010
0000
,  // measure 60
0010
0000
0000
0000
,  // measure 61
0100
0000
0100
0000
,  // measure 62
0100
0000
0000
0000
,  // measure 63
1000
0000
1000
0000
,  // measure 64
1000
0000
0000
0000
,  // measure 65
0001
0000
0001
0000
,  // measure 66
0001
0000
0000
0000
,  // measure 67
1000
0000
0000
0000
,  // measure 68
0010
0000
0000
0000
,  // measure 69
0100
0000
0100
0000
,  // measure 70
0100
0000
0000
0000
,  // measure 71
0001
0000
0000
0000
,  // measure 72
0010
0000
0000
0000
,  // measure 73
0100
0000
0100
0000
,  // measure 74
0100
0000
0000
0000
,  // measure 75
1000
1000
1000
0000
;

//---------------dance-single - ----------------
#NOTES:
     dance-single:
     :
     Easy:
     4:
     0.310,0.324,0.035,0.017,0.000: // measure 1
0000
0000
0000
0000
,  // measure 2
0000
0000
0000
0000
,  // measure 3
0000
0000
0000
0000
,  // measure 4
0000
0000
0000
0000
,  // measure 5
1000
0100
1000
0001
,  // measure 6
0100
0001
1000
0000
,  // measure 7
0001
0010
0001
1000
,  // measure 8
0010
1000
0001
0000
,  // measure 9
1000
0100
0010
0001
,  // measure 10
0010
0100
1000
0000
,  // measure 11
0010
1000
0001
0100
,  // measure 12
0001
0010
0100
0100
,  // measure 13
1000
0100
0010
0001
,  // measure 14
1000
0010
0100
0000
,  // measure 15
0001
0010
0100
1000
,  // measure 16
0001
0010
0001
0000
,  // measure 17
0100
0100
0010
0010
,  // measure 18
1000
1000
0001
0001
,  // measure 19
1000
1000
0100
0100
,  // measure 20
0010
0001
0100
0000
,  // measure 21
0001
0001
0010
0010
,  // measure 22
0100
0100
1000
1000
,  // measure 23
0010
0100
0001
1000
,  // measure 24
0020
0000
1000
1030
,  // measure 25
0010
1000
0100
1000
,  // measure 26
0001
0010
0001
0000
,  // measure 27
0100
0010
1000
0010
,  // measure 28
0100
0001
0010
0000
,  // measure 29
0100
1000
0001
0010
,  // measure 30
0001
0100
0010
0000
,  // measure 31
1000
0100
0010
0001
,  // measure 32
1000
0010
0100
0001
,  // measure 33
1000
0000
0001
0000
,  // measure 34
0100
0000
0010
0010
,  // measure 35
0010
0000
1000
0000
,  // measure 36
0100
0000
0010
0010
,  // measure 37
0010
0000
0001
0000
,  // measure 38
0100
0000
0001
0001
,  // measure 39
0001
0000
1000
0000
,  // measure 40
0100
0000
1000
1000
,  // measure 41
0001
0010
0001
0100
,  // measure 42
0010
1000
0100
0000
,  // measure 43
1000
0100
0010
0001
,  // measure 44
1000
0010
0100
0000
,  // measure 45
0001
0010
0001
0100
,  // measure 46
0010
1000
0100
0000
,  // measure 47
1000
0100
0010
0001
,  // measure 48
1000
0010
0100
0001
,  // measure 49
2000
0000
3000
0001
,  // measure 50
0100
0000
0010
0000
,  // measure 51
1000
0100
1000
0000
,  // measure 52
0010
0000
0100
0000
,  // measure 53
0001
0010
0001
0000
,  // measure 54
0100
0010
1000
0010
,  // measure 55
0100
0001
0010
0000
,  // measure 56
0100
1000
0001
0010
,  // measure 57
0001
1000
0001
1000
,  // measure 58
1001
1000
0010
0100
,  // measure 59
0010
1000
0100
0000
,  // measure 60
0010
0100
1000
0001
,  // measure 61
0010
0001
0100
0000
,  // measure 62
0010
1000
0100
1000
,  // measure 63
0001
0010
0001
0000
,  // measure 64
0100
0010
1000
0010
,  // measure 65
0100
0100
0001
0001
,  // measure 66
1001
1000
0010
1000
,  // measure 67
0001
0010
0001
0100
,  // measure 68
0010
1000
0100
0010
,  // measure 69
0001
0001
1000
1000
,  // measure 70
1001
1000
0010
0100
,  // measure 71
0010
1000
0100
0010
,  // measure 72
0001
0100
0001
0010
,  // measure 73
0100
0100
1000
1000
,  // measure 74
1100
0000
0100
0000
,  // measure 75
0010
0001
0100
0000
;

//---------------dance-single - ----------------
#NOTES:
     dance-single:
     :
     Medium:
     6:
     0.471,0.453,0.348,0.148,0.000: // measure 1
0000
0000
0000
0000
,  // measure 2
0000
0000
0000
0000
,  // measure 3
0000
0000
0000
0000
,  // measure 4
0000
0000
0000
0000
,  // measure 5
1000
0100
0010
0001
,  // measure 6
0100
0000
0010
1000
0010
0000
0100
0000
,  // measure 7
0101
0001
0010
0100
,  // measure 8
1000
0000
0001
1000
0001
0000
1001
0000
,  // measure 9
1000
0000
0010
0000
0100
0000
0010
1000
,  // measure 10
0000
0100
1000
0000
0002
0000
1003
0000
,  // measure 11
0001
0000
0100
0000
0010
0000
1000
0100
,  // measure 12
0000
0010
0001
0000
0011
0000
1100
0000
,  // measure 13
1000
0000
0010
0000
0100
0000
0001
0010
,  // measure 14
0000
0001
1000
0000
0002
0000
2003
0000
,  // measure 15
3010
0000
1000
0000
0100
0000
0010
0001
,  // measure 16
0000
1000
0001
0000
0100
0000
0001
0000
,  // measure 17
0101
0001
1001
1000
,  // measure 18
1010
0000
0010
0100
0010
0000
1000
0000
,  // measure 19
1001
0001
0011
0010
,  // measure 20
0110
0000
0100
1000
0100
0000
0010
0000
,  // measure 21
0011
0001
0101
0100
,  // measure 22
0110
0000
0010
1000
0000
0001
0000
1000
,  // measure 23
0100
0000
0010
0001
0000
1000
0010
0000
,  // measure 24
0100
0001
1000
0001
,  // measure 25
1001
0100
1001
0010
,  // measure 26
1000
0010
0100
0000
0002
0000
0013
0000
,  // measure 27
0011
0100
1100
1000
,  // measure 28
0010
0100
0001
0000
2000
0000
3001
0000
,  // measure 29
1001
0010
0101
0010
,  // measure 30
0100
1000
0010
0000
0200
0000
0301
0000
,  // measure 31
0101
0010
1010
1000
,  // measure 32
0100
1000
0100
0000
0010
0001
0010
0000
,  // measure 33
0001
0000
0000
0001
0100
0000
0000
0100
,  // measure 34
0010
0000
0000
0010
1000
0000
1000
0000
,  // measure 35
0001
0000
0000
0001
0100
0000
0000
0100
,  // measure 36
0010
0010
1000
1000
,  // measure 37
2001
0000
3002
0000
,  // measure 38
0100
0100
0203
0000
,  // measure 39
0320
0000
2030
3002
,  // measure 40
0100
0000
0100
0000
0103
0000
0001
0100
,  // measure 41
0001
0000
1000
0100
1000
0000
0001
0000
,  // measure 42
0010
0001
0010
0000
0001
0000
0100
0010
,  // measure 43
0100
0000
1000
0100
1000
0000
0001
0100
,  // measure 44
0001
0000
1000
0000
0010
0000
1000
0010
,  // measure 45
1000
0000
0010
0100
0010
0000
0100
0001
,  // measure 46
0100
0000
0001
0000
0010
0000
0100
1000
,  // measure 47
0100
0000
0010
0001
0010
0000
0001
0100
,  // measure 48
0001
0100
0010
1000
,  // measure 49
0002
0000
0003
1000
,  // measure 50
0001
0000
0000
0001
0100
0000
0000
0100
,  // measure 51
0010
1000
0100
0000
,  // measure 52
1000
0000
0000
1000
0100
0000
0000
0100
,  // measure 53
0010
0001
1000
0001
,  // measure 54
1001
1000
1010
0010
,  // measure 55
0100
0000
0001
0010
0100
0000
1000
0000
,  // measure 56
1001
0001
0011
0010
,  // measure 57
0110
0000
0100
1000
0002
0000
1003
0000
,  // measure 58
1001
0100
1001
0010
,  // measure 59
1000
0000
0010
0100
0002
0000
1003
0000
,  // measure 60
0101
0010
1100
0010
,  // measure 61
0001
0000
0100
0010
2000
0000
3001
0000
,  // measure 62
1100
0010
0101
0010
,  // measure 63
1001
0000
1000
0010
0200
0000
0301
0000
,  // measure 64
0011
0100
1100
1000
,  // measure 65
0010
1000
0010
1000
0001
0100
0001
0100
,  // measure 66
0001
0000
0010
0001
0000
0100
0000
0010
,  // measure 67
1000
0000
0100
1000
0000
0001
0000
0010
,  // measure 68
0001
0000
0100
0010
0000
1000
0000
0100
,  // measure 69
0010
0011
0001
0101
,  // measure 70
0110
0000
0010
1000
0000
0010
0000
0100
,  // measure 71
0001
0000
1000
0100
0000
0010
0000
0001
,  // measure 72
0100
0000
0010
1000
0000
0001
0000
1000
,  // measure 73
0100
0010
0001
0000
0100
0010
1000
0000
,  // measure 74
1001
1000
0010
0100
,  // measure 75
0001
0010
0100
1000
0001
0000
0000
0000
;
