#TITLE:GLIDE;
#SUBTITLE:;
#ARTIST:TЁЯRA;
#TITLETRANSLIT:;
#SUBTITLETRANSLIT:;
#ARTISTTRANSLIT:TERRA;
#CREDIT:;
#BANNER:GLIDE.png;
#BACKGROUND:GLIDE-bg.png;
#LYRICSPATH:;
#CDTITLE:;
#MUSIC:GLIDE.mp3;
#OFFSET:-0.380;
#SAMPLESTART:30.325;
#SAMPLELENGTH:14.020;
#SELECTABLE:YES;
#BPMS:0.000=200.000;
#STOPS:;
#BGCHANGES:;

//---------------dance-single - ----------------
#NOTES:
     dance-single:
     :
     Hard:
     9:
     0.763,0.694,0.655,0.266,0.000: // measure 1
1001
0000
0001
1000
0000
0010
1000
0000
,  // measure 2
0100
1000
0000
0001
0010
0001
0100
0000
,  // measure 3
0110
0000
0010
1000
0000
0100
1000
0000
,  // measure 4
0001
0010
0000
0001
0100
0010
1000
0010
,  // measure 5
0000
0100
0001
0010
0000
0100
1000
0000
,  // measure 6
0001
0010
0000
1000
0010
0001
0100
0000
,  // measure 7
0110
0000
0010
1000
0000
0100
1000
0000
,  // measure 8
0001
0010
0000
0001
0100
0010
1000
0001
,  // measure 9
1000
0000
1100
0000
0001
0100
1000
0100
,  // measure 10
0001
0000
0100
0000
1000
0000
0001
0100
,  // measure 11
0020
0000
2030
0000
3100
0000
0010
0100
,  // measure 12
1000
0000
1100
0000
0100
0000
0010
0001
,  // measure 13
0200
0000
0320
0000
1030
0001
1000
0000
,  // measure 14
0101
0000
0100
0000
0010
0000
1000
0100
,  // measure 15
0002
0203
2300
3010
,  // measure 16
0102
1003
2010
3001
,  // measure 17
0012
0000
0103
0001
0100
0010
1000
0000
,  // measure 18
0010
0100
0000
0001
0010
0000
0100
1000
,  // measure 19
0000
0001
0010
0000
0001
0100
1000
0100
,  // measure 20
0001
0010
0000
0100
1000
0000
0010
0100
,  // measure 21
0000
0001
1000
0000
0100
1000
0100
0010
,  // measure 22
0001
0011
0001
0101
,  // measure 23
0100
0110
0010
1010
,  // measure 24
1000
0010
0100
0001
1000
0100
0010
0001
,  // measure 25
0000
1000
0010
0100
0001
0000
1000
0000
,  // measure 26
1100
0000
0100
0010
0000
0001
0010
0100
,  // measure 27
1000
0000
0010
0100
0000
0001
0100
0010
,  // measure 28
1000
0100
1000
0001
0010
0001
0100
0010
,  // measure 29
0110
1010
1100
1001
,  // measure 30
0011
0000
0001
0100
0010
0000
1000
0100
,  // measure 31
0000
0010
0000
0001
1000
0001
0000
0100
,  // measure 32
0010
0000
1000
0100
0000
0010
0000
0001
,  // measure 33
1000
0000
0010
1000
0000
0001
0010
0001
,  // measure 34
0101
0000
0100
0010
0000
1000
0100
0001
,  // measure 35
0100
0000
1000
0010
0000
0100
0001
0010
,  // measure 36
0001
0000
0100
0020
0000
2030
0000
3100
,  // measure 37
0000
0010
0001
0000
0011
0000
0001
0100
,  // measure 38
0000
0010
1000
0000
1001
0000
1000
0010
,  // measure 39
0100
0101
0011
0110
,  // measure 40
1100
0000
1000
0100
0000
0010
0001
0000
,  // measure 41
0100
0010
1000
0010
0100
0001
1000
0100
,  // measure 42
0010
0000
0001
0000
0100
0000
0010
0100
,  // measure 43
0001
0000
0100
0010
0100
0000
0001
0000
,  // measure 44
1000
0000
1100
0000
0100
0000
0010
0001
,  // measure 45
0100
0000
0010
0000
1000
0001
1000
0000
,  // measure 46
0101
0000
0100
0000
0010
0000
1000
0100
,  // measure 47
0002
0203
2300
3010
,  // measure 48
0102
0103
2100
3001
,  // measure 49
1000
0010
0100
0001
1000
0100
0010
0000
,  // measure 50
0011
0000
0010
0000
0110
0000
0100
1000
,  // measure 51
0000
0010
0100
0000
0001
0010
1000
0000
,  // measure 52
1010
0000
0010
0000
0011
0000
0001
0100
,  // measure 53
0000
0010
1000
0000
0100
1000
0001
0000
,  // measure 54
1001
0000
1010
0000
0010
0100
0010
0000
,  // measure 55
0110
0000
0101
0000
0001
0010
0001
0000
,  // measure 56
1000
0010
0100
0001
1000
0100
0010
0001
,  // measure 57
0000
1000
0010
0100
0001
0000
0010
0000
,  // measure 58
0011
0000
0001
0010
0000
0100
1000
0010
,  // measure 59
0100
0000
0001
0010
0000
1000
0010
0001
,  // measure 60
0100
0010
1000
0100
0010
0001
0100
0010
,  // measure 61
1010
0101
0011
1100
,  // measure 62
1001
0000
1000
0010
0100
0000
0001
0010
,  // measure 63
0000
0100
0000
1000
0100
0010
0001
0100
,  // measure 64
0010
0000
1000
0100
0000
0001
0000
0100
,  // measure 65
1000
0000
0010
0100
0000
0001
0010
0100
,  // measure 66
1100
0000
1000
0100
0000
0011
0000
0001
,  // measure 67
0100
0000
0001
1000
0000
0100
1000
0010
,  // measure 68
0100
0000
0001
0020
0000
0230
0000
1300
,  // measure 69
0000
0001
0100
0000
0101
0000
0100
0010
,  // measure 70
0000
1000
0001
0000
0011
0000
0001
0010
,  // measure 71
0100
1000
1010
0110
,  // measure 72
0101
0000
0001
1000
0000
0010
0000
0100
,  // measure 73
0001
0010
0100
1000
0001
0100
0010
1000
,  // measure 74
0001
0000
0011
0000
0001
0010
0100
1000
,  // measure 75
0020
0000
0100
0130
0000
0110
0000
0010
,  // measure 76
1000
0000
0100
1000
0100
0000
1100
0000
,  // measure 77
1000
0000
0010
0100
0010
0000
0110
0000
,  // measure 78
0100
0000
0001
0020
0000
0130
0000
1000
,  // measure 79
0010
1010
0110
0101
,  // measure 80
0011
0000
0001
0010
0100
0000
1100
0000
,  // measure 81
1000
0010
0100
0001
1000
0100
1000
0001
,  // measure 82
0010
0000
0011
0000
0010
0100
1000
0010
,  // measure 83
0100
0000
0001
2000
0000
3001
0100
0000
,  // measure 84
0010
0000
0100
0001
0010
0000
0011
0000
,  // measure 85
0110
0000
0010
0100
1000
0000
0001
0000
,  // measure 86
0101
0000
0100
0020
0000
1030
0000
0010
,  // measure 87
0100
0101
0011
1001
,  // measure 88
0001
0100
0010
1000
0001
0010
0100
1000
,  // measure 89
0020
0230
0302
1003
,  // measure 90
0011
1100
2010
3001
,  // measure 91
0101
0011
0120
0130
,  // measure 92
0010
0001
0100
0010
1000
0000
0001
2002
,  // measure 93
0000
3003
0000
0000
;

//---------------dance-single - ----------------
#NOTES:
     dance-single:
     :
     Beginner:
     2:
     0.149,0.244,0.009,0.000,0.000:
1000
0000
0000
0000
,
0100
0000
0000
0000
,
0010
0000
0000
0000
,
0001
0000
0001
0000
,
0001
0000
0000
0000
,
0100
0000
0000
0000
,
0010
0000
0000
0000
,
1000
0000
1000
0000
,
1000
0000
0000
0000
,
0001
0000
0000
0000
,
0100
0000
0000
0000
,
0010
0000
0000
0000
,
1000
0000
1000
0000
,
1000
0000
0000
0000
,
0100
0000
0000
0000
,
0010
0000
0000
0000
,
0001
0000
0001
0000
,
0001
0000
0000
0000
,
0100
0000
0000
0000
,
0010
0000
0000
0000
,
1000
0000
1000
0000
,
1000
0000
0000
0000
,
0100
0000
0000
0000
,
0010
0000
0000
0000
,
0001
0000
0001
0000
,
0001
0000
0000
0000
,
0100
0000
0000
0000
,
0010
0000
0000
0000
,
1000
0000
1000
0000
,
1000
0000
0000
0000
,
0100
0000
0000
0000
,
1000
0000
0000
0000
,
0001
0000
0001
0000
,
0001
0000
0000
0000
,
0100
0000
0000
0000
,
0010
0000
0000
0000
,
1000
0000
1000
0000
,
1000
0000
0000
0000
,
0100
0000
0000
0000
,
0010
0000
0000
0000
,
0001
0000
0001
0000
,
0001
0000
0000
0000
,
0100
0000
0000
0000
,
0010
0000
0000
0000
,
1000
0000
1000
0000
,
1000
0000
0000
0000
,
0001
0000
0000
0000
,
0100
0000
0000
0000
,
0010
0000
0010
0000
,
0010
0000
0000
0000
,
1000
0000
0000
0000
,
0100
0000
0000
0000
,
0010
0000
0010
0000
,
0010
0000
0000
0000
,
0001
0000
0000
0000
,
0100
0000
0000
0000
,
0010
0000
0010
0000
,
0010
0000
0000
0000
,
1000
0000
0000
0000
,
0001
0000
0000
0000
,
0100
0000
0100
0000
,
0100
0000
0000
0000
,
0010
0000
0000
0000
,
1000
0000
0000
0000
,
0100
0000
0100
0000
,
0100
0000
0000
0000
,
0010
0000
0000
0000
,
0001
0000
0000
0000
,
0100
0000
0100
0000
,
0100
0000
0000
0000
,
0010
0000
0000
0000
,
1000
0000
0000
0000
,
0001
0000
0001
0000
,
0001
0000
0000
0000
,
0100
0000
0000
0000
,
0010
0000
0000
0000
,
1000
0000
1000
0000
,
1000
0000
0000
0000
,
0100
0000
0000
0000
,
0010
0000
0000
0000
,
0001
0000
0001
0000
,
0001
0000
0000
0000
,
0100
0000
0000
0000
,
0010
0000
0000
0000
,
1000
0000
1000
0000
,
1000
0000
0000
0000
,
0001
0000
0000
0000
,
0100
0000
0000
0000
,
0010
0000
0000
0000
,
1000
0000
1000
0000
,
0001
0000
0001
0000
,
0100
0000
0100
0000
,
0110
0000
0000
0000
;

//---------------dance-single - ----------------
#NOTES:
     dance-single:
     :
     Easy:
     4:
     0.376,0.327,0.159,0.009,0.000:
1000
0000
0001
0000
,
0100
0000
0010
1000
,
0100
0000
0010
0000
,
0001
0000
0100
0010
,
1000
0000
0010
0000
,
0100
0000
0001
0010
,
0100
0000
1000
0000
,
0100
0000
0010
0001
,
1000
1000
0001
0001
,
0100
0000
0010
0000
,
1000
0000
0100
1000
,
0100
0000
0010
0000
,
0001
0000
0100
0001
,
0100
0000
0010
0000
,
1000
0000
0001
1000
,
0001
0000
0101
0000
,
1000
0000
1100
0000
,
1000
0000
0000
0100
0000
0000
0010
0000
,
0000
0001
0000
0000
0100
0000
0010
0000
,
1000
0000
0000
0010
0000
0000
0100
0000
,
0000
0001
0000
0000
1000
0000
0100
0000
,
0010
0001
0100
0000
,
0010
1000
0100
0000
,
0010
0001
0100
0010
,
1000
1000
0001
0000
,
1001
1000
0010
0000
,
0100
0001
0010
0000
,
0100
1000
0001
0010
,
0001
0001
1000
1000
,
0010
0100
0001
0000
,
0010
0100
1000
0000
,
0001
0010
0001
0100
,
0010
0010
1000
0000
,
1001
0001
0100
0000
,
0010
1000
0100
0000
,
0010
0001
0100
0010
,
1000
1000
0001
0000
,
1000
0100
0010
0000
,
0001
0100
0010
0000
,
1000
0001
0010
0001
,
1000
1000
0001
0001
,
0101
0000
0100
0000
,
0010
1000
0100
1000
,
0001
0000
0010
0000
,
0001
0100
0010
1000
,
0010
0000
0100
0000
,
0001
0010
0100
1000
,
0001
0001
0100
0000
,
1000
1000
0100
0000
,
1001
0000
1000
0000
,
0010
0100
0001
0010
,
0001
0000
0100
0000
,
0010
1000
0100
1000
,
0001
0000
0101
0000
,
1000
0000
1100
0000
,
0001
0010
0100
1000
,
0010
0010
0100
0000
,
0101
0000
0100
0010
,
0100
0000
0010
1000
,
0100
0010
0001
1000
,
0001
0001
1000
1000
,
0010
0100
0001
0000
,
0010
0100
1000
0000
,
0001
0010
1000
0010
,
0001
0001
1000
0000
,
1001
0000
1000
0010
,
0100
0000
0001
0010
,
0100
0000
1000
0100
,
0010
0001
1000
0010
,
0100
0001
0010
0000
,
0100
1000
0010
0000
,
0100
0001
1000
0010
,
1000
1000
0001
0001
,
0100
0000
0101
0000
,
0001
0100
0010
1000
,
0100
0000
0010
0001
,
0100
0000
0110
0000
,
0010
0000
1000
0000
,
0001
0010
0001
1000
,
0100
0000
1100
0000
,
1000
0100
0010
0001
,
0100
0000
0101
0000
,
0001
0100
0010
1000
,
0001
0000
0010
0001
,
0100
0000
0101
0000
,
0100
0000
0010
0000
,
1000
0100
0010
0001
,
1000
0000
1001
0000
,
1000
0010
0100
0001
,
0010
0000
0110
0000
,
0100
0000
1100
0000
,
1000
0000
0010
0000
0100
0000
0001
0002
,
0000
0003
0000
0000
;

//---------------dance-single - ----------------
#NOTES:
     dance-single:
     :
     Medium:
     7:
     0.696,0.694,0.584,0.390,0.000:
1000
0000
0100
1000
0000
0001
0010
0000
,
0001
0100
0000
0010
1000
0000
1010
0000
,
0010
0000
0100
0001
0000
1000
0100
0000
,
0010
0001
0000
1000
0010
0000
0100
0002
,
0000
0003
0100
0010
0000
1000
0100
0000
,
0010
0001
0000
0100
0010
0000
1010
0000
,
0010
0000
0100
0001
0000
0010
0100
0000
,
1000
0100
0000
0010
0001
0000
1000
0000
,
0001
0101
1000
1100
,
1000
0000
0100
0000
0010
0000
0001
0100
,
0002
0203
0320
1030
,
0001
0000
0011
0000
0010
0000
0100
1000
,
0200
0320
0032
1003
,
0010
0000
1010
0000
0010
0000
0100
0001
,
0020
0230
2300
3001
,
0102
1003
2100
3001
,
1001
0000
1000
0010
0100
0001
0010
0000
,
0100
1000
0000
0010
1000
0000
0100
1000
,
0000
0001
1000
0000
0001
0000
0101
0000
,
0001
0010
0000
0001
0100
0000
0001
1000
,
0000
0010
1000
0000
0100
0000
0010
0000
,
0001
0101
0100
0110
,
0010
1010
1000
1100
,
0010
0001
0010
0000
0100
1000
0100
0000
,
0000
0010
0001
0000
0100
0000
0010
0000
,
0110
0000
0010
1000
0000
0100
1000
0000
,
0001
0000
0010
0001
0000
0100
0001
0000
,
1000
0010
1000
0000
0001
0010
0001
0000
,
1100
0011
0101
1010
,
1001
0000
1000
0010
0100
0000
0001
0010
,
0000
0100
0000
1000
0001
0000
0101
0000
,
0001
0000
0100
0010
0000
1000
0000
0100
,
0010
0000
0001
0010
0000
0100
1000
0000
,
1100
0000
1000
0020
0000
0130
0000
0001
,
0100
0000
0010
2000
0000
3001
1000
0000
,
0010
0000
0100
0001
0000
0010
0000
0100
,
0000
1000
0010
0000
1010
0000
0010
0100
,
0000
0001
1000
0000
1100
0000
0100
0000
,
0010
0002
0203
0310
,
1000
0000
0001
0010
0000
0001
0100
0000
,
0010
0000
1000
0000
0100
0010
0100
0000
,
0110
0000
0100
0000
0010
0000
0001
0100
,
0002
0203
0320
1030
,
1001
0000
1000
0000
1100
0000
1000
0100
,
0020
0032
0203
0310
,
0110
0000
0010
0000
1000
0000
0001
0010
,
0002
0203
0320
1030
,
0102
1003
2100
3001
,
2010
0000
3001
0000
1000
0010
0100
0000
,
0101
0000
0001
0000
0011
0000
0010
0100
,
0000
0010
0100
0000
1000
0000
0001
0000
,
0101
0000
1000
0000
1100
0000
1000
0100
,
0000
0010
0001
0000
0100
0000
0010
0000
,
2010
0010
0100
3001
,
0102
0010
0100
1003
,
0001
0100
0001
0000
1000
0100
1000
0000
,
0000
0001
0100
0000
0010
0000
1000
0000
,
1001
0000
1000
0010
0000
1000
0001
0000
,
0010
0000
0001
0100
0000
0010
1000
0000
,
0001
0100
0001
0000
1000
0100
1000
0000
,
1100
0011
0101
1010
,
1001
0000
0001
0010
0001
0000
0100
0020
,
0000
1030
0000
0010
0100
0000
0001
0000
,
0101
0000
0001
0020
0000
0130
0000
1000
,
0100
0000
0010
0001
0000
0100
0010
0000
,
1010
0000
0010
0200
0000
0301
0000
0100
,
0010
0000
1000
0002
0000
1003
0010
0000
,
1000
0000
0001
0020
0000
0031
0000
0100
,
0000
0010
1000
0000
1010
0000
0010
0100
,
0000
0001
1000
0000
1100
0000
0100
0010
,
0100
0110
0011
0101
,
0110
0000
0010
1000
0000
0010
0000
0100
,
0001
0000
1000
0100
0000
0010
0001
0000
,
1000
0000
1010
0000
0010
0000
0100
0001
,
0100
0000
0001
0010
0000
0100
1000
0000
,
0001
0000
0100
0010
1000
0000
1010
0000
,
1000
0000
0100
0010
0001
0000
0011
0000
,
0001
0000
0100
0010
0000
1000
0000
0010
,
0100
0001
0010
0100
,
1000
0000
0001
1000
0001
0000
1001
0000
,
0001
0000
0100
0020
0000
1030
0000
0010
,
0100
0000
0101
0000
0001
0010
0001
0000
,
0010
0000
0100
1000
0000
0100
0010
0000
,
0001
0000
0100
0001
0100
0000
1010
0000
,
1000
0000
0100
1000
0100
0000
0011
0000
,
0001
0000
0100
0020
0000
1030
0000
0001
,
0020
0230
2300
3010
,
0100
0001
0100
0000
0010
1000
0010
0000
,
2000
3200
0320
0031
,
0011
0110
1100
1010
,
0110
0101
0110
1010
,
1000
0001
0010
0000
0001
0000
1000
0020
,
0000
0030
0000
0000
;
