#TITLE:Foundation Of You (DJ Command mix);
#SUBTITLE:;
#ARTIST:水橋舞;
#TITLETRANSLIT:;
#SUBTITLETRANSLIT:;
#ARTISTTRANSLIT:Mai Mizuhashi;
#CREDIT:;
#BANNER:Foundation Of You (DJ Command mix).png;
#BACKGROUND:Foundation Of You (DJ Command mix)-BG.png;
#LYRICSPATH:;
#CDTITLE:;
#MUSIC:Foundation Of You (DJ Command mix).mp3;
#OFFSET:-0.141;
#SAMPLESTART:12.545;
#SAMPLELENGTH:15.620;
#SELECTABLE:YES;
#BPMS:0.000=154.000,160.000=77.000,176.000=154.000;
#STOPS:;
#BGCHANGES:;

//---------------dance-single - ----------------
#NOTES:
     dance-single:
     :
     Hard:
     9:
     0.646,0.757,0.190,0.208,0.428: // measure 1
0000
0000
0000
0000
,  // measure 2
0000
0000
0000
0000
,  // measure 3
0000
0000
0000
0000
,  // measure 4
0000
0000
0000
0000
,  // measure 5
1000
0100
1000
0000
0001
0000
0010
0000
0001
0100
0001
0000
0100
0000
0000
0000
,  // measure 6
0010
1000
0010
0000
0100
0000
0001
0000
1000
0100
1000
0000
0001
0000
0000
0000
,  // measure 7
0010
0001
0100
0010
1000
0100
0010
0001
,  // measure 8
2002
0000
0000
0000
3003
0000
1000
0100
,  // measure 9
0110
0000
0011
0000
0001
0200
0000
0310
,  // measure 10
1000
0001
0000
0010
0000
0001
0000
1000
0100
0000
1000
0000
0001
0000
1000
0000
,  // measure 11
1001
0000
0101
0000
0100
0020
0000
1030
,  // measure 12
0010
0100
0000
0001
0000
1000
0000
0100
0010
0000
0001
0000
0100
0000
0010
0000
,  // measure 13
1000
0000
0100
0000
0010
0001
0000
0010
0001
0000
0010
0000
0100
0000
0100
0000
,  // measure 14
1000
0001
0100
0001
1000
0100
1000
0010
,  // measure 15
0100
0001
0100
0001
0100
0000
0000
0000
0010
0000
2000
0000
0000
0000
3001
0000
,  // measure 16
0010
0001
0000
1000
0000
0100
0000
1000
0001
0000
0100
0000
0010
0000
0000
0000
,  // measure 17
0110
0000
1001
0000
0001
0200
0000
0310
,  // measure 18
1000
0001
0000
0010
0000
0001
0000
1000
0100
0000
1000
0000
0001
0000
1000
0000
,  // measure 19
1001
0000
0101
0000
0100
0020
0000
1030
,  // measure 20
0010
0100
0000
0001
0000
1000
0000
0100
1000
0000
0001
0000
1000
0000
0010
0000
,  // measure 21
1000
0000
0100
0000
0010
0001
0000
0010
0001
0000
0010
0000
0100
0000
0100
0000
,  // measure 22
1000
0001
0100
0001
1000
0100
1000
0010
,  // measure 23
0100
0001
0100
0001
0100
0000
0000
0000
0010
0000
2000
0000
0000
0000
3001
0000
,  // measure 24
0010
0001
0000
1000
0000
0100
0000
1000
0001
0000
0100
0000
0010
0000
1000
0000
,  // measure 25
1001
0000
0001
0010
0000
1000
0000
0010
,  // measure 26
0002
0000
0100
0000
1003
0001
1000
0010
,  // measure 27
1000
0100
0010
0001
0000
0100
0000
0010
,  // measure 28
2000
0000
0000
0000
3010
0000
0000
0000
1000
0000
0000
0010
0000
0000
0100
0000
,  // measure 29
0101
0000
0001
0010
0100
0000
1100
0000
,  // measure 30
0200
0000
0010
0000
0301
0100
1000
0010
,  // measure 31
0200
0001
0010
0301
,  // measure 32
0100
0000
0010
0000
1000
0000
0010
0000
0100
0001
0000
0001
0010
0000
0100
0000
,  // measure 33
1100
0000
0100
0010
0000
0001
0000
1000
,  // measure 34
0020
0000
1000
0000
0130
0010
1000
0100
,  // measure 35
0010
0000
0001
1000
0000
0010
0000
1000
,  // measure 36
0002
0000
0000
0000
0103
0000
0000
0000
0001
0000
0000
0100
0000
0000
0010
0000
,  // measure 37
1010
0000
1000
0100
0001
0000
0101
0000
,  // measure 38
0100
0000
1000
0010
0000
0100
0001
0010
,  // measure 39
1000
0010
1000
0000
0010
0000
0001
0000
0100
0001
0100
0000
0010
0000
1000
0000
,  // measure 40
0100
1000
0100
0000
0010
0000
0001
0000
0011
0000
0000
0000
0101
0000
0000
0000
,  // measure 41
1000
0000
0100
0000
1000
0000
0001
0000
0020
0000
0000
0000
0000
0000
0000
0000
0130
0000
0000
0000
0000
0000
0000
0000
1000
0000
0000
0100
0000
0000
0010
0000
,  // measure 42
0001
0000
1000
0100
1000
0001
0000
0000
0010
0000
0100
2000
0000
0000
3001
0000
,  // measure 43
0200
0000
0001
0000
0000
0001
0000
0000
0001
0000
0000
0001
0000
0000
0301
0000
2000
0000
0010
0000
0000
0010
0000
0000
0010
0000
0000
0010
0000
0000
3010
0000
,  // measure 44
1000
0001
0000
0010
0000
0100
0000
1000
0000
0010
0000
0100
0001
0000
0101
0000
,  // measure 45
0100
0010
1000
0100
2000
0000
3001
1000
,  // measure 46
1020
0000
0000
0000
1030
0000
0000
0000
0010
0000
0000
0100
0000
0000
0001
0000
,  // measure 47
0020
0000
0130
1000
0002
0000
0013
0001
,  // measure 48
0100
0000
0010
0000
1000
0000
0001
0000
1000
0000
0100
0000
0010
0001
0010
0001
,  // measure 49
1000
0010
0100
0001
1000
0100
0010
0001
,  // measure 50
1000
0010
0001
0010
1000
0100
0001
0100
,  // measure 51
1000
0010
1000
0000
0001
0000
0010
0000
0001
0100
0001
0000
0100
0000
0010
0000
,  // measure 52
1000
0000
0100
0000
0010
0001
0000
0010
0100
0000
1000
0000
1001
0000
0000
0000
,  // measure 53
1000
0000
0000
0100
0000
1000
0100
0000
0010
0000
0001
0000
1000
0000
0010
0000
,  // measure 54
0100
0000
0000
0001
0000
0100
0001
0000
0100
0000
0010
0000
1000
0000
0100
0000
,  // measure 55
0010
0000
0000
0001
0000
0000
0100
0000
0010
0000
1000
0000
0001
1000
0000
0001
,  // measure 56
1000
1000
0010
0010
0100
0100
0001
0001
,  // measure 57
0010
0000
0000
0100
0000
1000
0100
0000
0010
0000
0001
0000
0100
0000
0010
0000
,  // measure 58
1000
0000
0000
0001
0000
0010
0001
0000
1000
0000
0100
0000
1000
0000
0001
0000
,  // measure 59
0100
0000
0000
0010
0000
0000
1000
0000
0100
0000
0010
0000
0001
1000
0000
0001
,  // measure 60
1000
1000
0100
0100
0010
0010
0001
0001
,  // measure 61
1001
0000
0000
1000
0000
0001
0010
0000
0100
0000
1000
0000
0001
0000
0100
0000
,  // measure 62
0010
0000
0000
1000
0000
0010
1000
0000
0010
0000
0100
0000
0001
0000
0010
0000
,  // measure 63
0100
0000
0000
1000
0000
0000
0010
0000
0100
0000
0001
0000
1000
0001
0000
1000
,  // measure 64
0001
0001
0100
0100
0010
0010
1000
1000
,  // measure 65
0100
0000
0000
0010
0000
0001
0010
0000
0100
0000
1000
0000
0010
0000
0100
0000
,  // measure 66
0001
0000
0000
1000
0000
0100
1000
0000
0001
0000
0010
0000
0001
0000
1000
0000
,  // measure 67
0010
0000
0000
0100
0000
0000
0001
0000
0010
0000
0100
0000
1000
0001
0000
1000
,  // measure 68
0001
0001
0010
0010
0100
0100
1000
1000
,  // measure 69
2002
0000
0000
0000
,  // measure 70
0000
0000
0000
0000
,  // measure 71
3003
0000
0000
0000
;

//---------------dance-single - ----------------
#NOTES:
     dance-single:
     :
     Beginner:
     1:
     0.107,0.176,0.009,0.009,0.000:
0000
0000
0000
0000
,
0000
0000
0000
0000
,
0000
0000
0000
0000
,
0000
0000
0000
0000
,
1000
0000
0000
0000
,
0001
0000
0000
0000
,
0010
0000
0010
0000
,
0020
0000
0000
0030
,
0100
0000
0000
0000
,
1000
0000
1000
0000
,
1000
0000
0000
0000
,
0001
0000
0001
0000
,
0001
0000
0000
0000
,
0100
0000
0000
0000
,
0010
0000
0000
0000
,
1000
0000
1000
0000
,
1000
0000
0000
0000
,
0001
0000
0001
0000
,
0001
0000
0000
0000
,
0010
0000
0010
0000
,
0010
0000
0000
0000
,
0100
0000
0000
0000
,
1000
0000
0000
0000
,
0001
0000
0001
0000
,
0001
0000
0000
0000
,
1000
0000
0000
0000
,
0010
0000
0000
0000
,
0100
0000
0000
0000
,
0001
0000
0000
0000
,
0010
0000
0000
0000
,
0100
0000
0000
0000
,
1000
0000
1000
0000
,
1000
0000
0000
0000
,
0010
0000
0000
0000
,
1000
0000
0000
0000
,
0001
0000
0000
0000
,
0010
0000
0000
0000
,
0001
0000
0000
0000
,
0100
0000
0000
0000
,
0010
0000
0010
0000
,
0010
0000
1000
0000
,
0100
0000
0010
0000
,
0001
0000
1000
0000
,
0010
0000
1000
1000
,
1000
0000
0000
0000
,
0001
0000
0000
0000
,
0010
0000
0000
0000
,
0001
0000
0001
0000
,
0001
0000
0000
0000
,
0100
0000
0000
0000
,
0010
0000
0000
0000
,
1000
0000
1000
0000
,
1000
0000
0000
0000
,
0100
0000
0000
0000
,
0010
0000
0000
0000
,
0001
0000
0001
0000
,
0001
0000
0000
0000
,
0100
0000
0000
0000
,
0010
0000
0000
0000
,
1000
0000
1000
0000
,
1000
0000
0000
0000
,
0100
0000
0000
0000
,
0001
0000
0000
0000
,
0100
0000
0100
0000
,
0100
0000
0000
0000
,
1000
0000
0000
0000
,
0010
0000
0000
0000
,
0100
0000
0100
0000
,
1001
0000
0000
0000
;

//---------------dance-single - ----------------
#NOTES:
     dance-single:
     :
     Easy:
     4:
     0.296,0.323,0.052,0.017,0.000:
0000
0000
0000
0000
,
0000
0000
0000
0000
,
0000
0000
0000
0000
,
0000
0000
0000
0000
,
1000
0100
1000
1000
,
0001
0100
0001
0001
,
1000
0010
0100
0001
,
2002
0000
3003
1000
,
1001
0001
0010
0000
,
0001
0001
0100
0100
,
0010
1000
0100
0000
,
1000
1000
0001
0001
,
0010
0001
0100
0001
,
0010
0100
1000
0100
,
0010
0001
1000
0000
,
0010
1000
0100
0010
,
0011
0001
0100
0000
,
0010
0010
1000
1000
,
0100
1000
0001
0000
,
0010
0010
0001
0001
,
0100
0010
1000
0010
,
0100
0001
0010
0100
,
1000
1000
0001
0000
,
1000
0010
0100
0001
,
1001
0001
0100
0010
,
1000
0000
0100
0000
,
1000
0100
0010
0001
,
1000
0000
0010
1000
,
0001
0100
0001
0000
,
0010
0000
0100
1000
,
0100
0000
0010
0000
,
0001
1000
0010
0000
,
1000
0010
0100
0001
,
1000
0000
0100
0000
,
1000
0100
0010
0001
,
0100
0000
0010
1000
,
0001
0100
0001
0000
,
0010
0000
0100
1000
,
0100
0100
0010
0010
,
0001
1000
0010
1000
,
0001
0010
0100
1000
,
0010
0100
0001
1000
,
0010
1000
0100
0010
,
0001
0100
0010
1000
,
0001
1000
0100
0000
,
1000
0000
0100
0010
,
0001
0000
0100
0000
,
0010
1000
0100
1000
,
0001
0010
1000
0010
,
0001
0100
0010
1000
,
0100
0010
0001
1000
,
0010
0100
0001
0101
,
0001
0100
0010
0010
,
1000
0100
0010
0010
,
0001
1000
0010
1000
,
0001
0001
1000
1000
,
0100
1000
0010
0010
,
0100
0001
0010
0010
,
0100
1000
0001
0010
,
0001
0001
1000
1000
,
0010
1000
0100
0100
,
0010
0001
0100
0100
,
0010
1000
0001
0010
,
0001
0001
1000
1000
,
0100
1000
0010
0010
,
0100
0001
0010
0010
,
0100
1000
0001
0010
,
0001
0001
1000
1000
,
1001
0000
0000
0000
;

//---------------dance-single - ----------------
#NOTES:
     dance-single:
     :
     Medium:
     5:
     0.399,0.412,0.104,0.017,0.000:
0000
0000
0000
0000
,
0000
0000
0000
0000
,
0000
0000
0000
0000
,
0000
0000
0000
0000
,
1000
0000
0001
0000
0100
0001
0100
0000
,
0010
0000
1000
0000
0100
0010
0100
0000
,
0010
0001
0100
0010
,
2002
0000
0000
0000
3003
0000
1000
0001
,
1000
0000
0001
0000
0100
0001
0000
1000
,
0100
0100
1000
1000
,
0010
0000
1000
0000
0001
0010
0000
0001
,
0010
0010
0001
0001
,
0100
0000
0010
0000
1000
0000
0001
0100
,
0001
0001
1000
1000
,
0100
1000
0100
0000
0010
0001
0000
0000
,
1000
0010
1000
0000
0001
0010
0001
0000
,
1001
0000
1000
0000
0100
1000
0000
0000
,
0001
0100
0001
0000
1000
0010
1000
0000
,
0001
0000
0010
0000
0001
0100
0000
0000
,
0010
1000
0010
0000
1000
0100
1000
0000
,
0100
0010
0001
1000
,
0010
1000
0010
0000
0100
0001
0100
0000
,
0010
0000
1000
0000
0001
0010
0000
0001
,
0010
0000
0100
0000
1000
0001
1000
0000
,
1001
0000
1000
0000
0010
0000
0100
0001
,
0100
0010
1000
1100
,
0100
0000
0010
0000
0001
0000
1000
0010
,
1000
0001
0100
0101
,
0100
0001
0010
0100
,
1000
0000
0100
0000
0010
0000
0001
1000
,
0001
0100
0010
1000
,
0100
1000
0100
0000
0010
0000
0001
0000
,
1001
0000
0001
0000
0100
0000
0010
1000
,
0010
0100
0001
0101
,
0001
0000
0100
0000
0010
0000
1000
0100
,
1000
0100
0010
0011
,
0001
0100
0010
1000
,
0100
1000
0001
0010
,
0001
0100
0001
0000
1000
0100
1000
0000
,
0001
0000
0100
0010
1000
0000
0001
0000
,
1001
1000
0100
0000
0010
0000
0001
0100
,
0010
0100
0001
0000
0010
0100
1000
0000
,
0100
0010
0001
1000
,
0010
0000
0100
0000
0001
0000
1000
0001
,
1000
0010
1000
0000
0010
0000
0100
0000
,
0101
0000
0001
0000
0010
0000
0100
1000
,
0100
0000
0010
0001
0010
0000
0001
0100
,
0001
0100
0010
1000
,
1001
0000
1000
0000
0100
0000
0010
0001
,
0010
0001
0100
0010
,
1000
0001
0010
0001
,
1000
0100
1000
0100
0000
0010
0001
0000
,
1000
0000
0010
0000
1000
0001
1000
0000
,
0001
0000
0100
0000
0010
1000
0010
0000
,
1000
0100
0010
0001
,
1000
0010
1000
0000
0001
0100
0001
0000
,
1000
0000
0100
0000
0001
0000
0100
1000
,
0100
0000
0001
0000
0100
0000
0010
1000
,
0010
1000
0100
0010
,
0001
0100
0001
0000
1000
0100
1000
0000
,
0001
0000
0100
0000
0001
1000
0001
0000
,
1000
0000
0010
0000
0100
0001
0100
0000
,
0001
0010
0100
1000
,
0001
0100
0001
0000
1000
0010
1000
0000
,
0001
0000
0010
0000
1000
0000
0010
0001
,
0010
0000
1000
0000
0010
0000
0100
0001
,
0100
0001
0010
0100
,
1000
0010
1000
0000
0001
0010
0001
0000
,
1001
0000
0000
0000
;
