#TITLE:FLY AGAIN;
#SUBTITLE:;
#ARTIST:G☆RACE;
#TITLETRANSLIT:;
#SUBTITLETRANSLIT:;
#ARTISTTRANSLIT:G*RACE;
#CREDIT:;
#BANNER:FLY AGAIN.png;
#BACKGROUND:FLY AGAIN-bg.png;
#LYRICSPATH:;
#CDTITLE:;
#MUSIC:FLY AGAIN.mp3;
#OFFSET:-0.712;
#SAMPLESTART:63.285;
#SAMPLELENGTH:16.440;
#SELECTABLE:YES;
#BPMS:0.000=145.000;
#STOPS:;
#BGCHANGES:;

//---------------dance-single - ----------------
#NOTES:
     dance-single:
     :
     Hard:
     7:
     0.512,0.500,0.250,0.214,0.263:
0000
0000
0000
0000
,
0000
0000
0000
0000
,
0000
0000
0000
0000
,
0000
0000
0000
0000
,
0000
0000
0000
0000
,
0000
0000
0000
0000
,
0000
0000
0000
0000
,
0000
0000
0000
0000
,
1002
0000
0000
0000
0010
0000
0000
0000
0100
0000
0000
0000
1003
0000
0000
1000
,
0020
0000
0000
0000
0100
0000
0000
0000
1030
0000
0000
0000
0001
1000
0001
1000
,
0002
0000
0000
0000
0103
0000
0000
0000
0020
0000
0000
0000
1030
0000
0000
0001
,
0100
0010
1000
0010
0100
0001
0010
0100
,
1000
0000
0001
0100
0010
0000
0000
0000
0000
0000
0000
0000
0000
0000
0000
0000
,
1000
0000
0001
0000
0100
0000
0000
0000
0010
1000
0000
0010
0000
0000
0100
0000
,
0000
0001
0000
0000
0010
0000
0000
0000
0100
1000
0000
0010
0000
0000
0100
0000
,
0001
0000
1000
0000
0100
0000
0000
0000
1000
0010
0000
0100
0000
0000
0001
0000
,
0000
1000
0000
0000
0100
0000
0000
0000
0010
0001
0000
1000
0000
0000
0010
0000
,
0110
0000
0100
0000
0001
0000
0000
0000
0010
0100
0000
1000
0000
0000
0100
0000
,
0000
0010
0000
0000
0001
0000
0000
0000
0100
0010
0000
1000
0000
0000
0010
0000
,
0100
0000
0001
0000
1000
0000
0000
0000
0100
1000
0000
0010
0000
0000
1000
0000
,
0000
0001
0000
0000
0100
0000
0000
0000
0010
1000
0000
0010
0000
0000
0100
0000
,
0000
0101
0000
0000
1010
0000
0000
0000
1000
0001
0000
1000
0001
0000
1000
0000
,
0010
0100
0001
0100
0010
1000
0000
1001
,
0000
0001
0010
0000
0100
1000
0010
0100
,
0001
0000
1000
0000
0000
0010
0000
0000
0100
0001
0000
0100
0000
0000
0020
0000
,
0000
2030
0000
3002
0000
1000
1003
0000
,
1001
0000
1010
0000
0110
0000
0100
0002
,
0000
0010
0013
0000
0011
0000
0001
0010
,
0100
0000
1000
0000
0000
0010
0000
0000
0100
0001
0000
1000
0000
0000
0002
0000
,
0000
0000
0100
0000
0103
0000
0000
0000
0101
0000
0000
0100
0010
0000
1000
0000
,
0001
0000
1000
0100
0000
0010
0001
0100
,
0001
0000
0010
0100
1000
0010
0000
0100
,
0001
0000
1000
0000
1001
0000
1000
0010
,
0100
0000
0000
0000
0001
0000
0000
0000
0010
0100
0000
0010
0100
0000
1000
0000
,
0010
0100
0001
2000
0000
0001
3001
1000
,
0020
0000
0100
0130
0000
0110
0000
0010
,
1000
0100
0001
0100
1000
0010
0001
0010
,
2002
0000
0000
3003
1000
0010
0100
0001
,
1000
0000
0001
0020
0000
0001
0000
0130
,
0000
0010
0001
0200
0000
0010
0310
1000
,
0001
0000
1000
0200
0000
0310
0000
0001
,
1000
0000
1010
0000
0110
0000
0100
0002
,
0000
0010
0013
0000
0001
0010
0100
1000
,
0010
0000
1010
0000
0010
0100
0001
1000
,
0001
0000
0110
0000
2001
0000
3001
0002
,
0000
0000
0013
0000
0010
0000
0000
0000
0100
0000
0000
1000
0000
0000
0010
0000
,
0210
0000
0010
0000
0301
0000
0100
0010
,
2000
0000
0010
0000
3001
0000
1000
0010
,
0100
0000
0001
0020
0000
0130
0000
1000
,
0001
0000
1001
0000
0101
0000
0100
0020
,
0000
1000
1030
0000
1010
0000
0010
1000
,
0000
0100
0010
0001
0100
0010
1000
0001
,
1000
0100
0010
0001
1000
0010
0100
0001
,
1000
0010
0000
0210
0000
0301
0100
0010
,
1000
0000
0001
0000
0100
0000
0000
0000
0010
1000
0000
0010
0000
0000
0100
0000
,
0000
0001
0000
0000
0010
0000
0000
0000
0100
1000
0000
0010
0000
0000
0100
0000
,
0001
0000
1000
0000
0100
0000
0000
0000
1000
0010
0000
0100
0000
0000
0001
0000
,
0000
1000
0000
0000
0100
0000
0000
0000
0010
0001
0000
1000
0000
0000
0010
0000
,
0110
0000
0100
0000
0001
0000
0000
0000
0010
0100
0000
1000
0000
0000
0100
0000
,
0000
0010
0000
0000
0001
0000
0000
0000
0100
0010
0000
1000
0000
0000
0010
0000
,
0100
0000
0001
0000
1000
0000
0000
0000
0100
1000
0000
0010
0000
0000
1000
0000
,
0000
0001
0000
0000
0100
0000
0000
0000
0010
1000
0000
0010
0000
0000
0100
0000
,
0001
0101
1000
1100
,
0001
0011
1000
1010
,
0001
0010
0100
1000
0010
0100
0001
1000
,
0010
0000
1000
0000
0100
0000
1000
0000
0010
0000
0100
0000
0001
0000
0100
0010
;

//---------------dance-single - ----------------
#NOTES:
     dance-single:
     :
     Beginner:
     1:
     0.093,0.117,0.000,0.000,0.000: // measure 1
0000
0000
0000
0000
,  // measure 2
0000
0000
0000
0000
,  // measure 3
0000
0000
0000
0000
,  // measure 4
0000
0000
0000
0000
,  // measure 5
0000
0000
0000
0000
,  // measure 6
0000
0000
0000
0000
,  // measure 7
0000
0000
0000
0000
,  // measure 8
0000
0000
0000
0000
,  // measure 9
1000
0000
0000
0000
,  // measure 10
0001
0000
0000
0000
,  // measure 11
0010
0000
0000
0000
,  // measure 12
0100
0000
0000
0000
,  // measure 13
1000
0000
0000
0000
,  // measure 14
0001
0000
0000
0000
,  // measure 15
0010
0000
0010
0000
,  // measure 16
0010
0000
0000
0000
,  // measure 17
0100
0000
0100
0000
,  // measure 18
0100
0000
0000
0000
,  // measure 19
1000
0000
1000
0000
,  // measure 20
1000
0000
0000
0000
,  // measure 21
0001
0000
0001
0000
,  // measure 22
0001
0000
0000
0000
,  // measure 23
0010
0000
0000
0000
,  // measure 24
0100
0000
0000
0000
,  // measure 25
1000
0000
0000
0000
,  // measure 26
0001
0000
0001
0000
,  // measure 27
0001
0000
0000
0000
,  // measure 28
1000
0000
0000
0000
,  // measure 29
0010
0000
0000
0000
,  // measure 30
0100
0000
0100
0000
,  // measure 31
0100
0000
0000
0000
,  // measure 32
0001
0000
0000
0000
,  // measure 33
0010
0000
0010
0000
,  // measure 34
0010
0000
0000
0000
,  // measure 35
0001
0000
0000
0000
,  // measure 36
0100
0000
0000
0000
,  // measure 37
0010
0000
0000
0000
,  // measure 38
1000
0000
1000
0000
,  // measure 39
1000
0000
0000
0000
,  // measure 40
0001
0000
0000
0000
,  // measure 41
0010
0000
0000
0000
,  // measure 42
0001
0000
0000
0000
,  // measure 43
0100
0000
0000
0000
,  // measure 44
0010
0000
0000
0000
,  // measure 45
1000
0000
0000
0000
,  // measure 46
0001
0000
0001
0000
,  // measure 47
0001
0000
0000
0000
,  // measure 48
1000
0000
0000
0000
,  // measure 49
0100
0000
0100
0000
,  // measure 50
0100
0000
0000
0000
,  // measure 51
1000
0000
0000
0000
,  // measure 52
0010
0000
0000
0000
,  // measure 53
0100
0000
0000
0000
,  // measure 54
0001
0000
0001
0000
,  // measure 55
0001
0000
0000
0000
,  // measure 56
1000
0000
0000
0000
,  // measure 57
0010
0000
0000
0000
,  // measure 58
0100
0000
0100
0000
,  // measure 59
0100
0000
0000
0000
,  // measure 60
0001
0000
0000
0000
,  // measure 61
0010
0000
0000
0000
,  // measure 62
0100
0000
0100
0000
,  // measure 63
0100
0000
0000
0000
,  // measure 64
1000
0000
0000
0000
,  // measure 65
0010
0000
0000
0000
,  // measure 66
0100
0000
0001
0001
;

//---------------dance-single - ----------------
#NOTES:
     dance-single:
     :
     Easy:
     3:
     0.254,0.264,0.018,0.000,0.000: // measure 1
0000
0000
0000
0000
,  // measure 2
0000
0000
0000
0000
,  // measure 3
0000
0000
0000
0000
,  // measure 4
0000
0000
0000
0000
,  // measure 5
0000
0000
0000
0000
,  // measure 6
0000
0000
0000
0000
,  // measure 7
0000
0000
0000
0000
,  // measure 8
0000
0000
0000
0000
,  // measure 9
1000
1000
1000
1000
,  // measure 10
0001
0001
0001
0001
,  // measure 11
0010
0010
0010
0010
,  // measure 12
0100
0100
0100
0100
,  // measure 13
1000
0001
0000
0000
,  // measure 14
1000
0010
0100
0001
,  // measure 15
1000
0100
0010
0001
,  // measure 16
1000
0010
0001
0010
,  // measure 17
1000
0100
0001
0100
,  // measure 18
1000
0010
0100
0001
,  // measure 19
1000
0100
0010
0001
,  // measure 20
1000
0100
0001
0100
,  // measure 21
1000
0010
0001
0010
,  // measure 22
1000
1000
0001
0001
,  // measure 23
1000
0000
0001
0000
,  // measure 24
0010
0010
0001
0001
,  // measure 25
0100
0000
0010
0000
,  // measure 26
1000
1000
0100
0100
,  // measure 27
0010
0000
0001
0000
,  // measure 28
1000
1000
0001
0001
,  // measure 29
0010
0000
0001
0000
,  // measure 30
0100
0100
0010
0010
,  // measure 31
1000
0000
1100
0000
,  // measure 32
0001
0000
0101
0000
,  // measure 33
1000
1000
0001
0001
,  // measure 34
0010
0000
0001
0000
,  // measure 35
0100
0010
0100
0000
,  // measure 36
0010
1000
0010
0000
,  // measure 37
1000
1000
0001
0001
,  // measure 38
0010
0000
0001
0000
,  // measure 39
1000
0010
0100
0010
,  // measure 40
1000
0000
0010
0000
,  // measure 41
0100
0001
0010
0001
,  // measure 42
0100
0100
0001
0001
,  // measure 43
0010
0100
1000
0000
,  // measure 44
0010
0100
0001
0000
,  // measure 45
1000
0010
0100
0000
,  // measure 46
0001
0001
1000
1000
,  // measure 47
0010
0000
1000
0000
,  // measure 48
0100
0000
0010
0000
,  // measure 49
0001
0010
0100
1000
,  // measure 50
0010
0010
0100
0100
,  // measure 51
0001
0010
0100
0000
,  // measure 52
1000
0001
0010
0001
,  // measure 53
1000
1000
0010
0000
,  // measure 54
0100
0001
0010
0100
,  // measure 55
1000
0001
0010
0100
,  // measure 56
1000
0010
0100
0001
,  // measure 57
1000
0010
0001
0010
,  // measure 58
1000
0100
0001
0100
,  // measure 59
1000
0010
0100
0001
,  // measure 60
0010
0100
1000
0001
,  // measure 61
0010
0001
0100
0001
,  // measure 62
0010
0100
1000
0100
,  // measure 63
0010
0000
0010
0000
,  // measure 64
0001
0000
0001
0000
,  // measure 65
1000
0010
0100
0001
,  // measure 66
1000
0100
0010
0001
;

//---------------dance-single - ----------------
#NOTES:
     dance-single:
     :
     Medium:
     5:
     0.409,0.441,0.294,0.071,0.000: // measure 1
0000
0000
0000
0000
,  // measure 2
0000
0000
0000
0000
,  // measure 3
0000
0000
0000
0000
,  // measure 4
0000
0000
0000
0000
,  // measure 5
0000
0000
0000
0000
,  // measure 6
0000
0000
0000
0000
,  // measure 7
0000
0000
0000
0000
,  // measure 8
0000
0000
0000
0000
,  // measure 9
1002
0010
0010
0013
,  // measure 10
2001
0010
0010
3010
,  // measure 11
2001
3100
2001
3010
,  // measure 12
1000
0010
1000
0000
0001
0010
0001
0000
,  // measure 13
1000
1001
0000
0000
,  // measure 14
1000
0000
1100
0000
0100
0010
0100
0000
,  // measure 15
0010
0000
0001
0000
0100
0001
0100
0000
,  // measure 16
0010
0000
0110
0000
0010
1000
0010
0000
,  // measure 17
1000
0000
0100
0000
1000
0001
1000
0000
,  // measure 18
1001
0000
1000
0000
0010
0100
0010
0000
,  // measure 19
0100
0000
0001
0000
0010
0001
0010
0000
,  // measure 20
0001
0000
0100
0000
0010
1000
0010
0000
,  // measure 21
1000
0000
0100
0000
1000
0001
1000
0000
,  // measure 22
0010
1001
0100
1001
,  // measure 23
1000
0010
0100
0001
,  // measure 24
1000
0100
1000
0000
0001
0100
0001
0000
,  // measure 25
1000
0010
0100
0001
,  // measure 26
1000
0010
1000
0000
0001
0010
0001
0000
,  // measure 27
1001
1000
0010
0100
,  // measure 28
0001
0100
0010
0000
1000
0100
0010
0000
,  // measure 29
0001
1000
0010
0100
,  // measure 30
0001
0010
0100
0000
1100
0000
0011
0000
,  // measure 31
0101
0000
0100
0000
0010
0000
1000
0010
,  // measure 32
1000
0000
0100
0000
1000
0001
1000
0000
,  // measure 33
0001
0000
1000
0000
0010
0000
0100
0010
,  // measure 34
0100
0010
1001
0110
,  // measure 35
1001
1000
0100
0010
,  // measure 36
0011
0001
0100
0010
,  // measure 37
1000
0100
0010
0000
0001
0100
0010
0000
,  // measure 38
1000
0000
0001
1000
0000
0010
0100
0000
,  // measure 39
0110
0000
0010
1000
0000
0100
0000
1000
,  // measure 40
0000
0001
0010
0001
0000
0100
0001
0000
,  // measure 41
0101
0000
0100
0010
0000
1000
0000
0100
,  // measure 42
0010
0011
0001
1001
,  // measure 43
1000
0010
1000
0000
0001
0010
0001
0000
,  // measure 44
0100
0101
0010
1010
,  // measure 45
1000
0100
1000
0000
0001
0100
0001
0000
,  // measure 46
1000
0000
0001
0000
0010
0001
0100
0001
,  // measure 47
0020
0100
1030
1001
,  // measure 48
2000
0010
3001
1001
,  // measure 49
1000
0000
0010
0100
0000
0001
0000
0010
,  // measure 50
0100
1100
0001
0101
,  // measure 51
1000
0010
1000
0000
0001
0000
0010
0000
,  // measure 52
0001
0100
0001
0000
0100
0000
0010
0000
,  // measure 53
1000
0100
1000
0000
0001
0100
0001
0000
,  // measure 54
1000
1100
0001
0101
,  // measure 55
1000
0000
1100
0000
0100
0010
0100
0000
,  // measure 56
0010
0000
0001
0000
0100
0001
0100
0000
,  // measure 57
0010
0000
0110
0000
0010
1000
0010
0000
,  // measure 58
1000
0000
0100
0000
1000
0001
1000
0000
,  // measure 59
1001
0000
1000
0000
0010
0100
0010
0000
,  // measure 60
0100
0000
0001
0000
0010
0001
0010
0000
,  // measure 61
0001
0000
0100
0000
0010
1000
0010
0000
,  // measure 62
1000
0000
0100
0000
1000
0001
1000
0000
,  // measure 63
0002
0010
0100
1003
,  // measure 64
2000
0010
0100
3001
,  // measure 65
0001
0100
0001
0000
1000
0100
1000
0000
,  // measure 66
0001
0010
0001
0000
1000
0010
0100
0001
;
