#TITLE:FLOWER;
#SUBTITLE:;
#ARTIST:DJ YOSHITAKA;
#TITLETRANSLIT:;
#SUBTITLETRANSLIT:;
#ARTISTTRANSLIT:;
#CREDIT:;
#BANNER:FLOWER.png;
#BACKGROUND:FLOWER-bg.png;
#LYRICSPATH:;
#CDTITLE:;
#MUSIC:FLOWER.mp3;
#OFFSET:-0.060;
#SAMPLESTART:33.325;
#SAMPLELENGTH:14.020;
#SELECTABLE:YES;
#BPMS:0.000=173.000,200.000=86.500,208.000=173.000;
#STOPS:;
#BGCHANGES:;

//---------------dance-single - ----------------
#NOTES:
     dance-single:
     :
     Hard:
     8:
     0.639,0.721,0.648,0.076,0.353:
0000
0000
0000
0000
,
0000
0000
0000
0000
,
0000
0000
0000
0000
,
0000
0000
0000
0000
,
1000
0000
0010
0000
0000
1000
0000
0000
0001
0000
0000
0010
0000
0000
0001
0000
,
0100
0000
0010
0000
0000
1000
0000
0000
0100
0000
0000
1000
0000
0000
0001
0000
,
0010
0000
0001
0000
0000
0100
0000
0000
0010
0000
0000
1000
0000
0000
0100
0000
,
1000
0000
0001
0000
0000
0010
0000
0000
0001
0000
0000
0100
0000
0000
0010
0000
,
1000
0000
1100
0000
0100
0010
0110
0000
,
0010
0000
0011
0000
0001
0100
0101
0000
,
0100
0000
0110
0000
0010
1000
1001
0000
,
0001
0000
0011
0000
0010
0100
1100
0000
,
1000
0000
0101
0000
0001
0010
1100
0000
,
0010
0000
1001
0000
0001
0100
1010
0000
,
1000
0000
0101
0000
0001
0010
1100
0000
,
0010
0000
1001
0000
0100
1000
0011
0000
,
1000
0000
1001
0000
1000
0010
0100
0010
,
1000
0000
1001
0000
0001
0010
0100
0010
,
0001
0000
0101
0000
0001
0100
0010
1000
,
0010
0000
0101
0000
0001
0010
0100
1000
,
1001
0000
0001
0100
0010
0000
0010
1000
,
0100
0000
0100
0010
0001
0000
0001
0100
,
0010
0000
1000
0001
1000
0000
0100
0000
1000
0001
1000
0000
0010
0000
0000
0000
,
1010
0000
0000
1010
0000
0000
0110
0000
0000
0110
0000
0000
0100
0000
0001
0000
,
1001
0000
0000
1000
0000
0000
0010
0000
0000
0100
0000
0000
0010
0000
1000
0000
,
0100
0000
0000
0010
0000
0000
0001
0000
0000
0100
0000
0000
0001
0000
0010
0000
,
0100
0000
0000
1000
0000
0000
0001
0000
0000
0010
0000
0000
0001
0000
0100
0000
,
0010
0000
0000
1000
0000
0000
0100
0000
0010
0000
0000
0001
0000
0000
0100
0000
,
0110
0000
0000
0010
0000
0000
1000
0000
0000
0001
0000
0000
0010
0000
0100
0000
,
1000
0000
0000
0001
0000
0000
0010
0000
0000
0001
0000
0000
0100
0000
0010
0000
,
1000
0000
0000
0100
0000
0000
0010
0000
0000
0001
0000
0000
0100
0000
0001
0000
,
0010
0000
0000
0100
0000
0000
1000
0000
0010
0000
0000
0100
0000
0000
0001
0000
,
1001
0000
0000
1000
0000
0000
0010
0000
0000
1000
0000
0000
0100
0000
0010
0000
,
0001
0000
0000
0100
0000
0000
0001
0000
0000
0010
0000
0000
0100
0000
1000
0000
,
0001
0000
0000
0010
0000
0000
0001
0000
0000
0100
0000
0000
0010
0000
1000
0000
,
0100
0000
0000
0010
0000
0000
0001
0000
0100
0000
0000
0010
0000
0000
1000
0000
,
0001
0010
0100
0010
0001
0100
0010
0000
,
1000
0001
0010
0100
0010
0001
1000
0000
,
1010
1000
0100
0000
0011
0001
0100
0000
,
0110
0000
0000
0000
1000
0100
0010
0001
,
1000
0000
0000
1100
0000
0000
0001
0000
0000
0101
0000
0000
1000
0000
0010
0000
,
0100
0000
0001
0000
0010
0000
0001
0000
1000
0001
1000
0000
0010
0000
0000
0000
,
1000
0000
0000
1010
0000
0000
0010
0000
0000
0110
0000
0000
0100
0000
0001
0000
,
1000
0000
0000
0100
0000
1000
0100
0000
0010
0000
0000
0001
0000
0100
0010
0000
,
1000
0000
0000
1001
0000
0000
0001
0000
0000
0101
0000
0000
0100
0000
0010
0000
,
1000
0000
0001
0000
0100
0000
0001
0000
1000
0100
1000
0000
0001
0000
0000
0000
,
0100
0000
0000
0110
0000
0000
0010
0000
0000
1010
0000
0000
1000
0000
0001
0000
,
2000
0000
3000
1001
,
0220
0000
0000
0000
,
0000
0000
0000
0330
,
2010
0000
0010
0000
0100
0000
3001
1000
,
0102
0000
0010
0000
0100
0000
1003
0010
,
0102
0010
0100
1003
,
2100
0010
0100
3001
,
1010
0010
0100
0000
0011
0010
0100
0000
,
1100
0000
0000
1100
0000
0000
0011
0000
0000
0011
0000
0000
0001
0000
1000
0000
,
1001
0000
0000
1000
0000
0000
0010
0000
0000
0100
0000
0000
0001
0000
0010
0000
,
0100
0000
0000
0010
0000
0000
0001
0000
0000
0100
0000
0000
0010
0000
1000
0000
,
1001
0000
0000
1000
0000
0000
0100
0000
0000
0010
0000
0000
0001
0000
0100
0000
,
0010
0000
0000
1000
0000
0000
0001
0000
0010
0000
0000
0001
0000
0000
0100
0000
,
0110
0010
1000
0100
1000
0001
0010
0000
,
0011
0001
0100
0010
1000
0010
0100
0000
,
0101
0001
0010
0000
1100
1000
0010
0000
,
1010
0000
0000
0000
0010
0100
0001
1000
,
0001
0000
0000
0011
0000
0000
1000
0000
0000
1010
0000
0000
0001
0000
0100
0000
,
0010
0000
1000
0000
0100
0000
1000
0000
0001
1000
0001
0000
0100
0000
0000
0000
,
0001
0000
0000
0101
0000
0000
0100
0000
0000
0110
0000
0000
0010
0000
1000
0000
,
0001
0000
0000
0010
0000
0001
0010
0000
0100
0000
0000
1000
0000
0010
0100
0000
,
0001
0000
0000
1001
0000
0000
1000
0000
0000
1010
0000
0000
0010
0000
0100
0000
,
0001
0000
1000
0000
0010
0000
1000
0000
0001
0010
0001
0000
1000
0000
0000
0000
,
0010
0000
0000
0110
0000
0000
0100
0000
0000
0101
0000
0000
0001
0000
1000
0000
,
0002
0000
0003
1001
,
0110
0000
0000
0000
;

//---------------dance-single - ----------------
#NOTES:
     dance-single:
     :
     Beginner:
     2:
     0.128,0.172,0.010,0.010,0.000: // measure 1
0000
0000
0000
0000
,  // measure 2
0000
0000
0000
0000
,  // measure 3
0000
0000
0000
0000
,  // measure 4
0000
0000
0000
0000
,  // measure 5
0010
0000
0000
0000
,  // measure 6
0001
0000
0000
0000
,  // measure 7
0100
0000
0000
0000
,  // measure 8
0010
0000
0010
0000
,  // measure 9
0010
0000
0000
0000
,  // measure 10
1000
0000
0000
0000
,  // measure 11
0001
0000
0000
0000
,  // measure 12
0010
0000
0010
0000
,  // measure 13
0010
0000
0000
0000
,  // measure 14
0100
0000
0000
0000
,  // measure 15
1000
0000
0000
0000
,  // measure 16
0001
0000
0001
0000
,  // measure 17
0001
0000
0000
0000
,  // measure 18
1000
0000
1000
0000
,  // measure 19
1000
0000
0000
0000
,  // measure 20
0010
0000
0010
0000
,  // measure 21
0010
0000
0000
0000
,  // measure 22
0100
0000
0000
0000
,  // measure 23
0001
0000
0001
0000
,  // measure 24
1000
0000
1000
0000
,  // measure 25
0001
0000
0000
0000
,  // measure 26
0100
0000
0000
0000
,  // measure 27
0010
0000
0000
0000
,  // measure 28
1000
0000
1000
0000
,  // measure 29
1000
0000
0000
0000
,  // measure 30
0001
0000
0000
0000
,  // measure 31
0010
0000
0000
0000
,  // measure 32
0100
0000
0100
0000
,  // measure 33
0100
0000
0000
0000
,  // measure 34
1000
0000
0000
0000
,  // measure 35
0001
0000
0000
0000
,  // measure 36
0010
0000
0010
0000
,  // measure 37
0010
0000
0000
0000
,  // measure 38
0001
0000
0000
0000
,  // measure 39
0100
0000
0000
0000
,  // measure 40
0010
0000
0010
0000
,  // measure 41
0010
0000
0000
0000
,  // measure 42
1000
0000
1000
0000
,  // measure 43
1000
0000
0000
0000
,  // measure 44
0001
0000
0001
0000
,  // measure 45
0001
0000
0000
0000
,  // measure 46
0010
0000
0010
0000
,  // measure 47
0010
0000
0000
0000
,  // measure 48
0100
0000
0100
0000
,  // measure 49
0200
0000
0000
0000
,  // measure 50
0300
0000
0000
0000
,  // measure 51
1000
0000
0001
0000
,  // measure 52
0010
0000
0100
0000
,  // measure 53
1000
0000
0000
0000
,  // measure 54
0010
0000
0000
0000
,  // measure 55
0100
0000
0000
0000
,  // measure 56
0001
0000
0001
0000
,  // measure 57
0001
0000
0000
0000
,  // measure 58
0010
0000
0000
0000
,  // measure 59
0100
0000
0000
0000
,  // measure 60
1000
0000
1000
0000
,  // measure 61
1000
0000
0000
0000
,  // measure 62
0001
0000
0000
0000
,  // measure 63
0100
0000
0000
0000
,  // measure 64
0010
0000
0010
0000
,  // measure 65
0010
0000
0000
0000
,  // measure 66
1000
0000
1000
0000
,  // measure 67
1000
0000
0000
0000
,  // measure 68
0001
0000
0001
0000
,  // measure 69
0001
0000
0000
0000
,  // measure 70
0010
0000
0010
0000
,  // measure 71
0010
0000
0000
0000
,  // measure 72
0100
0000
0100
0000
,  // measure 73
0110
0000
0000
0000
;

//---------------dance-single - ----------------
#NOTES:
     dance-single:
     :
     Easy:
     4:
     0.430,0.481,0.534,0.172,0.000: // measure 1
0000
0000
0000
0000
,  // measure 2
0000
0000
0000
0000
,  // measure 3
0000
0000
0000
0000
,  // measure 4
0000
0000
0000
0000
,  // measure 5
1000
0100
1000
1000
,  // measure 6
0001
0100
0001
0001
,  // measure 7
1000
0010
1000
1000
,  // measure 8
0001
0001
0010
0010
,  // measure 9
0100
1000
0010
0010
,  // measure 10
0100
0001
0010
0010
,  // measure 11
0100
1000
0001
0001
,  // measure 12
1000
1000
0010
0010
,  // measure 13
0100
0001
0010
0010
,  // measure 14
0100
1000
0010
0010
,  // measure 15
0100
0001
1000
1000
,  // measure 16
0001
0001
0010
0010
,  // measure 17
0100
1000
0010
1000
,  // measure 18
0100
0010
0001
0010
,  // measure 19
0100
1000
0001
1000
,  // measure 20
0001
0010
0001
0100
,  // measure 21
0001
0010
0100
1000
,  // measure 22
0010
0100
0001
1000
,  // measure 23
0001
0001
1000
1001
,  // measure 24
1000
0010
0100
0001
,  // measure 25
1001
1000
0100
0010
,  // measure 26
0001
0010
0100
1000
,  // measure 27
0010
0100
0001
0010
,  // measure 28
0001
0100
0010
1000
,  // measure 29
0001
0010
0001
0100
,  // measure 30
0010
1000
0100
0010
,  // measure 31
0001
1000
0010
1000
,  // measure 32
0100
0010
0001
0100
,  // measure 33
0101
0100
0010
1000
,  // measure 34
0100
1000
0001
0010
,  // measure 35
0001
0100
0010
1000
,  // measure 36
0100
0010
0001
0100
,  // measure 37
0110
0010
1000
0001
,  // measure 38
1001
0001
0100
0010
,  // measure 39
1010
1000
1100
0100
,  // measure 40
0110
0010
0001
1000
,  // measure 41
1001
1001
1001
1001
,  // measure 42
2002
0000
0000
3003
,  // measure 43
0110
0110
0110
0110
,  // measure 44
0220
0000
0000
0330
,  // measure 45
1100
1100
1100
1100
,  // measure 46
2200
0000
0000
3300
,  // measure 47
0011
0011
0011
0011
,  // measure 48
0022
0000
0000
0033
,  // measure 49
2002
0000
0000
0000
,  // measure 50
0000
0000
3003
0000
,  // measure 51
1000
0100
0010
0001
,  // measure 52
1000
0010
0100
0001
,  // measure 53
0010
0001
0100
0001
,  // measure 54
0010
0100
1000
0100
,  // measure 55
0010
0010
0001
0001
,  // measure 56
1000
1000
0001
0001
,  // measure 57
1001
1000
0010
0100
,  // measure 58
0010
1000
0100
0010
,  // measure 59
0100
1000
0001
0010
,  // measure 60
0001
0100
0010
1000
,  // measure 61
1010
1000
0100
0010
,  // measure 62
0011
0001
0100
0010
,  // measure 63
1010
1000
1100
1000
,  // measure 64
1001
0001
0100
0100
,  // measure 65
0110
0110
0110
0110
,  // measure 66
0220
0000
0000
0330
,  // measure 67
1001
1001
1001
1001
,  // measure 68
2002
0000
0000
3003
,  // measure 69
1100
1100
0101
0101
,  // measure 70
2002
0000
0000
3003
,  // measure 71
0011
0011
1010
1010
,  // measure 72
2002
0000
0000
3003
,  // measure 73
0110
0000
0000
0000
;

//---------------dance-single - ----------------
#NOTES:
     dance-single:
     :
     Medium:
     7:
     0.507,0.618,0.439,0.095,0.000: // measure 1
0000
0000
0000
0000
,  // measure 2
0000
0000
0000
0000
,  // measure 3
0000
0000
0000
0000
,  // measure 4
0000
0000
0000
0000
,  // measure 5
1000
0000
0100
0000
0010
0000
0001
0100
,  // measure 6
0001
0000
0010
0000
0100
0000
1000
0001
,  // measure 7
1000
0000
0010
0000
1000
0000
0100
0010
,  // measure 8
0100
0100
0010
0010
,  // measure 9
0011
0000
0001
0000
0100
0000
0010
1000
,  // measure 10
0010
0000
0100
0000
0001
0000
1000
0100
,  // measure 11
1000
0000
0100
0000
0010
0000
0001
0010
,  // measure 12
0001
0100
0010
1001
,  // measure 13
1000
0000
0100
0000
0010
0000
0001
0100
,  // measure 14
0001
0000
0010
0000
0100
0000
1000
0001
,  // measure 15
1000
0000
0010
0000
1000
0000
0100
0010
,  // measure 16
0100
0010
0001
0101
,  // measure 17
0100
0000
0010
0000
1000
0000
0100
1000
,  // measure 18
0100
0000
0010
0000
0001
0000
0100
0001
,  // measure 19
0100
0000
0010
0000
1000
0000
0001
0100
,  // measure 20
0001
0000
0100
0000
0010
0000
1000
0100
,  // measure 21
1000
0000
0001
0100
0001
0000
1000
0010
,  // measure 22
1000
0000
0001
0010
0001
0000
1000
0001
,  // measure 23
1000
0000
0010
0100
0000
0001
1000
0000
,  // measure 24
1001
0000
0000
1100
0000
0000
1001
0000
,  // measure 25
0101
0000
0100
0000
0010
0000
1000
0010
,  // measure 26
1000
0000
0010
0000
0100
0000
0001
0100
,  // measure 27
0001
0000
1000
0000
0100
0000
1000
0001
,  // measure 28
1000
0000
0001
0010
0001
0000
1000
0010
,  // measure 29
1000
0000
0010
0000
0100
0000
0001
0100
,  // measure 30
0001
0000
0010
0000
0100
0000
1000
0001
,  // measure 31
1000
0000
0010
0000
0100
0000
0001
0010
,  // measure 32
0001
0000
1000
0010
1000
0000
0001
0100
,  // measure 33
0001
0000
1000
0000
0100
0000
0010
0001
,  // measure 34
0100
0000
0010
0000
1000
0000
0100
1000
,  // measure 35
0001
0000
0010
0000
0001
0000
0100
0010
,  // measure 36
1000
0000
0100
1000
0001
0000
0010
0001
,  // measure 37
0100
0000
0010
0000
1000
0000
0100
0010
,  // measure 38
0001
0000
0100
0000
0010
0000
1000
0001
,  // measure 39
0100
0000
0001
0000
0010
0000
0100
1000
,  // measure 40
0010
0000
0100
0001
0010
0000
0100
1000
,  // measure 41
1001
0000
0000
0101
0000
0000
0110
0000
,  // measure 42
2010
0010
0001
3100
,  // measure 43
0101
0000
0000
0110
0000
0000
1010
0000
,  // measure 44
1002
0010
0100
1003
,  // measure 45
1001
0000
0000
0101
0000
0000
0110
0000
,  // measure 46
2010
0010
0100
3001
,  // measure 47
0101
0000
0000
0110
0000
0000
1010
0000
,  // measure 48
2001
0010
0100
3001
,  // measure 49
2002
0000
0000
0000
,  // measure 50
0000
0000
0000
3003
,  // measure 51
1000
1000
0100
0100
0010
0010
0001
0001
,  // measure 52
0100
0100
0010
0010
1000
1000
0001
0001
,  // measure 53
1001
0000
1000
0000
0010
0000
0100
0010
,  // measure 54
1000
0000
0100
0000
0010
0000
0001
0100
,  // measure 55
0010
0000
1000
0001
0010
0000
0001
1000
,  // measure 56
1010
0000
0000
1001
0000
0000
0101
0000
,  // measure 57
0110
0000
0010
0000
1000
0000
0100
1000
,  // measure 58
0001
0000
0010
0000
0001
0000
0100
0010
,  // measure 59
1000
0000
0010
0000
0100
0000
0001
0010
,  // measure 60
0100
0000
1000
0001
0010
0000
0001
0100
,  // measure 61
0010
0000
1000
0000
0100
0000
1000
0100
,  // measure 62
0010
0000
0001
0000
0100
0000
0010
1000
,  // measure 63
0001
0000
0100
0000
0001
0000
0010
0100
,  // measure 64
1000
0000
0010
0100
0001
0000
1000
0010
,  // measure 65
1001
0000
0000
1010
0000
0000
0110
0000
,  // measure 66
0102
0100
1000
0013
,  // measure 67
1010
0000
0000
0110
0000
0000
0101
0000
,  // measure 68
2001
0100
0010
3001
,  // measure 69
1001
0000
0000
1010
0000
0000
0110
0000
,  // measure 70
0102
0100
0010
1003
,  // measure 71
1010
0000
0000
0110
0000
0000
0101
0000
,  // measure 72
1002
0100
0010
1003
,  // measure 73
1001
0000
0000
0000
;
