#TITLE:F;
#SUBTITLE:;
#ARTIST:D.J. Amuro;
#TITLETRANSLIT:;
#SUBTITLETRANSLIT:;
#ARTISTTRANSLIT:;
#CREDIT:;
#BANNER:F.png;
#BACKGROUND:F-bg.png;
#LYRICSPATH:;
#CDTITLE:;
#MUSIC:F.mp3;
#OFFSET:-0.397;
#SAMPLESTART:20.605;
#SAMPLELENGTH:15.760;
#SELECTABLE:YES;
#BPMS:0.000=154.000;
#STOPS:;
#BGCHANGES:;

//---------------dance-single - ----------------
#NOTES:
     dance-single:
     :
     Hard:
     9:
     0.714,0.682,0.280,0.107,0.338:
0000
0000
0000
0000
,
0000
0000
0000
0000
,
0000
0000
0000
0000
,
0000
0000
0000
0000
,
1000
0000
0001
0000
1000
0010
1000
0000
0020
0000
0000
0000
0130
0001
0100
0000
,
0010
0000
1000
0000
0001
0010
0001
0000
0100
0000
0000
0001
0000
0010
0100
0000
,
1000
0000
0010
0000
0100
0000
0001
0100
0001
0000
0010
0000
0100
0000
1000
0001
,
1000
0000
0010
0000
0100
0000
0001
0010
0001
0000
0100
0000
0010
0000
1000
0000
,
1001
0000
0000
0000
1000
0000
0010
0000
0100
0000
0001
0010
0001
0000
0100
0000
,
0110
0000
0000
0000
0010
0000
1000
0000
0100
0000
1000
0001
1000
0000
0001
0000
,
0011
0000
0001
0100
0110
0000
0010
1000
,
0001
0001
0100
0100
0010
0010
1000
1000
,
0002
0000
0000
0000
0003
0000
1000
0001
,
0101
0110
1010
1100
,
1000
0000
0100
0000
0010
0001
0010
0000
0100
0000
1000
0000
0010
0100
0010
0000
,
0110
0000
0101
0000
1001
1000
0010
0100
,
0010
0000
1000
0000
0001
0100
0001
0000
0100
0000
0010
1000
0010
0000
1000
0000
,
2001
0100
0000
0010
0000
0001
0000
3100
,
0002
0010
0000
0100
0000
1000
0000
0013
,
0001
0000
0100
0000
0010
1000
0000
0000
0100
0000
1000
0001
1000
0000
0010
0000
,
0100
0100
0001
0001
0010
0010
0100
0100
,
2100
0100
0010
3001
,
1000
0010
0100
0010
1000
0100
0010
0002
,
1000
0000
0103
0001
0100
0010
1000
0001
,
0020
0000
0100
0000
1030
0000
0010
0010
,
0011
0002
0203
0310
,
1000
0100
0010
0001
0100
0010
1000
0001
,
1000
1000
0100
0100
0010
0010
0001
0001
,
1000
0100
1000
0000
0001
0100
0001
0000
1000
0010
1000
0000
0001
0010
0001
0000
,
1000
0010
1000
0000
0010
0000
0100
0001
0100
0000
0001
0000
0011
0000
0000
0000
,
0010
0100
0010
0000
0100
0000
1000
0010
1000
0000
0010
0000
0110
0000
0000
0000
,
0100
0100
0001
0001
0010
0010
0100
0100
,
1000
0010
1000
0000
0001
0000
0010
0001
0010
0000
0001
0000
1001
0000
0000
0000
,
1000
0010
1000
0000
0010
0000
0100
0001
0100
0000
0001
0000
0011
0000
0000
0000
,
0010
0100
0010
0000
0100
0000
1000
0001
1000
0000
0010
0000
0110
0000
0000
0000
,
0100
0100
0001
0001
0010
0010
0100
0100
,
1000
0010
1000
0000
0001
0010
0001
0000
1000
0000
0001
0000
1001
0000
0000
0000
,
0001
0100
0001
0000
0100
0000
0010
1000
0010
0000
1000
0000
1100
0000
0000
0000
,
0100
0010
0100
0000
0010
0000
0001
0010
0001
0000
0100
0000
0110
0000
0000
0000
,
0010
0010
1000
1000
0001
0001
0100
0100
,
0010
1000
0010
0000
0100
0000
0001
0010
0001
0000
0100
0000
0110
0000
0000
0000
,
0010
1000
0010
0000
1000
0000
0100
1000
0100
0000
0010
0000
0011
0000
0000
0000
,
0001
1000
0001
0000
0100
0000
0010
1000
0010
0000
0100
0000
0101
0000
0000
0000
,
0001
0001
0010
0010
0100
0100
1000
1000
,
0010
0100
0010
0000
1000
0001
1000
0000
0001
0000
0101
0000
1000
0100
0010
0001
,
1000
0000
0000
0000
0001
0010
0001
0000
2000
0000
0000
0000
3001
0100
0001
0000
,
0100
0000
0010
0000
1000
0100
1000
0000
0001
0000
0000
0010
0000
0001
0100
0000
,
0010
1000
0100
1000
0001
0010
0001
0100
,
0010
0000
1000
0000
0001
0000
0010
0000
0100
0000
0000
0100
1000
0000
0000
0000
,
0001
0000
1000
0000
0001
0100
0001
0000
0200
0000
0000
0000
0310
1000
0010
0000
,
0100
0000
0001
0000
1000
0100
1000
0000
0010
0000
0000
1000
0000
0100
0010
0000
,
0001
0001
1000
1000
0100
0100
0010
0010
,
0001
0100
0001
0000
1000
0100
1000
0000
0001
0010
0001
0000
1000
0010
1000
0000
,
1001
1000
0010
0100
0010
1000
0100
0010
,
0001
0000
0100
0000
0001
0000
0010
0000
0100
1000
0100
1000
0100
0000
0000
0000
,
0010
0001
0100
0010
1000
0001
0010
0001
,
0100
0000
0010
0000
1000
0000
0100
0000
0010
0001
0010
0001
1000
0000
0001
0000
,
0101
0100
0010
1000
0100
0010
0001
0100
,
0001
0000
0010
0000
0100
0000
1000
0000
0001
0010
0001
0010
0001
0000
0000
0000
,
1000
0010
0100
0010
1000
0100
0010
0001
,
1000
0000
0010
0000
0100
0000
0001
0000
1000
0100
1000
0100
0010
0000
0001
0000
,
1001
1000
0010
0001
0010
1000
0100
0001
,
0100
0000
1000
0010
1000
0010
1000
0010
1000
0000
0010
0000
0010
0000
0010
0000
,
1000
0010
0100
0001
1000
0100
0010
0001
,
0100
0000
0010
1000
0010
1000
0010
1000
0010
0000
0100
0000
0100
0000
0100
0000
,
0101
0001
0010
0100
1000
0010
0100
0001
,
0010
0000
0001
0100
0001
0100
0001
0100
0001
0000
0100
0000
0100
0000
0100
0000
,
0110
0010
1000
0100
1000
0001
0010
0001
,
0011
0001
0100
0010
1000
0100
1000
0001
,
1001
1000
0010
0010
0100
0100
0001
0001
,
0010
0100
0010
0000
0100
1000
0100
0000
1000
0010
1000
0000
0010
0100
0010
0000
,
2002
0000
0000
0000
,
3003
0000
0000
0000
;

//---------------dance-single - ----------------
#NOTES:
     dance-single:
     :
     Beginner:
     1:
     0.111,0.117,0.008,0.000,0.000:
0000
0000
0000
0000
,
0000
0000
0000
0000
,
0000
0000
0000
0000
,
0000
0000
0000
0000
,
1000
0000
0000
0000
,
0001
0000
0000
0000
,
0100
0000
0000
0000
,
0010
0000
0010
0000
,
0010
0000
0000
0000
,
1000
0000
1000
0000
,
1000
0000
0000
0000
,
0001
0000
0001
0000
,
0000
0000
0000
0000
,
1000
0000
0000
0000
,
0001
0000
0000
0000
,
0100
0000
0100
0000
,
0100
0000
0000
0000
,
0010
0000
0000
0000
,
1000
0000
0000
0000
,
0100
0000
0100
0000
,
0100
0000
0000
0000
,
1000
0000
0000
0000
,
0001
0000
0000
0000
,
0010
0000
0010
0000
,
0010
0000
0000
0000
,
0001
0000
0000
0000
,
0100
0000
0000
0000
,
0010
0000
0010
0000
,
1000
0000
1000
0000
,
0001
0000
0000
0000
,
0100
0000
0000
0000
,
0010
0000
0010
0000
,
1000
0000
1000
0000
,
0100
0000
0000
0000
,
1000
0000
0000
0000
,
0001
0000
0001
0000
,
0010
0000
0010
0000
,
0100
0000
0000
0000
,
1000
0000
0000
0000
,
0010
0000
0010
0000
,
0100
0000
0100
0000
,
0001
0000
0000
0000
,
1000
0000
0000
0000
,
0100
0000
0100
0000
,
0010
0000
0010
0000
,
0001
0000
0000
0000
,
1000
0000
0000
0000
,
0010
0000
0000
0000
,
0100
0000
0100
0000
,
0100
0000
0000
0000
,
0001
0000
0000
0000
,
0010
0000
0010
0000
,
0100
0000
0100
0000
,
1000
0000
0000
0000
,
0001
0000
0000
0000
,
0100
0000
0000
0000
,
0010
0000
0010
0000
,
0010
0000
0000
0000
,
1000
0000
0000
0000
,
0100
0000
0000
0000
,
1000
0000
1000
0000
,
1000
0000
0000
0000
,
0001
0000
0001
0000
,
0001
0000
0000
0000
,
0100
0000
0100
0000
,
0100
0000
0000
0000
,
0010
0000
0010
0000
,
0010
0000
0000
0000
,
1000
0000
1000
0000
,
1000
0000
0000
0000
,
0001
0000
0001
0000
,
1001
0000
0000
0000
;

//---------------dance-single - ----------------
#NOTES:
     dance-single:
     :
     Easy:
     4:
     0.302,0.292,0.025,0.000,0.000:
0000
0000
0000
0000
,
0000
0000
0000
0000
,
0000
0000
0000
0000
,
0000
0000
0000
0000
,
1000
0100
1000
0000
,
0001
0100
0001
0000
,
1000
0010
1000
0000
,
0001
0010
0001
0000
,
1000
0010
0100
0001
,
1000
0100
0010
0001
,
1000
0010
0001
0010
,
1000
1000
0001
0001
,
0000
0000
0000
0000
,
0100
0010
0100
0010
,
1000
0010
1000
0010
,
1000
0001
1000
0001
,
0100
0001
0100
0001
,
0100
0010
0100
0010
,
1000
0010
1000
0010
,
1000
0100
1000
0100
,
1000
0001
1000
0001
,
0010
0010
0001
0001
,
0100
0100
0010
0010
,
1000
1000
0100
0100
,
0010
0010
0001
0001
,
1000
0010
0100
0010
,
1000
0100
0010
0100
,
1000
1000
0001
0001
,
0010
0010
0001
0001
,
1000
0010
0001
0010
,
1000
0100
0001
0100
,
1000
1000
1000
1000
,
0001
0010
1000
0010
,
0001
0100
1000
0100
,
0001
0010
1000
0010
,
0001
0001
0001
0001
,
1000
0100
0010
1001
,
0001
0100
0010
0100
,
0001
0010
0100
0010
,
0001
0001
0001
0001
,
1000
0010
0100
0010
,
1000
0100
0010
0001
,
1000
0010
0100
0001
,
1000
1000
1000
1000
,
0001
0010
0100
1000
,
0001
0000
0010
0000
,
0100
0000
1000
0000
,
0010
0000
0100
0000
,
0001
0000
1000
1001
,
1000
0010
0100
0001
,
1000
0100
0010
0001
,
1000
1000
0001
0001
,
0100
0100
0010
0010
,
0100
0010
0100
0010
,
1000
0010
1000
0010
,
1000
0001
1000
0001
,
0100
0001
0100
0001
,
0100
0010
0100
0010
,
1000
0010
1000
0010
,
1000
0100
1000
0100
,
1000
0001
1000
0001
,
0010
0010
0001
0001
,
0100
0100
0010
0010
,
1000
1000
0100
0100
,
0010
0010
0001
0001
,
1000
0010
0100
0010
,
1000
0100
0010
0100
,
1000
1000
0001
0001
,
0010
0010
0001
0001
,
1000
0100
0010
0001
,
1000
0010
0100
0001
,
1001
0000
0000
0000
;

//---------------dance-single - ----------------
#NOTES:
     dance-single:
     :
     Medium:
     7:
     0.501,0.497,0.445,0.008,0.000:
0000
0000
0000
0000
,
0000
0000
0000
0000
,
0000
0000
0000
0000
,
0000
0000
0000
0000
,
1000
0000
0001
0100
1000
0000
1001
0000
,
1000
0000
0001
0010
1000
0000
1001
0000
,
1000
0000
0100
0010
0001
0000
0001
0010
,
0100
0000
0100
1000
0010
0000
0100
0000
,
0101
0000
0001
0100
0010
0000
1000
0000
,
1001
0000
1000
0100
0010
0000
0001
0000
,
0011
0000
0001
0100
0010
0000
0010
1000
,
0100
1100
1000
1010
,
0000
0000
0000
0000
0000
0000
0100
0001
,
0100
0110
0010
1010
,
1000
0100
0001
0000
1000
0010
0001
0000
,
1000
0101
0001
1100
,
0001
0010
1000
0000
0001
0100
1000
0000
,
0001
1100
0001
1010
,
0001
0010
1000
0000
0100
0001
0010
0000
,
0100
1100
0010
1100
,
0100
1000
0010
0000
0001
0100
1000
0000
,
0010
0110
0100
0101
,
0001
0010
0001
0010
0100
1000
0100
1000
,
0010
1010
0010
0110
,
0100
0001
0100
0001
0010
0001
0010
0001
,
1000
1010
0010
0110
,
0100
0001
0100
0001
0010
0001
0010
0001
,
0100
0110
0010
1010
,
1000
0100
1000
0100
0001
0100
0001
0100
,
1000
0000
0001
0100
0000
0001
1000
0000
,
0001
0000
1000
0010
0000
1000
0001
0000
,
1100
1100
0101
0101
,
1001
0000
0001
0010
0000
0001
1000
0000
,
0100
0000
1000
0010
0000
0100
0001
0000
,
0010
0000
0001
0100
0000
0010
1000
0000
,
0100
1000
0100
0000
0010
0001
0010
0000
,
0011
1100
0101
1010
,
1001
0000
1000
1000
0000
0001
0001
0000
,
0100
0000
0010
0010
0000
1000
1000
0000
,
0101
0101
1010
1010
,
1001
0000
0001
0001
0000
0100
0100
0000
,
0010
0000
1000
1000
0000
0001
0001
0000
,
0100
0000
0010
0010
0000
1000
1000
0000
,
0100
1000
0100
0000
0010
0001
0010
0000
,
0001
0100
1000
0100
0001
0010
1000
0010
,
0001
0000
1000
0100
1000
0000
0010
1000
,
0010
0000
0100
0010
0100
0000
0001
0000
,
0100
0000
0001
0010
0100
0000
1000
0010
,
0100
0000
0001
1000
0020
0000
1030
0000
,
1010
0000
0010
1000
0100
0000
0100
1000
,
0001
0000
0001
0010
0100
0000
1000
0000
,
0001
0100
1000
0100
0001
0010
1000
0010
,
0001
0001
1000
1000
0010
0010
0100
0100
,
0010
0110
0100
0101
,
0001
0010
1000
0000
0001
0100
1000
0000
,
0001
1010
1000
0011
,
1000
0100
0001
0000
1000
0010
0001
0000
,
1000
0011
1000
0101
,
1000
0100
0001
0000
0010
1000
0100
0000
,
0010
0011
0100
0011
,
0010
0001
0100
0000
1000
0010
0001
0000
,
0100
0110
0010
1010
,
1000
0100
1000
0100
0010
0001
0010
0001
,
0100
0101
0100
0110
,
0010
1000
0010
1000
0100
1000
0100
1000
,
0001
0101
0100
0110
,
0010
1000
0010
1000
0100
1000
0100
1000
,
0001
0100
0001
0100
1000
0100
1000
0100
,
0001
0010
0001
0010
1000
0010
1000
0010
,
0001
0100
1000
0100
0001
0010
1000
0010
,
0001
0001
0100
0100
0010
0010
1000
1000
,
1001
0000
0000
0000
;
