#TITLE:Extremely Chaotic (2012 Synchronicity Ver.);
#SUBTITLE:;
#ARTIST:Rygon;
#TITLETRANSLIT:;
#SUBTITLETRANSLIT:;
#ARTISTTRANSLIT:;
#CREDIT:;
#BANNER:Extremely Chaotic (2012 Synchronicity Ver.).png;
#BACKGROUND:Extremely Chaotic (2012 Synchronicity Ver.)-bg.png;
#LYRICSPATH:;
#CDTITLE:;
#MUSIC:Extremely Chaotic (2012 Synchonicity Ver.).mp3;
#OFFSET:-0.743;
#SAMPLESTART:9.645;
#SAMPLELENGTH:15.620;
#SELECTABLE:YES;
#BPMS:0.000=50.000,7.000=800.003,14.000=200.001,42.000=100.001,43.000=399.999,47.000=200.001,75.000=100.001,76.000=399.999,80.000=200.001,160.000=300.000,191.000=100.000,192.000=399.999,204.000=800.003,208.000=200.001,320.000=100.000,321.000=399.999,325.000=100.001,326.000=399.999;
#STOPS:160.500=0.200
,162.500=0.200
,164.500=0.200
,169.500=0.200
,171.500=0.200
,173.500=0.200
,178.500=0.200
,180.500=0.200
,182.500=0.200
,187.500=0.200
,189.500=0.200
,203.750=2.100
;
#BGCHANGES:;

//---------------dance-single - ----------------
#NOTES:
     dance-single:
     :
     Hard:
     10:
     0.799,0.985,0.303,0.286,1.000: // measure 1
0000
0000
0000
0000
,  // measure 2
0000
0000
0000
2000
,  // measure 3
0000
0000
0000
0000
,  // measure 4
0000
0000
0000
0000
0000
0000
0000
0000
0000
3000
0000
0000
1001
0000
0000
0000
0001
0000
0100
0000
0000
0000
0000
0000
,  // measure 5
0010
0000
1000
0100
0000
0000
0010
0000
0001
1000
0000
0000
,  // measure 6
0100
0000
1000
0010
0000
0110
0100
0000
0001
0010
0000
0000
,  // measure 7
0100
0000
1000
0001
0000
0000
0010
0000
0001
0100
0000
0000
,  // measure 8
0010
1000
0100
0010
0001
0100
0010
0000
1000
0001
0000
0000
,  // measure 9
0100
0000
0001
0010
0000
0000
0100
0000
1000
0010
0000
0000
,  // measure 10
0100
0000
0001
1000
0000
1010
0010
0000
0100
0001
0000
0000
,  // measure 11
1000
0000
0100
0010
0000
0000
0002
0000
0000
1003
0000
0010
,  // measure 12
0000
0100
0000
0001
0000
0010
0000
0100
0000
1000
0000
0010
,  // measure 13
0100
0000
0000
0001
0000
1000
0100
0000
0100
0010
0000
0010
,  // measure 14
0001
0000
0001
1000
0010
1000
0010
0000
0010
0100
0000
0001
,  // measure 15
0010
0001
0010
0100
0000
0000
1100
0000
1000
0010
0100
0001
,  // measure 16
0100
0000
0010
1000
0100
0001
1000
0010
0001
1000
0000
0001
,  // measure 17
0100
0000
0000
0010
0000
0010
1000
0000
1000
0100
0000
0100
,  // measure 18
0010
0001
0010
0001
0000
0001
0100
0000
0100
0010
0000
1000
,  // measure 19
0100
0000
0000
0010
0001
0010
0001
0000
0100
0020
0000
0000
,  // measure 20
1030
0000
0100
0000
0010
0000
0001
0000
0100
0000
0010
0000
,  // measure 21
1000
0000
0001
0100
0000
0000
0010
0000
1000
0100
0000
0010
,  // measure 22
0001
0000
1000
0010
0000
0000
0100
0000
0001
1000
0000
0000
,  // measure 23
0001
0000
0001
0100
0000
0100
0010
0000
0010
1000
0000
1000
,  // measure 24
0100
0000
0100
0010
0000
0010
0001
0010
1000
0001
0100
1000
,  // measure 25
0001
0000
1000
0010
0100
0010
0100
0000
0001
1000
0000
0000
,  // measure 26
0010
0000
1000
0100
0000
0000
0010
0000
0001
0100
0000
0000
,  // measure 27
0010
0000
1000
0001
0000
0000
0100
0000
0001
1000
0000
0000
,  // measure 28
1100
0000
1000
0010
0000
0010
0100
0001
0100
0001
0010
0001
,  // measure 29
1000
0000
0001
0100
0000
0000
0010
0000
1000
0100
0000
0010
,  // measure 30
0001
0000
1000
0010
0000
0000
0100
0000
0001
0010
0000
0000
,  // measure 31
0100
0000
0100
1000
0000
1000
0010
0000
0010
0100
0000
0100
,  // measure 32
0001
0000
0001
0010
0000
0010
1000
0010
0001
1000
0100
0001
,  // measure 33
1000
0000
0001
0100
0000
0000
0010
0000
1000
0100
0010
0100
,  // measure 34
1000
0000
0010
0100
0000
0000
0001
0010
0001
1000
0010
1000
,  // measure 35
0001
0000
0010
0100
0000
0000
1000
0010
0100
0001
0100
0010
,  // measure 36
1000
0100
0010
0001
0010
0100
1000
0010
0001
1000
0100
0001
,  // measure 37
2000
0000
0000
3000
,  // measure 38
0000
0000
0000
0000
,  // measure 39
0000
0000
0000
0000
,  // measure 40
0000
0000
0000
0000
,  // measure 41
2100
3001
0102
1003
,  // measure 42
2010
3001
0012
1000
,  // measure 43
1003
0102
0013
2100
,  // measure 44
3010
2010
3100
0102
,  // measure 45
0010
0013
0102
1003
,  // measure 46
2010
3100
0012
0103
,  // measure 47
2100
0100
3010
0012
,  // measure 48
0103
2010
3100
1001
,  // measure 49
0010
0100
0010
0100
0010
0100
0010
0100
,  // measure 50
0002
0000
0000
0000
,  // measure 51
2003
0000
0000
3000
,  // measure 52
0001
0000
0000
0000
0010
0000
0000
0000
0100
0000
0000
0000
,  // measure 53
1000
0000
1000
0010
0000
0010
0100
0000
0100
0001
0100
0001
,  // measure 54
0010
0000
0010
0100
0000
0100
1000
0000
1000
0010
0100
0010
,  // measure 55
0100
0000
0100
0001
0000
0001
0010
0000
0010
0100
0000
0100
,  // measure 56
1000
0000
1000
0010
0100
0010
1000
0100
0001
1000
0010
0001
,  // measure 57
1000
0000
1000
0001
0100
0001
1000
0000
1000
0010
0100
0001
,  // measure 58
0100
0000
0100
0010
0000
0010
1000
0000
1000
0001
0100
0001
,  // measure 59
1000
0000
1000
0010
0000
0010
0100
0000
0100
0001
0000
0001
,  // measure 60
0011
0000
0010
0110
0000
0100
1000
0100
0001
1000
0010
0001
,  // measure 61
1000
0000
0001
0100
0000
0010
1000
0000
0100
1000
0001
0010
,  // measure 62
0001
0000
0100
0010
0000
1000
0001
0000
0010
0001
0100
0001
,  // measure 63
0010
0000
0100
1000
0000
0010
0100
0000
0001
1000
0000
0010
,  // measure 64
1000
0000
0100
1000
0010
0100
0001
0010
1000
0001
0100
1000
,  // measure 65
0001
0000
0010
0100
1000
0100
0010
0000
0001
0100
0010
1000
,  // measure 66
0010
0000
0100
0001
0000
1000
0100
0000
0010
0001
0100
0010
,  // measure 67
1010
0000
0010
0110
0000
0100
0101
0000
0001
0011
0000
0010
,  // measure 68
0100
1000
0010
0100
0001
0010
1000
0010
0001
1000
0100
0001
,  // measure 69
0100
0000
1000
0010
0000
0000
0100
0000
0001
0010
0001
0100
,  // measure 70
0010
0000
1000
0100
0000
0000
0001
0000
0100
1000
0010
0100
,  // measure 71
0001
0000
0010
0001
0000
0000
1000
0000
0100
1000
0010
0100
,  // measure 72
0001
0000
0010
0100
0000
0000
1000
0100
0001
1000
0010
0001
,  // measure 73
1000
0000
0010
0100
0001
0100
0010
0000
1000
0100
0000
0000
,  // measure 74
0010
0000
0001
0100
0001
0010
0100
0000
1000
0010
0000
0000
,  // measure 75
0100
0000
0001
1000
0010
1000
0001
0000
0010
0001
0000
0000
,  // measure 76
0101
0000
0100
0110
0000
0010
1000
0010
0001
1000
0100
0001
,  // measure 77
2000
0000
0001
3001
0000
0000
0200
0000
0010
0310
0000
0000
,  // measure 78
2000
0000
0100
3100
0010
0001
0200
0000
0001
0301
0000
0000
,  // measure 79
2000
0000
0010
3010
0000
0000
0200
0000
0010
0310
0000
0000
,  // measure 80
2000
0000
0100
3100
0000
0000
1000
0100
0001
1000
0010
0001
,  // measure 81
2002
0000
0000
3003
0000
0000
1000
0000
0000
0000
0010
0000
0000
0000
0001
0000
0000
0000
1000
0000
0000
0000
0100
0000
,  // measure 82
0000
0000
0001
0000
0000
0000
2002
0000
0000
3003
0000
0000
0001
0000
0000
0000
0010
0000
0000
0000
1000
0000
0000
0000
,  // measure 83
0001
0000
0100
0000
1000
0000
1010
0000
0000
0000
0010
0000
,  // measure 84
0110
0000
0000
0000
0100
0000
0101
0000
0000
0000
0001
0000
,  // measure 85
0011
0000
0000
0000
0010
0000
0100
0000
1000
0000
0010
0000
,  // measure 86
0100
0000
0001
0000
0010
0000
1000
0000
0010
0000
0001
0000
,  // measure 87
1000
0000
0100
0000
0001
0000
2002
0000
0000
0000
0000
0000
,  // measure 88
0000
0000
0000
0000
,  // measure 89
0000
0000
0000
0000
,  // measure 90
0000
0000
0000
0000
,  // measure 91
0000
0000
0000
0000
,  // measure 92
3003
0000
0000
0000
;

//---------------dance-single - ----------------
#NOTES:
     dance-single:
     :
     Beginner:
     4:
     0.270,0.375,0.156,0.026,0.000: // measure 1
0000
0000
0000
0000
,  // measure 2
0000
0000
0000
1000
,  // measure 3
0000
0000
0000
0000
,  // measure 4
0000
0000
0001
0000
,  // measure 5
0100
0000
0010
0000
,  // measure 6
1000
0000
0001
0000
,  // measure 7
1000
0000
0100
0000
,  // measure 8
0010
0001
0010
0000
,  // measure 9
0100
0000
1000
0000
,  // measure 10
0001
0000
0100
0000
,  // measure 11
0010
0000
1000
0001
,  // measure 12
0000
0001
0000
1000
,  // measure 13
0000
0010
0000
0100
,  // measure 14
0000
0010
0000
1000
,  // measure 15
0000
0100
0000
0010
,  // measure 16
0000
0100
0100
1000
,  // measure 17
0000
0001
0000
0010
,  // measure 18
0000
0001
0000
0100
,  // measure 19
0000
0010
0010
1000
,  // measure 20
0001
0000
0001
0000
,  // measure 21
0100
0000
0010
0000
,  // measure 22
1000
0000
0001
0000
,  // measure 23
0100
0100
0100
0100
,  // measure 24
0010
0010
0010
0010
,  // measure 25
1000
0000
0001
0000
,  // measure 26
0100
0000
0010
0000
,  // measure 27
1000
1000
0001
0001
,  // measure 28
0100
0100
0010
0010
,  // measure 29
1000
0000
0100
0000
,  // measure 30
0010
0000
0001
0000
,  // measure 31
1000
0000
0010
0000
,  // measure 32
0100
0100
0001
0000
,  // measure 33
1000
1000
0001
0001
,  // measure 34
0100
0100
0010
0010
,  // measure 35
1000
1000
0100
0100
,  // measure 36
0010
0001
0100
0010
,  // measure 37
2000
0000
0000
3000
,  // measure 38
0000
0000
0000
0000
,  // measure 39
0000
0000
0000
0000
,  // measure 40
0000
0000
0000
0000
,  // measure 41
1000
0000
0001
0000
,  // measure 42
0100
0000
0010
0000
,  // measure 43
0010
1000
0000
0001
,  // measure 44
0000
0100
0000
0010
,  // measure 45
0000
0010
1000
0000
,  // measure 46
0100
0000
0010
0000
,  // measure 47
0001
0000
0001
1000
,  // measure 48
0000
0010
0000
0200
,  // measure 49
0020
0000
0000
0000
,  // measure 50
0330
0000
0000
0000
,  // measure 51
0000
0000
0000
0000
,  // measure 52
1000
0000
0000
0000
,  // measure 53
0001
0000
0100
0000
,  // measure 54
0010
0000
1000
0000
,  // measure 55
0001
0001
1000
1000
,  // measure 56
0010
0100
0001
1000
,  // measure 57
0100
0000
0010
0000
,  // measure 58
0001
0000
0100
0000
,  // measure 59
0010
0000
1000
0000
,  // measure 60
0001
0001
1000
1000
,  // measure 61
0010
0000
1000
0000
,  // measure 62
0100
0000
0010
0000
,  // measure 63
0001
0000
0100
0000
,  // measure 64
0010
0010
0100
0100
,  // measure 65
0001
0000
0010
0000
,  // measure 66
0100
0000
1000
0000
,  // measure 67
0001
0001
1000
1000
,  // measure 68
0010
0010
0100
0100
,  // measure 69
0001
0000
0100
0000
,  // measure 70
0010
0010
1000
0000
,  // measure 71
0100
0000
1000
0000
,  // measure 72
0001
0001
0100
0000
,  // measure 73
0010
0000
1000
0000
,  // measure 74
0001
0001
0010
0000
,  // measure 75
0100
0000
1000
0000
,  // measure 76
0001
0001
1000
1000
,  // measure 77
1010
0000
0110
0000
,  // measure 78
0101
0000
0011
0000
,  // measure 79
0110
0000
1100
0000
,  // measure 80
1001
0000
0001
0100
,  // measure 81
1010
1000
0000
0100
,  // measure 82
0000
0011
0001
0000
,  // measure 83
0100
0000
1010
0000
,  // measure 84
1010
0000
0101
0000
,  // measure 85
0101
0000
1100
0000
,  // measure 86
0011
0000
0101
0000
,  // measure 87
1010
0000
1001
0000
;

//---------------dance-single - ----------------
#NOTES:
     dance-single:
     :
     Easy:
     7:
     0.535,0.709,1.000,0.095,0.000: // measure 1
0000
0000
0000
0000
,  // measure 2
0000
0000
0000
2000
,  // measure 3
0000
0000
0000
0000
,  // measure 4
0000
3000
0001
0100
,  // measure 5
0010
0100
0001
0010
,  // measure 6
0100
1000
0001
0100
,  // measure 7
0010
1000
0001
1000
,  // measure 8
1100
1001
0101
0100
,  // measure 9
0010
1000
0010
0100
,  // measure 10
0001
1000
0100
0010
,  // measure 11
0011
0101
0210
0010
,  // measure 12
0000
0010
0300
0110
,  // measure 13
0010
1000
0100
1000
,  // measure 14
0001
0010
0001
0100
,  // measure 15
0010
1000
0001
0100
,  // measure 16
0010
1001
0110
1001
,  // measure 17
1000
0100
0010
0001
,  // measure 18
0100
0010
1000
0001
,  // measure 19
0100
0110
1010
2001
,  // measure 20
0001
0000
0001
3000
,  // measure 21
1001
1000
0010
0100
,  // measure 22
0010
1000
0100
0010
,  // measure 23
0001
0011
0101
0110
,  // measure 24
1010
1001
0101
0101
,  // measure 25
0110
0010
1000
0100
,  // measure 26
1000
0001
0010
0001
,  // measure 27
0101
0101
1010
1010
,  // measure 28
1100
0011
0101
1010
,  // measure 29
1001
1000
0010
0100
,  // measure 30
0010
1000
0100
0010
,  // measure 31
0001
0101
0101
1010
,  // measure 32
1010
1001
0110
0110
,  // measure 33
0001
0101
0100
0010
,  // measure 34
1000
1010
0010
1000
,  // measure 35
0100
0110
0010
0001
,  // measure 36
1000
1000
0001
0001
,  // measure 37
2002
0000
0000
3003
,  // measure 38
0000
0000
0000
0000
,  // measure 39
0000
0000
0000
0000
,  // measure 40
0000
0000
0000
0000
,  // measure 41
1001
0000
0101
0000
,  // measure 42
0110
0000
1010
0000
,  // measure 43
1000
1001
0000
0101
,  // measure 44
0000
0110
0000
1010
,  // measure 45
0000
1000
1100
0000
,  // measure 46
0110
0000
0011
0000
,  // measure 47
0101
0000
0100
0110
,  // measure 48
0000
1001
0000
0110
,  // measure 49
0001
0000
1000
0000
,  // measure 50
2002
0000
3003
0000
,  // measure 51
0220
0000
0330
0000
,  // measure 52
1001
0000
0000
0000
,  // measure 53
0110
0010
1010
1000
,  // measure 54
1001
0001
0101
0100
,  // measure 55
0110
0010
1010
1000
,  // measure 56
1100
0100
0110
0110
,  // measure 57
1001
0001
0101
0100
,  // measure 58
0110
0010
1010
1000
,  // measure 59
1100
0100
0110
0010
,  // measure 60
0011
0011
1100
1100
,  // measure 61
1001
0001
0101
0100
,  // measure 62
0110
0010
1010
1000
,  // measure 63
1100
0100
0110
0010
,  // measure 64
0011
0011
1100
1100
,  // measure 65
0101
0100
0110
0010
,  // measure 66
1010
1000
1001
0001
,  // measure 67
0101
0101
1010
1010
,  // measure 68
1100
0011
0101
1010
,  // measure 69
1001
0001
0101
0100
,  // measure 70
0110
0010
1010
1000
,  // measure 71
1001
0001
0101
0100
,  // measure 72
0110
0010
1010
1010
,  // measure 73
1100
0100
0110
0010
,  // measure 74
0011
0001
0101
0100
,  // measure 75
0110
0010
1010
1000
,  // measure 76
1100
0011
0101
1010
,  // measure 77
0101
0010
1100
0010
,  // measure 78
1001
0010
1001
0100
,  // measure 79
1100
0001
0101
1000
,  // measure 80
1010
0001
0011
1000
,  // measure 81
1001
0101
0000
0110
,  // measure 82
0000
1010
1100
0000
,  // measure 83
0110
0000
0011
0000
,  // measure 84
0011
0000
1100
0000
,  // measure 85
1100
0000
0101
0000
,  // measure 86
1010
0000
0011
0000
,  // measure 87
1100
0000
2002
0000
,  // measure 88
0000
0000
0000
0000
,  // measure 89
0000
0000
0000
0000
,  // measure 90
0000
0000
0000
0000
,  // measure 91
0000
0000
0000
0000
,  // measure 92
3003
0000
0000
0000
;

//---------------dance-single - ----------------
#NOTES:
     dance-single:
     :
     Medium:
     9:
     0.660,0.828,0.918,0.277,0.446: // measure 1
0000
0000
0000
0000
,  // measure 2
0000
0000
0000
2000
,  // measure 3
0000
0000
0000
0000
,  // measure 4
0000
3000
0001
0101
,  // measure 5
0100
0110
0010
1010
,  // measure 6
1000
0000
0000
1001
0000
0001
0100
0000
0000
0110
0000
0000
,  // measure 7
0010
1010
1000
1001
,  // measure 8
0001
0000
0001
0100
0000
0100
0010
0000
0000
1010
0000
0000
,  // measure 9
1000
1100
0100
0110
,  // measure 10
0010
0000
0000
0011
0000
0001
1000
0000
0000
1100
0000
0000
,  // measure 11
0100
0000
0000
0110
0000
0000
0012
0000
0003
1000
0000
0000
,  // measure 12
0000
0000
1000
0001
0000
0000
0000
0000
0001
0100
0000
0000
,  // measure 13
0110
0010
1010
1000
,  // measure 14
1001
0000
0000
0001
0000
0000
0101
0000
0001
0100
0000
0000
,  // measure 15
0110
0000
0100
0010
0000
0000
1010
0000
0000
1000
0000
0000
,  // measure 16
1100
0000
0000
0100
0000
0100
0010
0000
0010
0001
0000
0000
,  // measure 17
0011
0001
0101
0100
,  // measure 18
0110
0000
0010
1000
0000
0000
1001
0000
0000
0001
0000
0000
,  // measure 19
0101
0000
0100
0000
1010
0000
2001
3000
,  // measure 20
0001
0000
0000
0000
0000
0001
0100
0000
0000
0000
0000
0100
,  // measure 21
0010
1010
1000
1100
,  // measure 22
0100
0110
0010
0011
,  // measure 23
0001
0200
0320
2030
,  // measure 24
3002
0000
0000
2003
0000
0000
3100
0000
0100
0010
0000
0010
,  // measure 25
0001
0011
0001
0101
,  // measure 26
0100
0110
0010
1010
,  // measure 27
2000
3200
0302
0023
,  // measure 28
1030
0000
1000
0001
0000
0001
0100
0000
0100
0010
0000
0010
,  // measure 29
1000
1100
0100
0110
,  // measure 30
0010
0011
0001
0101
,  // measure 31
0100
0020
2030
3200
,  // measure 32
0320
0000
0000
0032
0000
0000
1003
0000
1000
0001
0000
0001
,  // measure 33
0100
0000
0000
0110
0000
0000
0010
0000
0010
1000
0000
1000
,  // measure 34
0100
0000
0000
0110
0000
0000
0010
0000
0010
0001
0000
0001
,  // measure 35
1000
0000
0000
1100
0000
0000
0100
0000
0100
0010
0000
0010
,  // measure 36
0001
0000
0001
0100
0000
0100
1000
0000
1000
0010
0000
0010
,  // measure 37
0002
0000
0000
0003
,  // measure 38
0000
0000
0000
0000
,  // measure 39
0000
0000
0000
0000
,  // measure 40
0000
0000
0000
0000
,  // measure 41
1100
0100
0110
0010
,  // measure 42
0011
0001
0101
0100
,  // measure 43
0010
1010
1000
1100
,  // measure 44
0100
0110
0010
0011
,  // measure 45
0001
0100
0110
0010
,  // measure 46
1010
1000
1100
0100
,  // measure 47
0101
0100
1000
1010
,  // measure 48
0010
0110
0100
0101
,  // measure 49
0001
0000
1000
0000
0001
0000
1000
0000
0001
0000
1000
0000
,  // measure 50
2002
0000
0003
0000
,  // measure 51
0020
0000
0000
3030
,  // measure 52
1000
0000
0000
0000
0001
0000
0000
0000
1000
0000
0000
0000
,  // measure 53
0001
0000
0000
0101
0000
0000
0100
0000
0000
0110
0000
0010
,  // measure 54
1000
0000
0000
1010
0000
0000
1000
0000
0000
1100
0000
0100
,  // measure 55
0010
0000
0000
0110
0000
0000
0010
0000
0000
0011
0000
0001
,  // measure 56
1000
0000
0000
1001
0000
0000
1000
0001
1000
0001
1000
0001
,  // measure 57
0100
0000
0000
0110
0000
0000
0010
0000
0000
1010
0000
1000
,  // measure 58
0001
0000
0000
0101
0000
0000
0001
0000
0000
0011
0000
0010
,  // measure 59
0100
0000
0000
1100
0000
0000
1000
0000
0000
1001
0000
0001
,  // measure 60
0100
0000
0100
0010
0000
0010
1000
0100
1000
0001
0100
0001
,  // measure 61
1000
0000
0000
1010
0000
0000
0010
0000
0000
0110
0000
0100
,  // measure 62
0001
0000
0000
0101
0000
0000
0001
0000
0000
0011
0000
0010
,  // measure 63
0100
0000
0000
0110
0000
0000
0100
0000
0000
1100
0000
1000
,  // measure 64
0001
0000
0000
1001
0000
0000
0001
0000
0001
0100
0000
0100
,  // measure 65
0010
0000
0000
1010
0000
0000
1000
0000
0000
1100
0000
0100
,  // measure 66
0010
0000
0000
0011
0000
0000
0001
0000
0000
0101
0000
0100
,  // measure 67
0010
0000
0010
1000
0000
1000
0001
0000
0001
1000
0000
1000
,  // measure 68
0010
0100
0010
0100
0010
0100
0010
0100
0010
0100
0010
0100
,  // measure 69
0001
0101
0001
0011
,  // measure 70
0010
0000
0000
0110
0000
0100
1000
0000
0000
1010
0000
0000
,  // measure 71
0010
0110
0100
0101
,  // measure 72
0001
0000
0000
1001
0000
0000
1000
0000
1000
0001
0000
0001
,  // measure 73
0100
0110
0010
1010
,  // measure 74
1000
1100
0100
0110
,  // measure 75
0010
0011
0001
0101
,  // measure 76
1010
0000
0000
1010
0000
0000
0100
0001
0100
0001
0100
0001
,  // measure 77
0020
0030
1100
0000
0020
0030
0101
0000
,  // measure 78
0200
0300
1010
0000
0200
0300
0011
0000
,  // measure 79
2000
3000
0101
0000
2000
3000
0011
0000
,  // measure 80
0002
0000
0000
0003
0000
0000
1100
0000
0000
0000
0000
0000
0001
0000
1000
0000
0001
0000
1000
0000
0001
0000
1000
0000
,  // measure 81
0020
0000
0000
0030
0000
0000
0100
0000
0000
0000
0001
0000
0000
0000
0100
0000
0000
0000
0001
0000
0000
0000
0100
0000
,  // measure 82
0000
0000
0001
0000
0000
0000
2000
0000
0000
3000
0000
0000
0010
0000
0000
0000
0100
0000
0000
0000
0010
0000
0000
0000
,  // measure 83
0100
0000
0010
0000
0100
0000
0010
0000
0000
0000
0010
0000
,  // measure 84
0100
0000
0000
0000
0100
0000
0001
0000
0000
0000
0001
0000
,  // measure 85
0010
0000
0000
0000
0010
0000
0100
0000
1000
0000
0100
0000
,  // measure 86
1000
0000
0100
0000
1000
0000
0001
0000
0010
0000
0001
0000
,  // measure 87
0010
0000
0001
0000
0010
0000
0220
0000
0000
0000
0000
0000
,  // measure 88
0000
0000
0000
0000
,  // measure 89
0000
0000
0000
0000
,  // measure 90
0000
0000
0000
0000
,  // measure 91
0000
0000
0000
0000
,  // measure 92
0330
0000
0000
0000
;
