#TITLE:Durandal;
#SUBTITLE:;
#ARTIST:Kozo Nakamura;
#TITLETRANSLIT:;
#SUBTITLETRANSLIT:;
#ARTISTTRANSLIT:;
#CREDIT:;
#BANNER:Durandal.png;
#BACKGROUND:Durandal-bg.png;
#LYRICSPATH:;
#CDTITLE:;
#MUSIC:Durandal.mp3;
#OFFSET:-0.212;
#SAMPLESTART:24.205;
#SAMPLELENGTH:15.620;
#SELECTABLE:YES;
#BPMS:0.000=240.001;
#STOPS:;
#BGCHANGES:;

//---------------dance-single - ----------------
#NOTES:
     dance-single:
     :
     Hard:
     9:
     0.733,0.833,0.400,0.114,0.000: // measure 1
0000
0000
0000
0000
,  // measure 2
0000
0000
0000
0000
,  // measure 3
0000
0000
0000
0000
,  // measure 4
0000
0000
0000
0000
,  // measure 5
0000
0000
0000
0000
,  // measure 6
0000
0000
0000
0000
,  // measure 7
1100
0000
0011
0000
,  // measure 8
1000
0001
1000
0001
0100
0010
0100
0010
,  // measure 9
1000
0000
0001
0000
0010
0001
0010
0000
,  // measure 10
0001
0000
0100
0000
0010
1000
0010
0000
,  // measure 11
1000
0000
0001
0000
0100
0001
0100
0000
,  // measure 12
0010
0000
1000
0000
0010
0100
0010
0000
,  // measure 13
1000
0000
0100
0000
0010
0001
0010
0000
,  // measure 14
0001
0000
0100
0000
0010
1000
0010
0000
,  // measure 15
1000
0000
1001
0000
1000
0010
0000
0000
,  // measure 16
0100
0001
0100
0000
0010
1000
0010
0100
,  // measure 17
0001
0000
0010
0000
0001
0100
0001
0000
,  // measure 18
0100
0000
0010
0000
1000
0010
1000
0000
,  // measure 19
0100
0000
1000
0000
0001
0010
0001
0000
,  // measure 20
0011
0000
0000
0110
0000
0000
1100
0000
,  // measure 21
1000
0000
0010
0000
0100
0010
0100
0000
,  // measure 22
0001
0000
0010
0000
0001
0100
0001
0000
,  // measure 23
1000
0010
0100
0000
0001
0010
0100
0000
,  // measure 24
1000
0010
0100
0000
0001
1000
0010
0000
,  // measure 25
1001
0000
1000
0000
0010
0100
0010
0000
,  // measure 26
0100
0000
0001
0000
0010
0001
0010
0000
,  // measure 27
0110
0000
0010
0000
0100
1000
0100
0000
,  // measure 28
1000
0000
0010
0000
0100
0001
0100
0000
,  // measure 29
0110
0000
0010
0000
1000
0001
1000
0001
,  // measure 30
0100
0010
0100
0000
0001
2000
0000
3000
,  // measure 31
0011
0000
0000
1100
0000
0000
1010
0000
,  // measure 32
0000
0001
0100
0001
0100
0010
1000
0000
,  // measure 33
1001
0000
1000
0000
0100
0010
0100
0000
,  // measure 34
0010
0000
0001
0000
0100
0001
0100
0000
,  // measure 35
0110
0000
0010
0000
1000
0010
1000
0000
,  // measure 36
0001
0000
0100
0000
0010
1000
0010
0000
,  // measure 37
1010
0000
1000
0000
0100
1000
0100
0000
,  // measure 38
0010
0000
0001
0000
0100
0001
0100
0001
,  // measure 39
1000
0000
0000
1001
0000
0000
0110
0000
,  // measure 40
1000
0010
1000
0010
0100
0001
0100
0000
,  // measure 41
0010
1000
0000
0010
0100
0000
0001
0100
,  // measure 42
0000
0010
1000
0000
0001
1000
0001
1000
,  // measure 43
0001
0010
0000
0100
1000
0000
0010
0100
,  // measure 44
0002
0000
0003
0000
,  // measure 45
2100
0000
3001
0000
,  // measure 46
0101
0000
0000
0110
0000
0000
0010
1000
,  // measure 47
0002
0000
1003
0000
,  // measure 48
0001
0100
0001
0100
0010
1000
0010
1000
,  // measure 49
0001
0000
0000
1001
0000
0000
0000
0000
,  // measure 50
1000
0010
1000
0010
0100
0001
0100
0000
,  // measure 51
0102
1003
2100
3001
,  // measure 52
1000
0010
0100
0001
1000
0100
0010
0001
,  // measure 53
1000
0001
0100
0010
,  // measure 54
1000
0100
1000
0000
0001
0000
0100
0000
,  // measure 55
0010
1000
0100
0010
,  // measure 56
0001
0100
0001
0000
1000
0100
1000
0000
,  // measure 57
0010
0100
0001
1000
,  // measure 58
0100
1000
0100
0000
0010
0000
0001
0000
,  // measure 59
1000
0000
1001
0000
0100
0002
0000
0003
,  // measure 60
1000
0001
0100
0010
1000
0002
0000
0003
,  // measure 61
1001
1000
0010
0100
,  // measure 62
0010
1000
0010
0000
0100
0000
0001
0000
,  // measure 63
0010
0100
1000
0001
,  // measure 64
0010
0001
0010
0000
0100
0000
1000
0000
,  // measure 65
0001
0010
0001
0100
,  // measure 66
0010
1000
0010
0000
0100
0000
0001
0000
,  // measure 67
1000
0000
1001
0000
0100
0002
0000
0003
,  // measure 68
1000
0010
0100
0000
0001
0010
0100
1000
,  // measure 69
0001
0000
0100
0000
0010
1000
0010
0000
,  // measure 70
0100
0001
0100
0000
0001
0000
0010
0000
,  // measure 71
0100
0000
1000
0000
0001
0000
0100
0001
,  // measure 72
0010
0001
0100
0000
0001
0010
0100
0000
,  // measure 73
1000
0001
0000
0000
0000
0000
0000
0000
,  // measure 74
1100
0000
0000
0011
0000
0000
0101
0000
,  // measure 75
1000
0020
0000
0030
0100
0002
0000
0003
,  // measure 76
0010
0100
1000
0001
0010
0001
0100
0010
,  // measure 77
1000
0000
0001
0000
0100
0010
0100
0000
,  // measure 78
0010
0000
1000
0000
0100
1000
0100
0000
,  // measure 79
0110
0000
0100
0000
0010
0001
0010
0000
,  // measure 80
0001
0000
0100
0000
0010
1000
0010
0000
,  // measure 81
0110
0000
0100
0000
0010
1000
0010
0000
,  // measure 82
0100
0000
0001
0000
1000
0001
1000
0000
,  // measure 83
1100
0000
0000
0011
0000
0000
0101
0000
,  // measure 84
1000
0010
0100
0001
1000
0100
0010
0001
,  // measure 85
1000
0000
0001
0000
0010
0100
0010
0000
,  // measure 86
0100
0000
1000
0000
0010
1000
0010
0000
,  // measure 87
1010
0000
0000
0101
0000
0000
1001
0000
,  // measure 88
1000
0000
0010
0000
0100
0001
0100
0000
,  // measure 89
0001
0000
0010
0000
0100
1000
0100
0000
,  // measure 90
1000
0000
0010
0000
0100
0001
0100
0000
,  // measure 91
0010
0000
1000
0100
0000
1000
0001
0000
,  // measure 92
1000
0010
1000
0010
0100
0001
0100
0001
,  // measure 93
1000
0010
0100
0010
1000
0100
0000
0000
,  // measure 94
0011
0000
0000
0101
0000
0000
1001
0000
,  // measure 95
1000
0000
0010
0000
0100
0010
0100
0000
,  // measure 96
0010
0000
1000
0000
0100
0010
0100
0000
,  // measure 97
1000
0010
0100
0010
1000
0100
0010
0000
,  // measure 98
1000
0001
0010
0001
0100
0010
1000
0001
,  // measure 99
1000
0000
0100
1000
0000
0010
0100
0000
,  // measure 100
0001
1000
0001
1000
0100
0010
0100
0010
,  // measure 101
0001
0100
0000
0010
1000
0000
0100
0010
,  // measure 102
0000
0001
1000
0010
1000
0002
0000
0003
,  // measure 103
1001
0000
0000
0010
,  // measure 104
0110
0000
0000
0000
;

//---------------dance-single - ----------------
#NOTES:
     dance-single:
     :
     Beginner:
     2:
     0.197,0.245,0.010,0.000,0.000: // measure 1
0000
0000
0000
0000
,  // measure 2
0000
0000
0000
0000
,  // measure 3
0000
0000
0000
0000
,  // measure 4
0000
0000
0000
0000
,  // measure 5
0000
0000
0000
0000
,  // measure 6
0000
0000
0000
0000
,  // measure 7
1000
0000
1000
0000
,  // measure 8
0001
0000
0001
0000
,  // measure 9
0100
0000
0000
0000
,  // measure 10
0010
0000
0000
0000
,  // measure 11
1000
0000
0000
0000
,  // measure 12
0100
0000
0100
0000
,  // measure 13
0100
0000
0000
0000
,  // measure 14
1000
0000
0000
0000
,  // measure 15
0010
0000
0000
0000
,  // measure 16
0100
0000
0100
0000
,  // measure 17
0100
0000
0000
0000
,  // measure 18
0001
0000
0000
0000
,  // measure 19
1000
0000
0000
0000
,  // measure 20
0010
0000
0010
0000
,  // measure 21
0010
0000
0000
0000
,  // measure 22
0100
0000
0000
0000
,  // measure 23
0001
0000
0001
0000
,  // measure 24
1000
0000
1000
0000
,  // measure 25
0100
0000
0000
0000
,  // measure 26
0010
0000
0010
0000
,  // measure 27
0010
0000
0000
0000
,  // measure 28
0001
0000
0001
0000
,  // measure 29
0001
0000
0000
0000
,  // measure 30
1000
0000
0000
0000
,  // measure 31
0010
0000
0010
0000
,  // measure 32
0100
0000
0100
0000
,  // measure 33
0001
0000
0000
0000
,  // measure 34
1000
0000
1000
0000
,  // measure 35
1000
0000
0000
0000
,  // measure 36
0001
0000
0001
0000
,  // measure 37
0001
0000
0000
0000
,  // measure 38
0010
0000
0010
0000
,  // measure 39
0010
0000
0000
0000
,  // measure 40
0100
0000
0100
0000
,  // measure 41
0100
0000
0000
0000
,  // measure 42
1000
0000
1000
0000
,  // measure 43
1000
0000
0000
0000
,  // measure 44
0001
0000
0000
0000
,  // measure 45
0010
0000
0000
0000
,  // measure 46
0100
0000
0000
0000
,  // measure 47
1000
0000
0000
0000
,  // measure 48
0001
0000
0000
0000
,  // measure 49
0100
0000
0000
0000
,  // measure 50
0010
0000
0000
0000
,  // measure 51
1000
0000
1000
0000
,  // measure 52
0001
0000
0001
0000
,  // measure 53
1000
0000
0000
0000
,  // measure 54
0100
0000
0000
0000
,  // measure 55
0010
0000
0000
0000
,  // measure 56
0001
0000
0000
0000
,  // measure 57
1000
0000
1000
0000
,  // measure 58
0001
0000
0001
0000
,  // measure 59
0010
0000
0010
0000
,  // measure 60
0001
0000
0000
0000
,  // measure 61
1000
0000
0000
0000
,  // measure 62
0100
0000
0100
0000
,  // measure 63
0010
0000
0010
0000
,  // measure 64
1000
0000
1000
0000
,  // measure 65
0001
0000
0001
0000
,  // measure 66
0010
0000
0010
0000
,  // measure 67
0100
0000
0100
0000
,  // measure 68
1000
0000
1000
0000
,  // measure 69
0001
0000
0001
0000
,  // measure 70
1000
0000
0000
0000
,  // measure 71
0010
0000
0000
0000
,  // measure 72
0100
0000
0100
0000
,  // measure 73
1000
0000
0000
0000
,  // measure 74
0001
0000
0001
0000
,  // measure 75
0100
0000
0100
0000
,  // measure 76
0010
0000
0010
0000
,  // measure 77
1000
0000
0000
0000
,  // measure 78
0001
0000
0001
0000
,  // measure 79
0001
0000
0000
0000
,  // measure 80
0100
0000
0100
0000
,  // measure 81
0100
0000
0000
0000
,  // measure 82
0010
0000
0000
0000
,  // measure 83
1000
0000
1000
0000
,  // measure 84
0001
0000
0001
0000
,  // measure 85
0100
0000
0000
0000
,  // measure 86
0010
0000
0010
0000
,  // measure 87
0010
0000
0000
0000
,  // measure 88
1000
0000
1000
0000
,  // measure 89
1000
0000
0000
0000
,  // measure 90
0001
0000
0001
0000
,  // measure 91
0001
0000
0000
0000
,  // measure 92
0100
0000
0100
0000
,  // measure 93
0100
0000
0000
0000
,  // measure 94
0010
0000
0010
0000
,  // measure 95
0010
0000
0000
0000
,  // measure 96
1000
0000
1000
0000
,  // measure 97
1000
0000
0000
0000
,  // measure 98
0001
0000
0001
0000
,  // measure 99
0001
0000
0000
0000
,  // measure 100
0100
0000
0100
0000
,  // measure 101
0100
0000
0000
0000
,  // measure 102
0010
0000
0000
0000
,  // measure 103
1000
0000
0001
0000
,  // measure 104
1001
0000
0000
0000
;

//---------------dance-single - ----------------
#NOTES:
     dance-single:
     :
     Easy:
     5:
     0.398,0.441,0.038,0.010,0.000: // measure 1
0000
0000
0000
0000
,  // measure 2
0000
0000
0000
0000
,  // measure 3
0000
0000
0000
0000
,  // measure 4
0000
0000
0000
0000
,  // measure 5
0000
0000
0000
0000
,  // measure 6
0000
0000
0000
0000
,  // measure 7
1000
0100
1000
0100
,  // measure 8
0010
0001
0010
0001
,  // measure 9
0010
0000
0001
0000
,  // measure 10
0100
0001
0100
0000
,  // measure 11
0010
0000
1000
0000
,  // measure 12
0001
1000
0001
0000
,  // measure 13
1000
0000
0100
0000
,  // measure 14
0010
0001
0010
0000
,  // measure 15
0001
0000
0100
0000
,  // measure 16
0010
1000
0001
1000
,  // measure 17
0100
0000
1000
0000
,  // measure 18
0010
0100
0010
0000
,  // measure 19
0100
0000
0001
0000
,  // measure 20
0010
0000
0000
0001
0000
0000
1000
0000
,  // measure 21
0100
0000
1000
0000
,  // measure 22
0010
0100
0010
0000
,  // measure 23
1000
0100
0010
0001
,  // measure 24
1000
0010
0100
0001
,  // measure 25
1000
0000
0001
0000
,  // measure 26
0100
0000
0010
1000
,  // measure 27
0010
0000
0100
0000
,  // measure 28
0001
0000
1000
0100
,  // measure 29
1000
0000
0001
0100
,  // measure 30
0001
0000
1000
0000
,  // measure 31
0010
0000
0000
0010
0000
0000
0020
0000
,  // measure 32
0000
0100
0100
0130
,  // measure 33
0001
0000
0100
0000
,  // measure 34
0010
0000
1000
0100
,  // measure 35
1000
0000
0100
0000
,  // measure 36
0010
0000
0001
0100
,  // measure 37
0001
0000
1000
0100
,  // measure 38
1000
0000
0001
0010
,  // measure 39
0001
0000
1000
0010
,  // measure 40
1000
0000
0001
0000
,  // measure 41
1000
0000
1000
0000
,  // measure 42
0100
0000
0100
0000
,  // measure 43
0010
0001
0100
0001
,  // measure 44
1000
0000
0000
0000
,  // measure 45
0101
0000
0010
0000
,  // measure 46
0001
0100
0010
1000
,  // measure 47
1100
0000
1000
0000
,  // measure 48
0010
1000
0100
0010
,  // measure 49
0011
0000
0001
0000
,  // measure 50
0100
0001
0010
0100
,  // measure 51
1000
0010
1000
0100
,  // measure 52
1000
0001
0010
0001
,  // measure 53
0100
0000
0010
0000
,  // measure 54
1000
0100
0001
0000
,  // measure 55
1000
0000
0010
0000
,  // measure 56
0001
0010
1000
0000
,  // measure 57
0001
0100
0010
1000
,  // measure 58
0100
0010
0001
1000
,  // measure 59
0001
1000
0001
0000
,  // measure 60
0100
0010
0100
0000
,  // measure 61
0010
0010
1000
1000
,  // measure 62
0100
0100
0010
0010
,  // measure 63
0001
0001
0100
0100
,  // measure 64
0010
0010
1000
1000
,  // measure 65
0001
0001
0010
0010
,  // measure 66
0001
0001
0100
0100
,  // measure 67
0010
0010
1000
1000
,  // measure 68
0100
0100
0010
0010
,  // measure 69
0001
0100
0010
1000
,  // measure 70
0001
0010
0100
1000
,  // measure 71
0001
0010
1000
0010
,  // measure 72
0001
0100
1000
0100
,  // measure 73
0001
0000
0000
0000
,  // measure 74
1000
0000
0000
0001
0000
0000
1000
0000
,  // measure 75
0001
0010
0100
1000
,  // measure 76
0001
0100
0010
1000
,  // measure 77
0001
0000
1000
0000
,  // measure 78
0010
0000
0100
0001
,  // measure 79
0100
0000
0010
0000
,  // measure 80
1000
0000
0001
0010
,  // measure 81
0001
0000
1000
0010
,  // measure 82
1000
0000
0001
0000
,  // measure 83
0100
0000
0000
0100
0000
0000
0100
0000
,  // measure 84
0010
1000
0001
0100
,  // measure 85
0001
0000
0010
0000
,  // measure 86
0100
0000
0001
0010
,  // measure 87
0001
0000
0010
0000
,  // measure 88
0100
0000
1000
0010
,  // measure 89
1000
0000
0001
0010
,  // measure 90
0001
0000
1000
0100
,  // measure 91
1000
0000
0001
0100
,  // measure 92
0001
0000
1000
0000
,  // measure 93
0001
0100
0010
0000
,  // measure 94
1000
0000
0001
0100
,  // measure 95
0010
0000
1000
0000
,  // measure 96
0001
0000
0010
0001
,  // measure 97
0100
0000
0010
1000
,  // measure 98
0000
0010
0100
0001
,  // measure 99
1000
0000
0100
1000
,  // measure 100
0010
0000
1000
0000
,  // measure 101
0100
0000
0000
0100
0000
0000
0010
0000
,  // measure 102
0000
0010
0000
0000
0001
0000
0000
0000
,  // measure 103
1000
0010
0100
0001
,  // measure 104
1001
0000
0000
0000
;

//---------------dance-single - ----------------
#NOTES:
     dance-single:
     :
     Medium:
     7:
     0.531,0.686,0.181,0.038,0.000: // measure 1
0000
0000
0000
0000
,  // measure 2
0000
0000
0000
0000
,  // measure 3
0000
0000
0000
0000
,  // measure 4
0000
0000
0000
0000
,  // measure 5
0000
0000
0000
0000
,  // measure 6
0000
0000
0000
0000
,  // measure 7
1000
0100
0010
0001
,  // measure 8
1000
1000
0001
0001
,  // measure 9
1001
0001
0100
1000
,  // measure 10
0100
0001
0010
1000
,  // measure 11
0010
0001
0100
0010
,  // measure 12
1000
0100
0010
0001
,  // measure 13
0100
0001
0010
0100
,  // measure 14
1000
0010
1000
0100
,  // measure 15
0010
0001
0100
0010
,  // measure 16
1000
1000
0001
0001
,  // measure 17
1001
0001
0100
1000
,  // measure 18
0100
0001
0010
1000
,  // measure 19
0010
0001
0100
0010
,  // measure 20
1000
0000
0000
0001
0000
0000
1000
0000
,  // measure 21
0001
0010
0100
1000
,  // measure 22
0001
0100
0010
1000
,  // measure 23
0001
0001
0100
0100
,  // measure 24
0010
0010
1000
1000
,  // measure 25
0001
0010
0100
0010
,  // measure 26
0001
0000
0000
0100
0000
0000
0010
0000
,  // measure 27
1000
0100
0010
0100
,  // measure 28
1000
0000
0000
0010
0000
0000
0100
0000
,  // measure 29
0001
0010
0100
1000
,  // measure 30
0001
0000
0100
0000
0010
1000
0000
0000
,  // measure 31
0001
0000
0000
1000
0000
0000
0100
0000
,  // measure 32
0000
0010
0001
0000
0010
0000
0100
0000
,  // measure 33
1000
0001
0100
0001
,  // measure 34
1000
0000
0000
0010
0000
0000
0001
0000
,  // measure 35
1000
0010
0100
0001
,  // measure 36
1000
0000
0000
0100
0000
0000
0010
0000
,  // measure 37
0001
0000
0000
0100
0000
0000
0010
0000
,  // measure 38
1000
0001
0100
0010
,  // measure 39
0100
0000
0000
0101
0000
0000
1001
0000
,  // measure 40
1000
0010
0100
0001
,  // measure 41
1000
0001
0000
1000
0001
0000
0100
0010
,  // measure 42
0000
0100
0010
0000
1000
0000
0001
0000
,  // measure 43
0100
0010
0000
0100
0010
0000
1000
0000
,  // measure 44
0001
0000
0000
0000
,  // measure 45
0102
0000
1003
0000
,  // measure 46
0001
0100
0010
1000
,  // measure 47
2100
0000
3001
0000
,  // measure 48
1000
0100
0010
0001
,  // measure 49
1002
0000
0103
0000
,  // measure 50
0001
0100
1000
0100
,  // measure 51
0001
0001
1000
1000
,  // measure 52
0001
0010
0100
1000
,  // measure 53
0001
0100
1000
0100
,  // measure 54
0001
0010
1000
0010
,  // measure 55
0001
0100
1000
0100
,  // measure 56
0001
0010
1000
0010
,  // measure 57
0001
0100
0010
1000
,  // measure 58
0001
0010
0100
1000
,  // measure 59
0001
0000
1000
0000
0001
1000
0000
0000
,  // measure 60
0001
0001
1000
1000
,  // measure 61
1001
0001
0101
0100
,  // measure 62
0110
0010
1010
1000
,  // measure 63
1100
1000
0100
0001
,  // measure 64
0100
1000
0010
0001
,  // measure 65
0010
1000
0100
0010
,  // measure 66
0001
0010
0100
1000
,  // measure 67
0010
0100
0001
0100
,  // measure 68
0010
1000
0001
1000
,  // measure 69
0100
0010
0001
0010
,  // measure 70
0100
1000
0001
0100
,  // measure 71
0010
1000
0001
0010
,  // measure 72
0001
0000
0100
0000
0001
1000
0001
0000
,  // measure 73
0100
0010
0000
0000
0000
0000
0000
0000
,  // measure 74
1000
0000
0000
1100
0000
0000
0110
0000
,  // measure 75
0010
0001
0100
0010
,  // measure 76
1000
0000
0001
0000
0100
0010
0100
0000
,  // measure 77
0001
0010
0100
0010
,  // measure 78
0001
0000
0000
0100
0000
0000
0010
0000
,  // measure 79
1000
0100
0010
0100
,  // measure 80
1000
0000
0000
0010
0000
0000
0100
0000
,  // measure 81
0001
0010
0100
1000
,  // measure 82
0001
0000
0100
0000
0010
1000
0000
0000
,  // measure 83
0001
0000
0000
1000
0000
0000
0100
0000
,  // measure 84
0000
0010
0001
0000
0010
0000
0100
0000
,  // measure 85
1000
0001
0100
0001
,  // measure 86
1000
0000
0000
0010
0000
0000
0001
0000
,  // measure 87
1000
0010
0100
0001
,  // measure 88
1000
0000
0000
0100
0000
0000
0010
0000
,  // measure 89
0001
0000
0000
0100
0000
0000
0010
0000
,  // measure 90
1000
0001
0100
0010
,  // measure 91
0100
0000
0000
0101
0000
0000
1001
0000
,  // measure 92
1000
0010
0100
0001
,  // measure 93
1000
0000
0001
0000
1000
0001
0000
0000
,  // measure 94
1000
0000
0000
1010
0000
0000
0110
0000
,  // measure 95
0100
0001
0010
0001
,  // measure 96
0100
0000
0000
0010
0000
0000
1000
0000
,  // measure 97
0100
0010
0001
0010
,  // measure 98
0100
1000
0001
0100
,  // measure 99
0010
0000
1000
0001
0000
1000
0001
0000
,  // measure 100
0100
0010
1000
0100
,  // measure 101
0010
0001
0000
0010
0001
0000
1000
0100
,  // measure 102
0000
1000
0100
0000
1000
0002
0000
0003
,  // measure 103
1000
0010
0100
0001
,  // measure 104
1001
0000
0000
0000
;
