#TITLE:Dober Man;
#SUBTITLE:;
#ARTIST:小坂りゆ;
#TITLETRANSLIT:;
#SUBTITLETRANSLIT:;
#ARTISTTRANSLIT:Riyu Kosaka;
#CREDIT:;
#BANNER:Dober Man.png;
#BACKGROUND:Dober Man-bg.png;
#LYRICSPATH:;
#CDTITLE:;
#MUSIC:Dober Man.mp3;
#OFFSET:-0.044;
#SAMPLESTART:45.985;
#SAMPLELENGTH:14.820;
#SELECTABLE:YES;
#BPMS:0.000=150.000;
#STOPS:;
#BGCHANGES:;

//---------------dance-single - ----------------
#NOTES:
     dance-single:
     :
     Hard:
     7:
     0.527,0.474,0.297,0.422,0.129:
0000
0000
0000
0000
,
0000
0000
0000
0000
,
0000
0000
0000
0000
,
0000
0000
0000
0000
,
1001
0000
1000
0020
0000
0031
0000
0020
,
0000
1030
0000
0200
0000
1300
0010
0100
,
0001
0000
0010
0200
0000
1000
0000
0310
,
0001
0000
1001
0000
1000
0010
0001
0010
,
1000
0000
0010
0200
0000
0301
0000
0020
,
0000
0130
0000
2000
0000
3001
1000
0010
,
0100
0000
0001
0010
1000
0010
0001
0100
,
0010
0000
0000
1000
0000
0000
0100
0000
0020
0000
0000
0000
0031
0000
0000
0000
,
1001
0000
1000
0020
0000
0130
0000
0002
,
0000
0013
0000
0200
0000
1300
0010
0100
,
0001
0000
1000
0200
0000
0010
0000
0301
,
0100
0000
1000
0020
0000
0100
0000
0031
,
0100
0000
0010
2000
0000
3100
0000
0020
,
0000
0031
0000
0200
0000
0310
1000
0001
,
0100
0000
0001
0100
0010
1000
0100
0010
,
0001
0000
0000
1000
0000
0000
0100
0000
1000
0000
0000
0000
1001
0000
0000
0000
,
0001
0000
0000
0100
0000
0000
0010
0000
0100
0000
0000
0001
0000
0000
0010
0000
,
0100
0000
0000
1000
0000
0000
0001
0000
0100
0000
0000
0000
0110
0000
0000
0000
,
0010
0000
0000
1000
0000
0000
0100
0000
1000
0000
0000
0001
0000
0000
0010
0000
,
0001
0000
0000
0100
0000
0000
0010
0000
1000
0000
0000
0000
1010
0000
0000
0000
,
1000
0000
0000
0100
0000
0000
0010
0000
0001
0000
0000
0100
0000
0000
0010
0000
,
1000
0000
0000
0001
0000
0000
0100
0000
0010
0000
0000
0000
1010
0000
0000
0000
,
1000
0000
0000
0100
0000
0000
0010
0000
0001
0000
0000
0100
0000
0000
0010
0000
,
1000
0000
0000
0100
0000
0000
0010
0000
0001
0000
0000
0000
1001
0000
0000
0000
,
2000
0010
3001
1001
,
0210
0010
1300
1010
,
2000
3020
0230
0302
,
0023
0000
0100
0000
1030
0010
0001
0100
,
0020
2030
3001
1001
,
2010
0010
3100
1001
,
2000
3200
0320
0032
,
1003
0000
0000
0010
0000
0000
0100
0000
0001
0000
0000
0000
0010
0000
0100
0000
,
1000
0000
0000
0001
0000
0000
0010
0000
0001
0000
0000
0000
1001
0000
0000
0000
,
0110
0000
0000
0010
0000
0000
1000
0000
0100
0000
0000
0010
0000
0000
0001
0000
,
0100
0000
0000
0010
0000
0000
1000
0000
0001
0000
0000
0000
0101
0000
0000
0000
,
0100
0000
0000
0010
0000
0000
1000
0000
0100
0000
0000
0010
0000
0000
0001
0000
,
1000
0000
0000
0010
0000
0000
0100
0000
0001
0000
0010
0000
0001
0000
0100
0000
,
0010
0000
0000
1000
0000
0000
0100
0000
0010
0000
0000
0001
0000
0000
0100
0000
,
0110
0000
0000
1000
0000
0000
0001
0000
0101
0000
0000
0001
0000
0000
0010
0000
,
0110
0000
0000
1000
0000
0000
0010
0000
0200
0000
0000
0000
0301
0000
0000
0000
,
0020
0000
0130
0000
1000
0001
0010
0001
,
1001
0000
1000
0020
1000
0000
0130
0000
,
0010
0000
1000
0002
1000
0000
0013
0000
,
1010
0000
1000
0100
0010
0000
0001
0100
,
0010
0000
1000
0001
0010
0000
0001
0100
,
0110
0000
0010
2000
0010
0000
3001
0000
,
0100
0000
1000
0002
1000
0000
0013
0000
,
2001
0000
3100
0000
1000
0010
0100
0001
,
0010
0000
0100
1000
0001
0000
0010
0000
,
0011
0000
0001
0200
0010
0000
0301
0000
,
1000
0000
0010
2000
0001
0000
3100
0000
,
1001
0000
1000
0010
0100
0000
0001
0010
,
0200
0000
1000
0000
0310
0000
0001
0100
,
0110
0000
0010
2000
0001
0000
3100
0000
,
1001
0000
0001
0020
0100
0000
0031
0000
,
0110
0100
1000
0000
0110
0100
0001
0000
,
0010
0100
1000
0001
0010
0001
0100
0010
,
1000
0100
0001
0100
2002
0000
3003
0000
;

//---------------dance-single - ----------------
#NOTES:
     dance-single:
     :
     Beginner:
     1:
     0.105,0.147,0.010,0.000,0.000:
0000
0000
0000
0000
,
0000
0000
0000
0000
,
0000
0000
0000
0000
,
0000
0000
0000
0000
,
1000
0000
0000
0000
,
0001
0000
0000
0000
,
0010
0000
0010
0000
,
0010
0000
0000
0000
,
0001
0000
0000
0000
,
0100
0000
0000
0000
,
0010
0000
0000
0000
,
1000
0000
1000
0000
,
1000
0000
0000
0000
,
0001
0000
0000
0000
,
0100
0000
0100
0000
,
0100
0000
0000
0000
,
0010
0000
0000
0000
,
1000
0000
0000
0000
,
0001
0000
0000
0000
,
1000
0000
1000
0000
,
1000
0000
0000
0000
,
0001
0000
0000
0000
,
0010
0000
0000
0000
,
0100
0000
0100
0000
,
0100
0000
0000
0000
,
1000
0000
0000
0000
,
0010
0000
0000
0000
,
0100
0000
0100
0000
,
0100
0000
0000
0000
,
0001
0000
0000
0000
,
0010
0000
0010
0000
,
0010
0000
0000
0000
,
0100
0000
0100
0000
,
0100
0000
0000
0000
,
1000
0000
1000
0000
,
1000
0000
0000
0000
,
0001
0000
0001
0000
,
0001
0000
0000
0000
,
1000
0000
1000
0000
,
1000
0000
0000
0000
,
0010
0000
0010
0000
,
0010
0000
0000
0000
,
0100
0000
0100
0000
,
0100
0000
0000
0000
,
0001
0000
0000
0000
,
1000
0000
0000
0000
,
0010
0000
0000
0000
,
0100
0000
0000
0000
,
0001
0000
0001
0000
,
0001
0000
0000
0000
,
0010
0000
0000
0000
,
0100
0000
0000
0000
,
1000
0000
1000
0000
,
1000
0000
0000
0000
,
0010
0000
0000
0000
,
0100
0000
0000
0000
,
0001
0000
0001
0000
,
0001
0000
0000
0000
,
0010
0000
0000
0000
,
0100
0000
0000
0000
,
1000
0000
1000
0000
,
0001
0000
1001
0000
;

//---------------dance-single - ----------------
#NOTES:
     dance-single:
     :
     Easy:
     3:
     0.240,0.265,0.019,0.019,0.000: // measure 1
0000
0000
0000
0000
,  // measure 2
0000
0000
0000
0000
,  // measure 3
0000
0000
0000
0000
,  // measure 4
0000
0000
0000
0000
,  // measure 5
1000
0000
0100
0000
,  // measure 6
0010
0001
0010
0000
,  // measure 7
0001
0000
0100
0000
,  // measure 8
0010
1000
0010
0000
,  // measure 9
1000
0000
0100
0000
,  // measure 10
0010
0001
0010
0000
,  // measure 11
0001
0000
0100
0000
,  // measure 12
0010
0100
0010
0000
,  // measure 13
1000
0000
0100
0000
,  // measure 14
1000
0001
1000
0000
,  // measure 15
0001
0000
0010
0000
,  // measure 16
0001
0100
0001
0000
,  // measure 17
0100
0000
0010
0000
,  // measure 18
1000
0100
1000
0000
,  // measure 19
0001
0000
0010
0000
,  // measure 20
0001
0100
0001
0000
,  // measure 21
0100
0100
0010
0010
,  // measure 22
1000
1000
0001
0000
,  // measure 23
1000
1000
0100
0100
,  // measure 24
0010
0010
0001
0000
,  // measure 25
0100
0100
0010
0010
,  // measure 26
1000
1000
0001
0000
,  // measure 27
1000
1000
0100
0100
,  // measure 28
0010
0010
0001
0000
,  // measure 29
2002
0000
0000
3003
,  // measure 30
1000
0010
1000
0000
,  // measure 31
0001
0010
0001
0000
,  // measure 32
1000
0100
1000
0000
,  // measure 33
0001
0100
0001
0000
,  // measure 34
1000
0010
0100
0000
,  // measure 35
0001
0010
0100
0000
,  // measure 36
1000
0001
0010
0000
,  // measure 37
0001
1000
0010
0000
,  // measure 38
1000
1000
0010
0010
,  // measure 39
0100
0001
0010
0000
,  // measure 40
0100
0100
1000
1000
,  // measure 41
0001
0010
0001
0000
,  // measure 42
0100
0100
0010
0010
,  // measure 43
1000
1000
0001
0001
,  // measure 44
1000
0100
0001
0000
,  // measure 45
1000
0010
0001
0000
,  // measure 46
1000
0000
0010
0100
,  // measure 47
0001
0000
0010
0100
,  // measure 48
1000
0001
0010
0000
,  // measure 49
0001
0100
0010
0000
,  // measure 50
1000
0000
0100
1000
,  // measure 51
0001
0000
0010
0001
,  // measure 52
1000
0000
0010
0100
,  // measure 53
0001
0001
1000
1000
,  // measure 54
0010
0000
1000
0100
,  // measure 55
0010
0000
0001
0100
,  // measure 56
0010
1000
0001
0000
,  // measure 57
0010
0001
0100
0000
,  // measure 58
0010
0000
1000
0100
,  // measure 59
0010
0000
0001
0100
,  // measure 60
0010
0000
1000
0000
,  // measure 61
0001
0000
0010
0000
,  // measure 62
0001
0100
1001
0000
;

//---------------dance-single - ----------------
#NOTES:
     dance-single:
     :
     Medium:
     5:
     0.422,0.383,0.249,0.105,0.000:
0000
0000
0000
0000
,
0000
0000
0000
0000
,
0000
0000
0000
0000
,
0000
0000
0000
0000
,
1000
0010
0100
0001
,
1000
0000
0100
0000
0010
0000
0001
1000
,
0001
0100
0010
1000
,
0100
0000
0010
0000
0001
0100
0001
0000
,
0010
0100
1000
0010
,
1000
0000
0100
0000
1000
0000
0001
1000
,
0001
0000
0100
0000
0001
0100
0001
0000
,
0100
0000
0010
1000
0010
0000
1000
0000
,
1001
1000
0100
0010
,
0001
0000
0100
0000
0010
0000
1000
0001
,
1000
0010
1000
0100
,
0010
0000
0001
0000
0100
0001
0100
0000
,
1001
1000
0010
0100
,
0001
0000
1000
0000
0100
0000
0010
0001
,
0010
0000
0100
0000
1000
0001
1000
0000
,
0010
0000
0100
0001
0100
0000
0110
0000
,
0010
0000
1000
0010
1000
0000
0001
0010
,
0001
0000
1000
0100
1000
0000
0001
0000
,
0010
0000
0001
0100
0001
0000
1000
0010
,
1000
0000
0001
0010
0001
0000
1000
0000
,
0100
0000
1000
0010
1000
0000
0001
0100
,
0001
0000
0010
0001
0010
0000
0001
0000
,
0100
0000
0010
1000
0010
0000
1000
0100
,
1000
0000
0001
1000
0001
0000
0010
0000
,
0002
0010
0100
1003
,
1001
1000
0010
0100
,
0101
0001
0010
0100
,
1100
1000
0010
0100
,
0101
0000
0001
0000
0010
0100
0010
0000
,
1001
1000
0010
0100
,
0101
0001
0010
0100
,
1100
1000
0010
0100
,
1001
0000
0010
0100
0010
0000
1001
0000
,
1001
1000
0100
0010
,
0001
0000
0100
0010
0100
0000
1001
0000
,
1000
0010
0100
0001
,
0010
0000
0100
1000
0100
0000
0011
0000
,
1000
0000
0010
0100
0010
0000
1000
0000
,
1001
0000
0010
0100
0010
0000
1000
0000
,
1001
0000
1000
0010
1000
0000
0001
0000
,
2000
3100
0002
0103
,
1001
1000
0020
0130
,
0001
0010
0200
1300
,
0001
0000
0100
0001
0100
0000
0010
0000
,
1000
0000
0100
1000
0100
0000
1000
0000
,
1001
0001
0020
0130
,
1000
0010
0200
0301
,
1001
0000
0100
0000
0010
1000
0010
0000
,
0100
0001
0100
0000
0001
0010
0001
0000
,
1001
1000
0200
0310
,
0100
1000
0020
0130
,
0010
0000
0100
0001
0100
0000
0001
0000
,
0010
0000
0100
1000
0100
0000
0010
0000
,
0011
0001
0200
0310
,
1010
1000
0200
0310
,
0001
0100
0001
0000
1000
0100
1000
0000
,
0001
0010
0001
0000
1000
0010
1000
0000
,
1001
0110
1001
0000
;
