#TITLE:チューしようぜ!;
#SUBTITLE:;
#ARTIST:AKBアイドリング!!!;
#TITLETRANSLIT:Chu Shiyouze!;
#SUBTITLETRANSLIT:;
#ARTISTTRANSLIT:AKBIdoling!!!;
#CREDIT:;
#BANNER:Chu Shiyouze!.png;
#BACKGROUND:Chu Shiyouze!-BG.png;
#LYRICSPATH:;
#CDTITLE:;
#MUSIC:Chu Shiyouze!.mp3;
#OFFSET:-0.639;
#SAMPLESTART:78.545;
#SAMPLELENGTH:15.620;
#SELECTABLE:YES;
#BPMS:0.000=194.000,355.500=185.000,356.000=194.000;
#DISPLAYBPM:194
#STOPS:;
#BGCHANGES:;

//---------------dance-single - ----------------
#NOTES:
     dance-single:
     :
     Hard:
     8:
     0.687,0.677,0.554,0.342,0.000: // measure 1
0000
0000
0000
0000
,  // measure 2
0000
0000
0000
0000
,  // measure 3
0000
0000
0000
0000
,  // measure 4
0000
0000
0000
0000
,  // measure 5
0000
0000
0000
0000
,  // measure 6
0000
0000
0000
0000
,  // measure 7
0000
0000
0000
0000
,  // measure 8
1001
0000
1000
0200
0000
0310
0000
0002
,  // measure 9
0000
0103
0000
0010
1000
0100
1000
0000
,  // measure 10
1001
0000
0001
0020
0000
0130
0000
2002
,  // measure 11
0000
0000
0000
0000
3003
0010
0110
0000
,  // measure 12
1001
0000
1000
0000
0010
0100
0000
0001
,  // measure 13
0010
0000
0100
1000
0000
0001
0010
0001
,  // measure 14
0100
0000
0010
0000
1000
0100
0000
0010
,  // measure 15
0011
0101
1010
1100
,  // measure 16
1001
0000
1000
0000
0010
0100
0000
0001
,  // measure 17
0010
0000
0100
1000
0000
0001
0010
0001
,  // measure 18
1000
0000
0010
0000
0100
0001
0000
0010
,  // measure 19
0011
1100
0101
1010
,  // measure 20
1000
0001
1000
0001
0010
0001
0010
0001
,  // measure 21
0100
0001
0100
0001
0100
0010
0000
1000
,  // measure 22
1001
0000
1000
0200
0000
0310
0000
0002
,  // measure 23
0000
0103
0000
0010
1000
0100
1000
0000
,  // measure 24
1001
0000
0001
0020
0000
0130
0000
2000
,  // measure 25
0000
3010
0000
0100
0002
0000
1003
0000
,  // measure 26
1001
0000
1000
0020
0000
0130
0000
0002
,  // measure 27
0000
1003
0000
0100
1000
0001
0010
0000
,  // measure 28
0011
0000
0001
0200
0000
0310
0000
1000
,  // measure 29
1001
1001
0000
0000
0110
0110
0000
0000
,  // measure 30
1001
0000
1000
0000
0010
0100
0001
0000
,  // measure 31
0010
0000
0100
1000
0100
0010
0001
0000
,  // measure 32
1000
0000
0001
0000
0100
0010
0100
0000
,  // measure 33
0010
0000
1000
0100
0010
0001
1000
0000
,  // measure 34
1010
0000
0010
0000
0100
0001
0010
0000
,  // measure 35
0001
0000
0100
0010
1000
0100
0010
0000
,  // measure 36
0011
0001
0100
0000
0010
1000
0100
1000
,  // measure 37
0000
0001
0010
0000
0011
0000
1100
0000
,  // measure 38
1001
0000
1000
0000
0010
0100
0001
0000
,  // measure 39
0010
0000
0001
0100
0010
1000
0010
0000
,  // measure 40
0100
0000
0001
0000
0010
0100
1000
0100
,  // measure 41
0000
0010
0001
0000
1000
0010
0100
0000
,  // measure 42
1001
0000
1000
0000
0010
0100
0001
0000
,  // measure 43
0010
0100
1000
0000
0010
0100
0001
1000
,  // measure 44
1001
0000
1000
0020
0000
0130
0000
0002
,  // measure 45
0000
0013
0000
0100
2000
0000
3001
0000
,  // measure 46
1001
0000
1000
0010
0200
0000
0310
0000
,  // measure 47
1010
0000
1000
0100
0020
0000
0130
0000
,  // measure 48
1000
0010
0100
0002
0000
0023
0000
0130
,  // measure 49
0000
1000
0010
0100
0001
0000
0101
0000
,  // measure 50
0110
0000
0100
0010
2000
0000
3100
0000
,  // measure 51
0110
0000
0010
0001
0200
0000
0310
0000
,  // measure 52
1000
0001
0010
0001
1000
0000
0010
0100
,  // measure 53
0001
0100
0010
0000
0110
0000
1001
0000
,  // measure 54
2100
3001
0102
0103
,  // measure 55
2010
3001
0011
0110
,  // measure 56
2000
0000
3020
0000
0230
0000
0301
0010
,  // measure 57
0100
0000
1000
0000
0001
0100
0010
0000
,  // measure 58
2010
0010
0001
3100
,  // measure 59
0002
0203
0320
1030
,  // measure 60
0001
0100
0010
1000
0010
0100
0001
0000
,  // measure 61
0010
0100
1000
0100
0010
0001
1000
0000
,  // measure 62
0010
0100
0001
0010
0100
1000
0001
0000
,  // measure 63
1001
0000
0000
0000
0110
0100
0001
0000
,  // measure 64
1001
0000
1000
0000
0010
0100
0001
0000
,  // measure 65
0010
0000
0100
1000
0100
0010
0001
0000
,  // measure 66
0100
0000
0010
0000
1000
0100
0001
0000
,  // measure 67
0100
0000
1000
0010
0001
0010
1000
0001
,  // measure 68
0101
0000
0100
0000
0010
1000
0100
0000
,  // measure 69
0001
0000
0100
1000
0010
0001
0010
0000
,  // measure 70
1000
0000
0100
0000
0010
0001
0100
0000
,  // measure 71
0010
1000
0001
0100
0001
0010
0100
1000
,  // measure 72
1001
0000
1000
0000
0010
0100
0001
0000
,  // measure 73
0010
0000
0100
1000
0100
0010
0001
0000
,  // measure 74
1000
0000
0010
0000
0100
0001
0010
0000
,  // measure 75
0001
0000
0100
0010
1000
0100
0001
0100
,  // measure 76
1001
0000
1000
0000
0100
0010
0001
0000
,  // measure 77
0100
0000
0010
1000
0001
0010
0001
0000
,  // measure 78
1000
0010
0100
0001
0010
0100
1000
0001
,  // measure 79
0010
0001
0100
0010
1000
0100
0010
0000
,  // measure 80
1001
0000
0001
0000
0100
0010
0000
1000
,  // measure 81
0100
0000
0010
0001
0000
1000
0100
1000
,  // measure 82
0010
0000
0100
0000
0001
0010
0000
0100
,  // measure 83
1100
1010
0101
0011
,  // measure 84
1001
0000
0001
0000
0100
0010
0000
1000
,  // measure 85
0100
0000
0010
0001
0000
1000
0100
1000
,  // measure 86
0001
0000
0100
0000
0010
1000
0000
0100
,  // measure 87
1100
0011
1010
0101
,  // measure 88
0001
1000
0001
1000
0100
1000
0100
1000
,  // measure 89
0010
1000
0010
1000
0010
0100
0000
0001
,  // measure 90
1001
0000
0001
0020
0000
0130
0000
2000
,  // measure 91
0000
3010
0000
0100
0001
0010
0001
0000
,  // measure 92
1001
0000
1000
0200
0000
0310
0000
0002
,  // measure 93
0000
0103
0000
0010
2000
0000
3001
0000
,  // measure 94
1001
0000
0001
0200
0000
0310
0000
2000
,  // measure 95
0000
3001
0000
0010
0001
1000
0100
0000
,  // measure 96
1100
0000
1000
0020
0000
0130
0000
0001
,  // measure 97
1001
1001
0000
0000
0110
0110
0000
0000
,  // measure 98
2002
0000
0000
3003
;

//---------------dance-single - ----------------
#NOTES:
     dance-single:
     :
     Beginner:
     2:
     0.149,0.197,0.008,0.024,0.000: // measure 1
0000
0000
0000
0000
,  // measure 2
0000
0000
0000
0000
,  // measure 3
0000
0000
0000
0000
,  // measure 4
0000
0000
0000
0000
,  // measure 5
0000
0000
0000
0000
,  // measure 6
0000
0000
0000
0000
,  // measure 7
0000
0000
0000
0000
,  // measure 8
1000
0000
0000
0000
,  // measure 9
0100
0000
0000
0000
,  // measure 10
0010
0000
0010
0000
,  // measure 11
0020
0000
0000
0030
,  // measure 12
0001
0000
0000
0000
,  // measure 13
0100
0000
0000
0000
,  // measure 14
0010
0000
0000
0000
,  // measure 15
1000
0000
1000
0000
,  // measure 16
1000
0000
0000
0000
,  // measure 17
0001
0000
0000
0000
,  // measure 18
0100
0000
0000
0000
,  // measure 19
0010
0000
0010
0000
,  // measure 20
0020
0000
0030
0000
,  // measure 21
2000
0000
3000
0000
,  // measure 22
0001
0000
0000
0000
,  // measure 23
1000
0000
1000
0000
,  // measure 24
1000
0000
0000
0000
,  // measure 25
0010
0000
0010
0000
,  // measure 26
0010
0000
0000
0000
,  // measure 27
0100
0000
0100
0000
,  // measure 28
0100
0000
0000
0000
,  // measure 29
0001
0000
0001
0000
,  // measure 30
0001
0000
0000
0000
,  // measure 31
1000
0000
0000
0000
,  // measure 32
0010
0000
0000
0000
,  // measure 33
0100
0000
0100
0000
,  // measure 34
0100
0000
0000
0000
,  // measure 35
0001
0000
0001
0000
,  // measure 36
0001
0000
0000
0000
,  // measure 37
0010
0000
0010
0000
,  // measure 38
0010
0000
0000
0000
,  // measure 39
0100
0000
0000
0000
,  // measure 40
1000
0000
0000
0000
,  // measure 41
0001
0000
0001
0000
,  // measure 42
0001
0000
0000
0000
,  // measure 43
1000
0000
1000
0000
,  // measure 44
1000
0000
0000
0000
,  // measure 45
0010
0000
0000
0000
,  // measure 46
0100
0000
0100
0000
,  // measure 47
0001
0000
0001
0000
,  // measure 48
1000
0000
0000
0000
,  // measure 49
0010
0000
0000
0000
,  // measure 50
1000
0000
1000
0000
,  // measure 51
0001
0000
0001
0000
,  // measure 52
0100
0000
0000
0000
,  // measure 53
0010
0000
0000
0000
,  // measure 54
1000
0000
0000
0000
,  // measure 55
0001
0000
0000
0000
,  // measure 56
0010
0000
0010
0000
,  // measure 57
0010
0000
0000
0000
,  // measure 58
0001
0000
0000
0000
,  // measure 59
1000
0000
0000
0000
,  // measure 60
0100
0000
0100
0000
,  // measure 61
1000
0000
1000
0000
,  // measure 62
0010
0000
0010
0000
,  // measure 63
0100
0000
0100
0000
,  // measure 64
0001
0000
0000
0000
,  // measure 65
0010
0000
0000
0000
,  // measure 66
0100
0000
0100
0000
,  // measure 67
0100
0000
0000
0000
,  // measure 68
1000
0000
0000
0000
,  // measure 69
0010
0000
0000
0000
,  // measure 70
0100
0000
0100
0000
,  // measure 71
0100
0000
0000
0000
,  // measure 72
0001
0000
0000
0000
,  // measure 73
1000
0000
0000
0000
,  // measure 74
0010
0000
0010
0000
,  // measure 75
0010
0000
0000
0000
,  // measure 76
1000
0000
0000
0000
,  // measure 77
0001
0000
0000
0000
,  // measure 78
0010
0000
0010
0000
,  // measure 79
0010
0000
0000
0000
,  // measure 80
0001
0000
0000
0000
,  // measure 81
0100
0000
0000
0000
,  // measure 82
0010
0000
0000
0000
,  // measure 83
1000
0000
1000
0000
,  // measure 84
1000
0000
0000
0000
,  // measure 85
0001
0000
0000
0000
,  // measure 86
0010
0000
0000
0000
,  // measure 87
0100
0000
0100
0000
,  // measure 88
1000
0000
1000
0000
,  // measure 89
0010
0000
0010
0000
,  // measure 90
0100
0000
0000
0000
,  // measure 91
0001
0000
0001
0000
,  // measure 92
0001
0000
0000
0000
,  // measure 93
0010
0000
0010
0000
,  // measure 94
0010
0000
0000
0000
,  // measure 95
0100
0000
0100
0000
,  // measure 96
0100
0000
0000
0000
,  // measure 97
1000
0000
1000
0000
,  // measure 98
1001
0000
0000
0000
;

//---------------dance-single - ----------------
#NOTES:
     dance-single:
     :
     Easy:
     4:
     0.383,0.395,0.041,0.138,0.000: // measure 1
0000
0000
0000
0000
,  // measure 2
0000
0000
0000
0000
,  // measure 3
0000
0000
0000
0000
,  // measure 4
0000
0000
0000
0000
,  // measure 5
0000
0000
0000
0000
,  // measure 6
0000
0000
0000
0000
,  // measure 7
0000
0000
0000
0000
,  // measure 8
1000
0000
0100
0010
,  // measure 9
0001
0010
0100
1000
,  // measure 10
0010
0000
0100
0001
,  // measure 11
2000
0000
0000
3001
,  // measure 12
1000
0010
0100
0001
,  // measure 13
1000
0100
0010
0001
,  // measure 14
1000
0010
0100
0001
,  // measure 15
1000
1000
0001
0001
,  // measure 16
1000
0010
0100
0001
,  // measure 17
1000
0100
0010
0001
,  // measure 18
1000
0010
0001
0010
,  // measure 19
1000
1000
0001
0001
,  // measure 20
2000
3000
0200
0300
,  // measure 21
0020
0030
0002
0003
,  // measure 22
0100
0010
1000
0010
,  // measure 23
0100
0001
0010
0100
,  // measure 24
1000
0001
0010
0001
,  // measure 25
0100
0010
1000
0000
,  // measure 26
0010
0100
0001
0010
,  // measure 27
0100
1000
0001
0010
,  // measure 28
0001
1000
0010
0100
,  // measure 29
0101
0000
0011
0000
,  // measure 30
0010
0100
1000
0000
,  // measure 31
0010
0100
0001
0000
,  // measure 32
1000
0001
0010
0000
,  // measure 33
0001
1000
0010
0000
,  // measure 34
1000
0010
0100
0000
,  // measure 35
0001
0010
0100
0000
,  // measure 36
1000
0001
0010
0000
,  // measure 37
0001
0001
1000
1000
,  // measure 38
0010
1000
0100
0000
,  // measure 39
0010
0001
0100
0000
,  // measure 40
0010
1000
0001
0000
,  // measure 41
0100
0001
0010
0000
,  // measure 42
0100
1000
0010
0000
,  // measure 43
0100
0001
0010
0000
,  // measure 44
0100
0100
1000
1000
,  // measure 45
0001
0001
0010
0010
,  // measure 46
0001
0100
0001
0000
,  // measure 47
1000
0100
1000
0000
,  // measure 48
0001
0010
0100
1000
,  // measure 49
0001
0001
1000
0000
,  // measure 50
0010
1000
0100
0000
,  // measure 51
0010
0001
0100
0000
,  // measure 52
0010
1000
0001
0010
,  // measure 53
0001
0001
1000
1000
,  // measure 54
0020
0030
2000
3000
,  // measure 55
0200
0300
0010
0010
,  // measure 56
0001
0100
0010
1000
,  // measure 57
0001
0000
1000
0100
,  // measure 58
0020
0030
0001
0000
,  // measure 59
0100
0010
1000
0010
,  // measure 60
0100
0100
0100
0100
,  // measure 61
0001
0001
0001
0001
,  // measure 62
1000
1000
1000
1000
,  // measure 63
1001
0000
0110
0000
,  // measure 64
1000
0010
0100
0010
,  // measure 65
1000
0000
0100
1000
,  // measure 66
0001
0010
0001
1000
,  // measure 67
0020
0000
0130
0000
,  // measure 68
0001
0100
0010
1000
,  // measure 69
0001
0000
0010
0001
,  // measure 70
0100
0010
1000
0100
,  // measure 71
0020
0000
0130
0000
,  // measure 72
1000
0001
0010
0001
,  // measure 73
0100
0000
0010
1000
,  // measure 74
0100
1000
0001
0010
,  // measure 75
0002
0000
0103
0000
,  // measure 76
0010
1000
0100
1000
,  // measure 77
0010
0000
0100
0001
,  // measure 78
0010
1000
0010
0001
,  // measure 79
1000
1000
0001
0001
,  // measure 80
1000
0010
0100
0001
,  // measure 81
1000
0100
0010
0001
,  // measure 82
1000
0010
0100
0001
,  // measure 83
1000
1000
0001
0001
,  // measure 84
1000
0100
0010
0001
,  // measure 85
1000
0010
0100
0001
,  // measure 86
1000
0100
0010
0001
,  // measure 87
1000
1000
0001
0001
,  // measure 88
2000
3000
0020
0030
,  // measure 89
0200
0300
0002
0003
,  // measure 90
0010
0010
0100
0100
,  // measure 91
1000
1000
0010
0010
,  // measure 92
0100
0100
0001
0001
,  // measure 93
1000
1000
0002
0003
,  // measure 94
1000
1000
0010
0010
,  // measure 95
0100
0100
0001
0001
,  // measure 96
0010
0010
0100
0100
,  // measure 97
1000
0000
0001
0000
,  // measure 98
1001
0000
0000
0000
;

//---------------dance-single - ----------------
#NOTES:
     dance-single:
     :
     Medium:
     7:
     0.582,0.632,0.456,0.252,0.000: // measure 1
0000
0000
0000
0000
,  // measure 2
0000
0000
0000
0000
,  // measure 3
0000
0000
0000
0000
,  // measure 4
0000
0000
0000
0000
,  // measure 5
0000
0000
0000
0000
,  // measure 6
0000
0000
0000
0000
,  // measure 7
0000
0000
0000
0000
,  // measure 8
1001
1000
0010
0010
,  // measure 9
0100
0000
0100
0000
0001
0100
0001
0000
,  // measure 10
1000
0000
0001
0010
0000
0001
0000
2002
,  // measure 11
0000
0000
0000
0000
3003
0010
0100
0000
,  // measure 12
0101
0000
0100
0000
0010
1000
0000
0010
,  // measure 13
0100
0000
0001
0100
0000
0010
1000
0000
,  // measure 14
0001
0000
0010
0000
0001
1000
0000
0100
,  // measure 15
1000
1001
0010
1001
,  // measure 16
1000
0000
0010
0000
0100
0001
0000
0100
,  // measure 17
0010
0000
1000
0010
0000
1000
0100
0000
,  // measure 18
1000
0000
0001
0000
0010
0001
0000
1000
,  // measure 19
0100
1001
0010
1001
,  // measure 20
1000
0010
1000
0000
0001
0010
0001
0000
,  // measure 21
1000
0100
1000
0001
0100
0001
0000
1000
,  // measure 22
0001
0101
0100
0110
,  // measure 23
0010
0000
1010
0000
1000
0100
1000
0000
,  // measure 24
0001
1001
1000
1010
,  // measure 25
0010
0000
0100
0001
0200
0000
0310
0000
,  // measure 26
0100
0110
0010
1010
,  // measure 27
1000
0000
1001
0000
0001
0010
0001
0000
,  // measure 28
0010
0011
0001
1001
,  // measure 29
1000
2000
3000
0000
0001
0002
0003
0000
,  // measure 30
1001
1000
0010
0100
,  // measure 31
0001
0000
1000
0000
0100
1000
0100
0000
,  // measure 32
0010
0001
1000
0010
,  // measure 33
0100
0000
0001
0000
1000
0010
1000
0000
,  // measure 34
1001
1000
0010
0100
,  // measure 35
0001
0000
0010
0000
0100
1000
0100
0000
,  // measure 36
0020
0031
0200
0301
,  // measure 37
0020
0130
1001
0110
,  // measure 38
1001
1000
0010
0100
,  // measure 39
0001
0000
1000
0000
0100
1000
0100
0000
,  // measure 40
0010
0000
0001
0000
1000
0000
0010
1000
,  // measure 41
0000
0100
1000
0000
0001
0000
0010
0000
,  // measure 42
0011
0010
0100
1000
,  // measure 43
0010
0100
0001
1000
,  // measure 44
1001
0000
1000
0010
0000
0100
0000
0001
,  // measure 45
0000
0100
0000
0010
1000
0000
0001
0000
,  // measure 46
0012
0010
1003
0001
,  // measure 47
2100
0100
3001
1000
,  // measure 48
1001
0000
1000
0010
0000
0100
0000
0001
,  // measure 49
0000
0010
0100
0000
1000
0000
0001
0000
,  // measure 50
2010
0010
3100
1000
,  // measure 51
1002
0010
0103
0001
,  // measure 52
1000
0000
0010
0100
0010
0000
1000
0000
,  // measure 53
0100
0010
0100
0000
1001
0000
0110
0000
,  // measure 54
2000
3010
0200
0301
,  // measure 55
2000
3100
0020
0032
,  // measure 56
0203
0320
2030
3002
,  // measure 57
0023
0031
0200
0302
,  // measure 58
0023
0100
1000
0031
,  // measure 59
1000
0010
0100
0001
,  // measure 60
2001
0001
0010
3100
,  // measure 61
1002
0010
0100
1003
,  // measure 62
2001
0010
0100
3001
,  // measure 63
1001
0000
0110
0000
,  // measure 64
1001
0000
1000
0000
0010
0100
0010
0000
,  // measure 65
1000
0000
0100
0000
0010
0001
0010
0000
,  // measure 66
0001
0000
0100
0000
0010
1000
0010
0000
,  // measure 67
0100
0000
0001
0000
1000
0100
1000
0000
,  // measure 68
1001
0000
1000
0000
0010
0100
0010
0000
,  // measure 69
0100
0000
0001
0000
0010
0001
0010
0000
,  // measure 70
0001
0000
0100
0000
0010
1000
0010
0000
,  // measure 71
1000
0000
0100
0000
1000
0001
1000
0000
,  // measure 72
1001
0000
1000
0000
0010
0100
0010
0000
,  // measure 73
1000
0000
0100
0000
0010
0001
0010
0000
,  // measure 74
0001
0000
0100
0000
0010
1000
0010
0000
,  // measure 75
0100
0000
0001
0000
1000
0100
1000
0000
,  // measure 76
1001
0000
1000
0000
0010
0100
0010
0000
,  // measure 77
1000
0000
0100
0000
0010
0001
0010
0000
,  // measure 78
0001
0000
0100
0000
0010
1000
0010
0000
,  // measure 79
1000
0100
1000
0000
0001
1000
0001
0000
,  // measure 80
1010
0000
0010
0000
0100
0001
0000
0100
,  // measure 81
0010
0000
1000
0010
0000
0100
0001
0000
,  // measure 82
1000
0000
0100
0000
1000
0001
0000
0010
,  // measure 83
0001
1001
0100
1001
,  // measure 84
0001
0000
0100
0000
0010
1000
0000
0010
,  // measure 85
0100
0000
0001
0100
0000
0001
0010
0000
,  // measure 86
0001
0000
1000
0000
0100
1000
0000
0001
,  // measure 87
0010
1001
0100
1001
,  // measure 88
0001
0100
0001
0000
1000
0100
1000
0000
,  // measure 89
0001
0010
0001
1000
0010
1000
0000
0001
,  // measure 90
1000
1010
0010
0110
,  // measure 91
0100
0000
0101
0000
0001
0010
0001
0000
,  // measure 92
1000
1001
0001
0101
,  // measure 93
0100
0000
0010
1000
0020
0000
0130
0000
,  // measure 94
0010
0110
0100
0101
,  // measure 95
0001
0000
1001
0000
1000
0100
1000
0000
,  // measure 96
0100
1100
1000
1001
,  // measure 97
0001
0002
0003
0000
1000
2000
3000
0000
,  // measure 98
1001
0000
0000
0000
;
