#TITLE:Chronos;
#SUBTITLE:;
#ARTIST:TAG;
#TITLETRANSLIT:;
#SUBTITLETRANSLIT:;
#ARTISTTRANSLIT:;
#CREDIT:;
#BANNER:Chronos.png;
#BACKGROUND:Chronos-bg.png;
#LYRICSPATH:;
#CDTITLE:;
#MUSIC:Chronos.mp3;
#OFFSET:-0.310;
#SAMPLESTART:42.005;
#SAMPLELENGTH:15.620;
#SELECTABLE:YES;
#BPMS:0.000=256.001,334.000=85.330,342.000=256.001;
#STOPS:;
#BGCHANGES:;

//---------------dance-single - ----------------
#NOTES:
     dance-single:
     :
     Hard:
     10:
     0.859,1.000,0.731,0.205,0.054: // measure 1
0000
0000
0000
0000
,  // measure 2
0000
0000
0000
0000
,  // measure 3
0000
0000
0000
0000
,  // measure 4
0000
0000
0000
0000
,  // measure 5
0000
0000
0000
0000
,  // measure 6
0000
0000
0000
0000
,  // measure 7
1001
0000
0001
0100
0001
1000
0001
0000
,  // measure 8
0010
0100
1000
0100
0010
0000
0001
0100
,  // measure 9
0010
0100
0002
0000
1000
0000
0103
0000
,  // measure 10
0001
1000
0010
1000
0001
0010
0002
0000
,  // measure 11
0010
0000
1003
0000
0001
0010
0100
1000
,  // measure 12
0010
0100
0002
0000
0010
0000
1003
0001
,  // measure 13
1000
0000
0010
1000
0000
0010
0100
0000
,  // measure 14
0100
0000
0001
0000
0101
0000
0001
0010
,  // measure 15
0000
0100
1000
0000
1001
0000
0000
0000
,  // measure 16
1010
0000
0010
0100
0000
0001
0010
0000
,  // measure 17
0010
0000
0100
0000
1000
0010
0100
0001
,  // measure 18
0010
1000
0020
0000
0001
0000
0130
0000
,  // measure 19
0001
1000
0010
1000
0001
0010
0001
0000
,  // measure 20
0100
0000
0010
1000
0010
0000
0100
0001
,  // measure 21
0000
1000
0100
0000
0010
0000
0011
0000
,  // measure 22
0001
0010
0100
1000
0100
0010
0001
0000
,  // measure 23
0100
0000
0010
1000
0100
0000
1000
0001
,  // measure 24
0000
0010
0001
0000
1001
0000
1000
0010
,  // measure 25
0100
0001
0010
0001
0100
0010
1000
0000
,  // measure 26
0100
0000
0010
0001
0100
0000
0010
1000
,  // measure 27
0010
0100
0002
0000
1000
0000
0013
0000
,  // measure 28
0011
0000
0001
0100
0000
0100
0010
0000
,  // measure 29
0010
1000
0000
1000
0100
0010
0001
0100
,  // measure 30
0010
1000
0002
0000
0000
0000
0003
0000
,  // measure 31
2000
0010
3001
0200
,  // measure 32
0010
1300
0002
0010
,  // measure 33
0103
0000
0001
0010
0100
1000
0020
0000
,  // measure 34
0100
1030
0002
0010
,  // measure 35
0103
2000
0010
3001
,  // measure 36
1000
0010
0100
0001
0200
0000
0010
0000
,  // measure 37
0301
2000
0010
3100
,  // measure 38
0002
0000
0010
0000
1003
0000
0001
0010
,  // measure 39
0100
1000
0010
0100
0001
0000
0010
1000
,  // measure 40
0010
0001
0100
0000
0010
0000
0110
0000
,  // measure 41
0010
0000
1000
0100
0001
0100
1000
0000
,  // measure 42
0010
0000
0011
0000
0010
0000
1000
0100
,  // measure 43
0010
0001
0010
0100
1000
0010
0100
0001
,  // measure 44
0000
1001
0000
1001
0000
1000
0010
0100
,  // measure 45
0001
0010
0100
1000
0001
0000
0010
0001
,  // measure 46
0100
0010
2000
0000
0100
0000
3001
0000
,  // measure 47
1000
0000
0010
0100
0001
0010
0200
0000
,  // measure 48
1000
0000
0310
0000
0100
0000
1000
0010
,  // measure 49
0100
0010
1000
0000
0100
0010
0001
0010
,  // measure 50
0100
0000
1000
0001
0010
0001
1000
0000
,  // measure 51
0010
0100
0001
0100
0010
0000
1000
0100
,  // measure 52
0001
0100
2000
0000
0010
0000
3001
0000
,  // measure 53
1000
0010
0100
0001
0010
0100
1000
0000
,  // measure 54
1001
0000
1100
0000
0101
0000
0100
0010
,  // measure 55
1000
0010
0100
0000
0001
0010
0100
0010
,  // measure 56
0001
0000
0100
0010
1000
0001
0010
0000
,  // measure 57
0011
0000
0110
0000
1100
0000
1000
0010
,  // measure 58
0100
0010
1000
0000
0001
0000
1001
0000
,  // measure 59
1100
0000
0110
0000
0010
0001
0100
0001
,  // measure 60
0010
0100
1100
1010
,  // measure 61
0110
0000
0001
0100
0010
0100
0001
0000
,  // measure 62
0010
0011
0110
1100
,  // measure 63
0000
0011
0000
0000
0101
0000
0000
1010
,  // measure 64
0000
0000
1001
0000
1000
0100
0001
0100
,  // measure 65
1000
0010
0011
1010
,  // measure 66
1100
0000
1000
0100
0010
0100
1000
0000
,  // measure 67
0010
1010
0110
0101
,  // measure 68
0001
0010
1000
0010
0001
0000
0100
0000
,  // measure 69
0110
0000
1010
0000
1100
0000
0000
0011
,  // measure 70
0000
0000
0101
0000
0000
1010
0000
0000
,  // measure 71
0010
0000
0010
1000
0000
1000
0100
0010
,  // measure 72
0001
0100
0010
1000
0001
0000
1000
0010
,  // measure 73
0000
1000
0002
0000
0010
0000
0103
0000
,  // measure 74
0001
0000
0100
0010
0000
1000
0100
0000
,  // measure 75
0010
0001
0010
0100
1000
0000
0001
0100
,  // measure 76
0000
0010
1000
0000
0100
0000
1000
0010
,  // measure 77
0100
0001
0010
1000
0010
0001
0100
0000
,  // measure 78
0010
1000
0100
1000
0001
0000
1000
0001
,  // measure 79
0000
0100
0001
0000
0010
0000
0001
0100
,  // measure 80
0010
0000
1000
0100
0000
0010
0001
0000
,  // measure 81
1000
0010
0110
0000
,  // measure 82
0000
1001
0000
0000
,  // measure 83
1000
0100
0001
1000
0010
0001
1000
0000
,  // measure 84
0010
0000
0000
0100
0000
0000
0001
0000
0000
0010
0000
0000
0100
0000
0000
0000
0100
0000
1000
0000
0000
0000
1000
0000
,  // measure 85
0010
0000
0010
0100
0000
0100
0001
0010
0100
1000
0010
0100
,  // measure 86
0001
0000
0010
0000
1000
0000
0010
0000
0001
0000
0100
0000
0010
0000
0000
0000
0000
0000
1000
0000
0000
0100
0000
0000
,  // measure 87
0001
0100
2000
0000
0010
0000
3001
0000
,  // measure 88
1000
0010
0100
0001
0010
0100
2000
0000
,  // measure 89
0010
3001
1010
0101
,  // measure 90
0011
1100
1010
0110
,  // measure 91
0101
0000
0011
0000
0110
0000
1000
0010
,  // measure 92
0100
0001
1000
0010
0100
0000
0001
0100
,  // measure 93
0010
0100
0001
0000
1000
0000
1001
0000
,  // measure 94
0011
0000
0110
0000
0100
1000
0010
1000
,  // measure 95
0100
0010
0011
0101
,  // measure 96
0110
0000
1000
0010
0100
0010
1000
0000
,  // measure 97
0100
1100
0110
0011
,  // measure 98
0000
1100
0000
0000
1010
0000
0000
0101
,  // measure 99
0000
0000
1001
0000
0001
0010
1000
0010
,  // measure 100
0001
0100
1100
0101
,  // measure 101
0011
0000
0001
0010
0100
0010
0001
0000
,  // measure 102
0100
0101
0110
1010
,  // measure 103
1000
0100
0001
0100
1000
0000
0010
0000
,  // measure 104
0110
0000
0101
0000
0011
0000
0000
1100
,  // measure 105
0000
0000
1010
0000
0000
0101
0000
0000
,  // measure 106
0100
0010
1000
0100
0010
0001
1000
0010
,  // measure 107
0001
1000
0100
0001
1000
0010
0100
0001
,  // measure 108
0010
0100
1000
0010
0001
1000
0100
0001
,  // measure 109
1000
0010
0100
0010
1000
0100
0010
0000
,  // measure 110
0001
0000
1000
0010
0110
0000
0000
0000
,  // measure 111
0000
0000
0000
0000
,  // measure 112
0000
1100
0000
0011
0000
0000
0000
0000
,  // measure 113
0000
2002
0000
0000
0000
0000
0000
0000
,  // measure 114
0000
0000
0000
0000
,  // measure 115
3003
0000
0000
0000
;

//---------------dance-single - ----------------
#NOTES:
     dance-single:
     :
     Beginner:
     4:
     0.271,0.400,0.009,0.000,0.000: // measure 1
0000
0000
0000
0000
,  // measure 2
0000
0000
0000
0000
,  // measure 3
0000
0000
0000
0000
,  // measure 4
0000
0000
0000
0000
,  // measure 5
0000
0000
0000
0000
,  // measure 6
0000
0000
0000
0000
,  // measure 7
1000
0000
0000
0010
,  // measure 8
0000
0000
0100
0000
,  // measure 9
0000
0001
0000
0000
,  // measure 10
0010
0000
0000
0100
,  // measure 11
0000
0000
1000
0000
,  // measure 12
0000
0010
0000
0000
,  // measure 13
0100
0000
0000
0100
,  // measure 14
0000
0000
0001
0000
,  // measure 15
0000
0001
0000
0000
,  // measure 16
1000
0000
0000
1000
,  // measure 17
0000
0000
0010
0000
,  // measure 18
0000
0010
0000
0000
,  // measure 19
0100
0000
0000
0000
,  // measure 20
0000
0000
0001
0000
,  // measure 21
0000
0001
0000
0000
,  // measure 22
0001
0000
0000
0000
,  // measure 23
0000
0000
1000
0000
,  // measure 24
0000
1000
0000
0000
,  // measure 25
1000
0000
0000
0000
,  // measure 26
0000
0000
0010
0000
,  // measure 27
0000
0010
0000
0000
,  // measure 28
0100
0000
0000
0100
,  // measure 29
0000
0000
0001
0000
,  // measure 30
0001
0001
0000
0000
,  // measure 31
0000
1000
1000
0000
,  // measure 32
0010
0010
0000
0100
,  // measure 33
0100
0001
0001
0000
,  // measure 34
0010
0010
0000
0100
,  // measure 35
0100
0000
1000
1000
,  // measure 36
0001
0001
0000
1000
,  // measure 37
1000
0000
0010
0010
,  // measure 38
0000
0100
0100
0001
,  // measure 39
0001
0001
1000
0000
,  // measure 40
0000
0001
0000
0000
,  // measure 41
0100
0000
0000
0010
,  // measure 42
0000
0000
1000
0000
,  // measure 43
0000
0001
0000
0000
,  // measure 44
1000
0000
0000
0001
,  // measure 45
0001
0001
0001
0000
,  // measure 46
0000
0010
0000
0000
,  // measure 47
0100
0000
0000
1000
,  // measure 48
1000
1000
1000
0000
,  // measure 49
0000
0010
0000
0000
,  // measure 50
0100
0000
0000
0001
,  // measure 51
0001
0001
0001
0000
,  // measure 52
0000
0010
0000
0000
,  // measure 53
0100
0000
0000
1000
,  // measure 54
1000
1000
1000
0000
,  // measure 55
0000
0001
0000
0000
,  // measure 56
0010
0000
0000
0100
,  // measure 57
0100
0100
0100
0000
,  // measure 58
1000
0000
0010
0000
,  // measure 59
1000
1000
0000
0001
,  // measure 60
0000
0010
0000
0001
,  // measure 61
0001
0000
0100
0000
,  // measure 62
0010
0000
1000
1000
,  // measure 63
0000
0000
0001
0000
,  // measure 64
0000
0010
0000
0100
,  // measure 65
0000
1000
0000
0001
,  // measure 66
0001
0000
1000
0000
,  // measure 67
0010
0000
0100
0100
,  // measure 68
0000
0001
0000
0010
,  // measure 69
0000
0100
0100
0000
,  // measure 70
0000
1000
0000
0000
,  // measure 71
0010
0000
0000
0100
,  // measure 72
0000
0100
0100
0000
,  // measure 73
0000
0001
0000
0000
,  // measure 74
0010
0000
0000
0100
,  // measure 75
0000
0100
0100
0000
,  // measure 76
0000
1000
0000
0000
,  // measure 77
0001
0001
0001
0001
,  // measure 78
0000
0000
1000
0000
,  // measure 79
0000
0010
0000
0000
,  // measure 80
0100
0000
0000
0001
,  // measure 81
0001
0001
0001
0000
,  // measure 82
0000
1000
0000
0000
,  // measure 83
0010
0010
0010
0010
,  // measure 84
0000
0000
0100
0100
,  // measure 85
0001
0001
1000
1000
,  // measure 86
0010
0010
1000
0000
,  // measure 87
0000
0001
0000
0000
,  // measure 88
0100
0000
0000
0010
,  // measure 89
0000
0000
1000
1000
,  // measure 90
1000
0001
0001
0001
,  // measure 91
0100
0100
0100
0010
,  // measure 92
0010
0010
1000
0000
,  // measure 93
0001
0000
1000
0000
,  // measure 94
0010
0010
0000
1000
,  // measure 95
0000
0100
0000
0010
,  // measure 96
0010
0000
0001
0000
,  // measure 97
0100
0000
0010
0010
,  // measure 98
0000
0000
1000
0000
,  // measure 99
0000
0001
0000
0010
,  // measure 100
0000
0100
1000
0100
,  // measure 101
1000
0000
0001
0000
,  // measure 102
0010
0001
0010
0001
,  // measure 103
0000
0100
0000
0010
,  // measure 104
1000
0010
1000
0000
,  // measure 105
0000
0001
0000
0000
,  // measure 106
0010
0000
0000
0100
,  // measure 107
0000
0000
1000
0000
,  // measure 108
0000
0001
0000
0000
,  // measure 109
1000
1000
1000
0001
,  // measure 110
0001
0001
0010
0000
,  // measure 111
0000
0000
0000
0000
,  // measure 112
0000
0100
0000
0100
0000
0000
0000
0000
,  // measure 113
0000
1001
0000
0000
0000
0000
0000
0000
;

//---------------dance-single - ----------------
#NOTES:
     dance-single:
     :
     Easy:
     6:
     0.456,0.508,0.045,0.018,0.000: // measure 1
0000
0000
0000
0000
,  // measure 2
0000
0000
0000
0000
,  // measure 3
0000
0000
0000
0000
,  // measure 4
0000
0000
0000
0000
,  // measure 5
0000
0000
0000
0000
,  // measure 6
0000
0000
0000
0000
,  // measure 7
1000
0100
1000
0001
,  // measure 8
0100
0001
1000
0010
,  // measure 9
1000
0001
0010
0001
,  // measure 10
1000
1000
1000
0010
,  // measure 11
0010
0010
0100
0100
,  // measure 12
0100
0001
0001
0001
,  // measure 13
0010
0000
0010
0100
,  // measure 14
0100
0100
1000
0000
,  // measure 15
1000
0001
0001
0000
,  // measure 16
1000
0000
1000
0010
,  // measure 17
0010
0010
0100
0000
,  // measure 18
0100
0001
0001
0001
,  // measure 19
0010
0100
1000
0100
,  // measure 20
0010
0001
1000
0000
,  // measure 21
1000
0001
0000
0001
,  // measure 22
0100
0010
1000
0010
,  // measure 23
0100
0001
0010
0000
,  // measure 24
0010
0100
0000
0100
,  // measure 25
1000
0010
0100
0001
,  // measure 26
1000
0100
0010
0000
,  // measure 27
0010
0001
0000
0001
,  // measure 28
0100
0010
1000
0010
,  // measure 29
0100
0001
1000
0100
,  // measure 30
0010
0001
0000
0000
,  // measure 31
1000
0001
0001
0100
,  // measure 32
0010
0010
1000
0100
,  // measure 33
0100
0010
0001
0100
,  // measure 34
0001
0001
1000
0010
,  // measure 35
0010
1000
0100
0100
,  // measure 36
1000
0100
0010
0001
,  // measure 37
0001
1000
0010
0010
,  // measure 38
1000
0001
0001
0100
,  // measure 39
0001
0010
0100
0000
,  // measure 40
0100
1000
1000
0010
,  // measure 41
0100
0000
0100
0001
,  // measure 42
0001
0010
0100
0000
,  // measure 43
0100
1000
1000
0001
,  // measure 44
0000
1000
1000
0010
,  // measure 45
0100
0001
1000
0100
,  // measure 46
0010
0001
0001
0001
,  // measure 47
0100
0010
1000
0001
,  // measure 48
0001
0001
1000
0100
,  // measure 49
0001
1000
0010
0001
,  // measure 50
1000
0010
0001
1000
,  // measure 51
0100
0001
1000
0010
,  // measure 52
0100
0001
0001
0001
,  // measure 53
0010
0100
1000
0001
,  // measure 54
0001
0001
1000
0010
,  // measure 55
0100
0001
0010
0100
,  // measure 56
1000
0010
0100
0001
,  // measure 57
0010
0100
1000
0000
,  // measure 58
0001
0000
0010
0001
,  // measure 59
0100
0001
0000
0010
,  // measure 60
0000
0100
1000
0010
,  // measure 61
1000
0000
0100
0000
,  // measure 62
1000
0010
0100
0001
,  // measure 63
0000
0010
0000
0000
0100
0000
0000
1000
,  // measure 64
0000
0010
0000
1000
,  // measure 65
0000
0001
0100
0010
,  // measure 66
0100
0000
0001
0000
,  // measure 67
0010
0100
1000
0100
,  // measure 68
0000
0010
0000
0001
,  // measure 69
0100
0000
0010
0000
1000
0000
0000
0100
,  // measure 70
0000
0000
0010
0000
0000
0001
0000
0000
,  // measure 71
0100
0000
0000
0010
0000
0000
1000
0000
,  // measure 72
0001
0100
0010
0000
,  // measure 73
0001
0010
0001
0100
,  // measure 74
0001
0000
0010
0100
,  // measure 75
1000
0100
0010
0000
,  // measure 76
0001
0100
0010
0100
,  // measure 77
0001
1000
0010
1000
,  // measure 78
0000
0001
0010
0000
,  // measure 79
0100
1000
0000
0010
,  // measure 80
0100
0000
0001
0010
,  // measure 81
1000
0010
1001
0000
,  // measure 82
0000
0110
0000
0000
,  // measure 83
1000
0100
0010
0001
,  // measure 84
1000
0010
0100
0001
,  // measure 85
0120
1000
0010
0100
,  // measure 86
0001
1000
0001
0000
,  // measure 87
1000
0100
0010
0001
,  // measure 88
0100
0000
0001
0100
,  // measure 89
0010
1000
0001
0001
,  // measure 90
0001
1000
1000
1000
,  // measure 91
0100
0100
0100
0010
,  // measure 92
0010
0010
0001
0000
,  // measure 93
0100
0000
0010
0100
,  // measure 94
0001
0010
0000
0100
,  // measure 95
0000
1000
0010
1000
,  // measure 96
0100
0000
0010
0000
,  // measure 97
0001
0100
0010
1000
,  // measure 98
0000
0001
0000
0000
0010
0000
0000
0100
,  // measure 99
0000
1000
0000
0010
,  // measure 100
0000
0100
0001
0010
,  // measure 101
0001
0000
0100
0000
,  // measure 102
0010
1000
0100
1000
,  // measure 103
0000
0001
0000
0010
,  // measure 104
0100
0000
1000
0000
0010
0000
0000
0100
,  // measure 105
0000
0000
0001
0000
0000
0010
0000
0000
,  // measure 106
0100
0000
0000
1000
0000
0000
0010
0000
,  // measure 107
0000
0100
0000
0000
0001
0000
0000
0010
,  // measure 108
0000
0000
0100
0000
0000
1000
0000
0000
,  // measure 109
0010
1000
0100
0010
,  // measure 110
0001
0100
0110
0000
,  // measure 111
0000
0000
0000
0000
,  // measure 112
0000
1000
0000
0001
0000
0000
0000
0000
,  // measure 113
0000
2002
0000
0000
0000
0000
0000
0000
,  // measure 114
0000
0000
0000
0000
,  // measure 115
3003
0000
0000
0000
;

//---------------dance-single - ----------------
#NOTES:
     dance-single:
     :
     Medium:
     8:
     0.643,0.813,0.276,0.062,0.036: // measure 1
0000
0000
0000
0000
,  // measure 2
0000
0000
0000
0000
,  // measure 3
0000
0000
0000
0000
,  // measure 4
0000
0000
0000
0000
,  // measure 5
0000
0000
0000
0000
,  // measure 6
0000
0000
0000
0000
,  // measure 7
1000
0000
0001
0100
0001
0000
0010
0000
,  // measure 8
0100
1000
0100
0000
0010
0000
0001
1000
,  // measure 9
0001
0000
0100
0000
0010
1000
0010
0000
,  // measure 10
0100
0000
0001
0000
1000
0100
1000
0000
,  // measure 11
0001
0000
1000
0000
0010
0000
0100
0001
,  // measure 12
0000
0001
0010
0000
0100
0000
1000
0000
,  // measure 13
0001
0000
1000
0010
0000
1000
0001
0000
,  // measure 14
0010
0000
0001
0000
0100
0000
0010
1000
,  // measure 15
0000
0010
0100
0000
0001
0000
0000
0000
,  // measure 16
0010
0000
0100
1000
0000
0100
0010
0000
,  // measure 17
0001
0000
0100
0000
0010
0000
1000
0001
,  // measure 18
0000
0100
0010
0000
1000
0000
0100
0000
,  // measure 19
0010
0000
0001
0100
0001
0000
1000
0000
,  // measure 20
0010
0000
1000
0000
0100
0000
0010
0001
,  // measure 21
0000
0001
0100
0000
0010
0000
1000
0000
,  // measure 22
0001
0000
1000
0001
1000
0000
0010
0000
,  // measure 23
0100
0000
0001
0000
0010
0000
0100
1000
,  // measure 24
0000
1000
0001
0000
1000
0000
0010
0000
,  // measure 25
0100
0000
0001
0000
0010
0100
0010
0000
,  // measure 26
0001
0000
0100
0000
0010
0000
0000
1010
,  // measure 27
0000
0000
1000
0000
0000
1100
0000
0000
,  // measure 28
0100
0000
0000
0110
0000
0000
0010
0000
,  // measure 29
0000
0011
0000
0000
0001
0000
0100
0000
,  // measure 30
0010
1000
0002
0000
0000
0000
0003
0000
,  // measure 31
1000
0010
0100
0001
,  // measure 32
0010
0100
1000
0010
,  // measure 33
0100
0000
0001
0010
0100
0000
0010
0000
,  // measure 34
0001
0100
0010
1000
,  // measure 35
0100
0010
0001
1000
,  // measure 36
0010
0100
0001
0000
0010
0000
0100
0000
,  // measure 37
1000
0001
0100
0010
,  // measure 38
1000
0000
0001
0000
0010
0000
0001
0100
,  // measure 39
0001
0000
0100
0010
0100
0000
0010
0000
,  // measure 40
1000
0000
0100
0000
0010
0001
0010
0000
,  // measure 41
0100
1000
0010
0100
,  // measure 42
0001
1000
0001
0000
0100
0000
0010
0000
,  // measure 43
1000
0000
0100
1000
0100
0000
0010
0001
,  // measure 44
0000
0010
0000
0010
0000
0010
0100
0000
,  // measure 45
1000
0000
0001
0000
1000
0000
0010
1000
,  // measure 46
0010
0100
0001
1000
,  // measure 47
0001
0000
0010
0001
0010
0000
0100
0000
,  // measure 48
1000
0000
0010
0000
0100
0000
0001
0100
,  // measure 49
0001
0000
1000
0000
0100
1000
0100
0000
,  // measure 50
1000
0000
0001
0010
0001
0000
1000
0000
,  // measure 51
0010
1000
0010
0000
0100
0000
0001
0000
,  // measure 52
1000
0100
1000
0000
0001
0000
0010
0000
,  // measure 53
0001
0000
0100
0000
0010
1000
0010
0000
,  // measure 54
0100
0000
0001
0000
1000
0000
0100
1000
,  // measure 55
0100
0000
1000
0000
0001
0100
0001
0000
,  // measure 56
1000
0000
0010
1000
0010
0000
1000
0000
,  // measure 57
0001
0010
0001
0000
0100
0000
0010
0000
,  // measure 58
1000
0010
1000
0000
0100
0000
0010
0000
,  // measure 59
0001
0000
1000
0000
0010
0000
0100
0001
,  // measure 60
0100
0010
1000
0100
,  // measure 61
0010
0000
0001
0000
1000
0001
1000
0000
,  // measure 62
0010
1000
0100
0010
,  // measure 63
0000
0011
0000
0000
0001
0000
0000
0101
,  // measure 64
0000
0000
0100
0000
0010
0000
1000
0001
,  // measure 65
1000
0010
0100
0001
,  // measure 66
0010
0000
0100
0000
1000
0001
1000
0000
,  // measure 67
0010
0100
0001
0010
,  // measure 68
0100
0000
1000
0010
1000
0000
0100
0000
,  // measure 69
0010
0000
0001
0000
0100
0000
0000
0110
,  // measure 70
0000
0000
0010
0000
0000
1010
0000
0000
,  // measure 71
1000
0000
1000
0001
0000
0001
0100
0000
,  // measure 72
0100
0010
0000
0010
1000
0000
0000
0100
,  // measure 73
0000
1000
0100
0000
0010
0000
0001
0000
,  // measure 74
0100
0010
1000
0010
,  // measure 75
0100
0000
0001
0000
0010
0000
0000
0010
,  // measure 76
0000
0100
1000
0000
0100
0000
0010
0000
,  // measure 77
0001
0100
0001
0000
1000
0100
1000
0000
,  // measure 78
0001
0000
0100
0010
0100
0000
0000
0010
,  // measure 79
0000
1000
0100
0000
0010
0000
0001
0100
,  // measure 80
0001
0000
0000
1000
0000
0010
1000
0000
,  // measure 81
0100
0010
0110
0000
,  // measure 82
0000
1001
0000
0000
,  // measure 83
1000
0010
0100
0010
1000
0100
0010
0000
,  // measure 84
0001
0000
0000
1000
0000
0000
0001
0000
0000
0000
0000
0000
1000
0000
0000
0000
1000
0000
0010
0000
0000
0000
0010
0000
,  // measure 85
0100
0000
0100
0001
0000
0001
0010
0000
0010
0100
0000
0100
,  // measure 86
1000
0000
1000
0010
0000
0010
0200
0000
0000
0300
0000
0000
,  // measure 87
0001
0020
0030
0100
,  // measure 88
2000
3000
0010
0200
,  // measure 89
0300
0001
0011
0011
,  // measure 90
0011
1100
1100
1100
,  // measure 91
0101
0101
0101
1010
,  // measure 92
1010
1010
0110
0010
,  // measure 93
1000
0010
1000
0000
0100
0000
0010
0000
,  // measure 94
0001
0000
1000
0000
0010
0000
0100
0001
,  // measure 95
0100
0010
1000
0100
,  // measure 96
0010
0000
0001
0000
1000
0001
1000
0000
,  // measure 97
0010
1000
0100
0010
,  // measure 98
0000
0011
0000
0000
0001
0000
0000
0101
,  // measure 99
0000
0000
0100
0000
0010
0000
1000
0001
,  // measure 100
1000
0010
0100
0001
,  // measure 101
0010
0000
0100
0000
1000
0001
1000
0000
,  // measure 102
0010
0100
0001
0010
,  // measure 103
0100
0000
1000
0010
1000
0000
0100
0000
,  // measure 104
0010
0000
0001
0000
0100
0000
0000
0110
,  // measure 105
0000
0000
0010
0000
0000
1010
0000
0000
,  // measure 106
1000
0000
1000
0001
0000
0001
0100
0000
,  // measure 107
0100
0010
0000
0010
1000
0000
1000
0001
,  // measure 108
0000
0001
0010
0000
0010
0100
0000
0100
,  // measure 109
1000
0000
0010
1000
0010
0000
0100
0000
,  // measure 110
0001
0100
0001
0000
1001
0000
0000
0000
,  // measure 111
0000
0000
0000
0000
,  // measure 112
0000
1001
0000
0110
0000
0000
0000
0000
,  // measure 113
0000
2002
0000
0000
0000
0000
0000
0000
,  // measure 114
0000
0000
0000
0000
,  // measure 115
3003
0000
0000
0000
;
