#TITLE:CRIMSON BLOOD;
#SUBTITLE:;
#ARTIST:市橋康弘;
#TITLETRANSLIT:;
#SUBTITLETRANSLIT:;
#ARTISTTRANSLIT:Yasuhiro Ichihashi;
#CREDIT:;
#BANNER:CRIMSON BLOOD.png;
#BACKGROUND:CRIMSON BLOOD-bg.png;
#LYRICSPATH:;
#CDTITLE:;
#MUSIC:CRIMSON BLOOD.mp3;
#OFFSET:-0.726;
#SAMPLESTART:59.365;
#SAMPLELENGTH:14.020;
#SELECTABLE:YES;
#BPMS:0.000=236.021,136.000=118.010,168.000=236.021;
#STOPS:197.750=0.254
;
#BGCHANGES:;

//---------------dance-single - ----------------
#NOTES:
     dance-single:
     :
     Hard:
     8:
     0.639,0.694,0.269,0.152,0.035: // measure 1
1001
0000
0000
1000
0000
0000
0001
0000
,  // measure 2
1001
0000
0001
0010
0001
0000
1000
0000
,  // measure 3
1010
0000
0010
0100
0010
0000
0100
0000
,  // measure 4
0101
0001
0011
0010
,  // measure 5
0100
1000
0001
1000
0100
0000
1000
0000
,  // measure 6
1010
0000
0010
0100
0010
0000
0100
0000
,  // measure 7
0101
0000
0001
0010
0001
0000
0010
0000
,  // measure 8
0110
0000
1001
0000
0100
1000
0001
1000
,  // measure 9
0010
0000
1000
0001
0000
0000
1001
0000
,  // measure 10
0010
0000
1000
0100
1000
0000
0100
0000
,  // measure 11
0010
0000
0001
0010
0001
0000
0100
0000
,  // measure 12
0110
0010
1010
1000
,  // measure 13
0001
0010
0001
1000
0001
0000
0100
0000
,  // measure 14
0010
0000
1000
0100
1000
0000
0001
0000
,  // measure 15
0010
0001
0100
0001
0010
0000
0100
0000
,  // measure 16
2000
0010
0100
3001
,  // measure 17
1000
0001
0000
0000
1000
0001
0000
0000
,  // measure 18
0010
0100
0000
0000
0010
0100
1000
0001
,  // measure 19
0010
0000
0000
0001
0000
0000
0100
0000
,  // measure 20
0010
1000
0100
0000
,  // measure 21
0010
0000
0000
0100
0000
0000
1000
0000
,  // measure 22
0001
0100
0010
0100
,  // measure 23
0002
0013
2000
3010
,  // measure 24
0001
0000
1000
0001
1000
0000
0100
0000
,  // measure 25
2000
3010
0200
0301
,  // measure 26
1000
0000
0010
0000
0100
0000
0001
0000
0000
1000
0000
0000
,  // measure 27
1100
0000
0000
0100
0000
0000
0010
0000
,  // measure 28
0001
0100
0010
1000
,  // measure 29
0001
0000
0000
0010
0000
0000
0100
0000
,  // measure 30
2000
0001
3001
1000
,  // measure 31
1001
0000
0001
0010
0001
0000
1000
0000
,  // measure 32
0100
0000
1000
0001
1000
0000
0001
0000
,  // measure 33
0102
0000
0100
0000
1003
0000
0001
1000
,  // measure 34
0010
0000
0000
0000
0100
0000
0000
0000
0001
0000
0000
0000
1000
0000
0000
0000
0000
0000
0001
0000
0000
1000
0000
0000
,  // measure 35
0001
1000
0100
1000
0010
1000
0001
0010
,  // measure 36
1000
0010
0001
0100
0010
1000
0100
0010
,  // measure 37
0001
0000
0010
0000
0000
0000
0010
0000
0100
0000
0000
1000
0000
0000
0010
0000
,  // measure 38
0100
0001
0000
0010
0100
0100
1000
1000
,  // measure 39
0001
0100
0010
1000
0001
0010
0100
1000
,  // measure 40
0001
0100
1000
0100
0001
0010
1000
0010
,  // measure 41
0001
0000
1000
0000
0000
0000
1000
0000
0001
0000
0000
0100
0000
0000
0010
0000
,  // measure 42
1000
0100
0000
0010
0001
0001
1000
1000
,  // measure 43
0010
0000
1000
0010
0000
0000
1000
0000
,  // measure 44
0001
0000
0100
0001
0000
0000
0010
0000
,  // measure 45
0001
0000
0010
0100
0000
0000
1000
0000
,  // measure 46
0100
0000
0010
0001
0000
0000
0010
0000
,  // measure 47
0100
0000
1000
0100
1000
0000
0001
0100
,  // measure 48
0001
0000
0000
1000
0000
0000
0010
0000
,  // measure 49
0100
0000
0000
0001
0000
0000
0010
0000
,  // measure 50
0200
0000
0000
0000
0000
0000
0000
0300
0010
0000
0001
0000
1000
0000
0000
0000
,  // measure 51
1000
0010
0000
0010
0100
0000
0002
0000
,  // measure 52
0010
0000
0103
0000
0001
0100
0010
0000
,  // measure 53
0010
1000
0000
1000
0100
0000
0020
0000
,  // measure 54
0001
0000
0130
0000
0010
0001
0100
0000
,  // measure 55
0100
0010
0000
0010
1000
0000
0001
0000
,  // measure 56
0001
0010
0000
0010
0100
0000
1000
0010
,  // measure 57
1000
0000
0001
0010
0001
0000
1000
0100
,  // measure 58
1000
0000
0001
0100
0001
1000
0001
0000
,  // measure 59
0010
0001
0000
0100
0010
0000
2000
0000
,  // measure 60
0100
0000
3001
0000
1000
0001
0010
0000
,  // measure 61
0001
0100
0000
0010
1000
0000
0200
0000
,  // measure 62
0010
0000
0301
0000
0100
0010
0001
0000
,  // measure 63
0100
0010
0000
1000
0001
0000
2001
0000
,  // measure 64
0010
0000
3100
0000
1001
0000
1000
0010
,  // measure 65
1000
0001
1000
0000
0010
0100
0001
0100
,  // measure 66
0010
0000
1000
0001
1000
0000
1001
0000
,  // measure 67
0000
1000
0000
0000
0010
0000
0110
0000
,  // measure 68
0100
0001
0010
0000
0100
0000
1100
0000
,  // measure 69
0100
0010
0001
0000
1000
0000
1010
0000
,  // measure 70
0010
0110
0100
0101
;

//---------------dance-single - ----------------
#NOTES:
     dance-single:
     :
     Challenge:
     8:
     0.564,0.615,0.234,0.141,0.035:
1001
0000
0000
1000
0000
0000
0001
0000
,
1001
0000
0001
0010
0001
0000
1000
0000
,
1010
0000
0010
0100
0010
0000
0100
0000
,
0101
0001
0011
MMMM
,
0100
1000
0001
1000
0100
0000
1000
0000
,
1010
0000
0010
0100
0010
0000
0100
0000
,
0101
0000
0001
0010
0001
0000
0010
0000
,
0110
0000
MMMM
0000
0100
1000
0001
1000
,
0010
MMMM
0000
MMMM
,
0010
0000
1000
0100
1000
0000
0100
0000
,
0010
0000
0001
0010
0001
0000
0100
0000
,
0110
MMMM
1010
MMMM
,
0001
0010
0001
1000
0001
0000
MMMM
0000
,
0010
0000
1000
0100
1000
0000
MMMM
0000
,
0010
0001
0100
0001
0010
0000
0100
0000
,
2000
0010
0100
3001
,
1000
0001
MMMM
0000
1000
0001
MMMM
0000
,
0010
0100
MMMM
0000
0010
0100
1000
0001
,
0010
0000
0000
0001
0000
0000
0100
0000
,
0010
1000
0100
MMMM
,
0010
0000
0000
0100
0000
0000
1000
0000
,
0001
0100
0010
MMMM
,
0002
0013
2000
3010
,
0001
0000
1000
0001
1000
0000
0100
0000
,
2000
3010
0200
0301
,
1000
0000
0010
0000
0100
0000
0001
0000
0000
MMMM
0000
0000
,
1100
0000
0000
0100
0000
0000
0010
0000
,
0001
0100
0010
1000
,
0001
0000
0000
0010
0000
0000
0100
0000
,
2000
0001
3001
MMMM
,
1001
0000
0001
0010
0001
0000
MMMM
0000
,
0100
0000
1000
0001
1000
0000
MMMM
0000
,
0102
0000
0100
0000
1003
0000
0001
1000
,
0010
0000
0100
0000
0001
0000
1000
0000
0000
MMMM
0000
0000
,
0001
1000
0100
1000
0010
1000
0001
MMMM
,
1000
0010
0001
0100
0010
1000
0100
MMMM
,
0001
0000
0010
0000
0000
0000
0010
0000
0100
0000
0000
1000
0000
0000
0010
0000
,
0100
0001
0000
0010
0100
0100
1000
MMMM
,
0001
0100
0010
1000
0001
0010
0100
MMMM
,
0001
0100
1000
0100
0001
0010
1000
MMMM
,
0001
0000
1000
0000
0000
0000
1000
0000
0001
0000
0000
0100
0000
0000
0010
0000
,
1000
0100
0000
0010
0001
0001
1000
MMMM
,
0010
0000
1000
0010
MMMM
0000
1000
0000
,
0001
0000
0100
0001
MMMM
0000
0010
0000
,
0001
0000
0010
0100
MMMM
0000
1000
0000
,
0100
0000
0010
0001
MMMM
0000
0010
0000
,
0100
0000
1000
0100
1000
0000
0001
0100
,
0001
0000
0000
1000
0000
0000
0010
0000
,
0100
0000
0000
0001
0000
0000
0010
0000
,
MMMM
0000
MMMM
1000
,
1000
0010
0000
0010
0100
0000
0002
0000
,
0010
0103
MMMM
0010
,
0010
1000
0000
1000
0100
0000
0020
0000
,
0001
0130
MMMM
0001
,
0100
0010
0000
0010
1000
0000
0001
0000
,
0001
0010
0000
0010
0100
0000
1000
0010
,
MMMM
0000
0001
0010
MMMM
0000
1000
0100
,
MMMM
0000
0001
0100
0001
1000
0001
0000
,
0010
0001
0000
0100
0010
0000
2000
0000
,
0100
3001
MMMM
0010
,
0001
0100
0000
0010
1000
0000
0200
0000
,
0010
0301
MMMM
0001
,
0100
0010
0000
1000
0001
0000
2001
0000
,
0010
0000
3100
0000
MMMM
0000
1000
0010
,
1000
0000
MMMM
0000
0010
0100
0001
0000
,
MMMM
0000
1000
0001
1000
0000
1001
0000
,
0000
1000
0000
0000
0010
0000
0110
0000
,
0100
0001
0010
0000
0100
0000
1100
0000
,
0100
0010
0001
0000
1000
0000
1010
0000
,
0010
0110
0100
0101
,
MMMM
0000
0000
0000
;

//---------------dance-single - ----------------
#NOTES:
     dance-single:
     :
     Beginner:
     1:
     0.184,0.204,0.012,0.070,0.000:
1000
0000
0000
0000
,
0001
0000
0000
0000
,
0010
0000
0000
0000
,
0100
0000
0100
0000
,
0100
0000
0000
0000
,
1000
0000
0000
0000
,
0010
0000
0000
0000
,
0100
0000
0100
0000
,
0100
0000
0000
0000
,
0001
0000
0000
0000
,
1000
0000
0000
0000
,
0010
0000
0010
0000
,
0010
0000
0000
0000
,
1000
0000
0000
0000
,
0001
0000
0001
0000
,
0001
0000
0000
0000
,
1000
0000
1000
0000
,
0001
0000
0001
0000
,
1000
0000
0000
0000
,
0010
0000
0000
0000
,
0100
0000
0000
0000
,
0001
0000
0000
0000
,
0010
0000
0000
0000
,
0100
0000
0000
0000
,
1000
0000
1000
0000
,
1000
0000
0000
0000
,
0001
0000
0000
0000
,
0010
0000
0000
0000
,
0001
0000
0000
0000
,
0100
0000
0000
0000
,
0010
0000
0000
0000
,
1000
0000
0000
0000
,
0001
0000
0001
0000
,
1000
0000
1000
0000
,
0001
0000
0001
0000
,
1000
0000
1000
0000
,
0010
0000
0010
0000
,
0100
0000
0100
0000
,
0001
0000
0001
0000
,
0010
0000
0010
0000
,
0100
0000
0100
0000
,
1000
0000
1000
0000
,
0010
0000
0000
0000
,
0100
0000
0000
0000
,
0001
0000
0000
0000
,
1000
0000
0000
0000
,
0001
0000
0001
0000
,
0010
0000
0010
0000
,
0100
0000
0100
0000
,
2000
0000
3000
0001
,
0000
0001
0000
0002
,
0000
0003
0000
1000
,
0000
1000
0000
2000
,
0000
3000
0000
0010
,
0000
0010
0000
0100
,
0000
0100
0000
0001
,
0000
0001
0000
2000
,
0000
3000
0000
0001
,
0000
0001
0000
0002
,
0000
0003
0000
0010
,
0000
0010
0000
0020
,
0000
0030
0000
0100
,
0000
0100
0000
1000
,
0000
1000
0000
0001
,
0000
0001
0000
1000
,
0000
1000
0000
0010
,
0000
0000
0000
0100
,
0000
0000
0000
0001
,
0000
0000
0000
0010
,
0000
0100
0000
1001
;

//---------------dance-single - ----------------
#NOTES:
     dance-single:
     :
     Easy:
     4:
     0.366,0.368,0.258,0.105,0.000:
1001
0000
0000
0000
,
0110
0000
0000
0000
,
1001
0000
0000
0000
,
1100
0000
0101
0000
,
1001
0000
0000
0000
,
0110
0000
0000
0000
,
1001
0000
0000
0000
,
1000
0010
0100
0001
,
1000
0000
0001
0000
,
0010
0001
0100
0000
,
0010
1000
0100
0000
,
1100
0000
0011
0000
,
0001
0100
0001
0000
,
1000
0100
1000
0000
,
0001
0010
0100
1000
,
0020
0000
0130
0000
,
0101
0000
1010
0000
,
1100
0000
0001
0010
,
0100
0000
1000
0000
,
0010
1000
0100
0000
,
0010
0000
0001
0000
,
0100
0001
0010
0000
,
0011
0000
1100
0000
,
1000
0010
0100
0001
,
1000
0000
0001
0000
,
0010
0100
0010
0000
,
1001
0000
0001
0000
,
0100
0010
1000
0010
,
0100
0000
0001
0010
,
0002
0000
1003
0000
,
0001
0100
0010
1000
,
0001
0010
0100
1000
,
0020
0100
0100
0130
,
0010
1000
0001
0000
,
1000
0010
0100
0001
,
1000
0100
0010
0001
,
1000
0010
0001
0010
,
1000
0100
0001
0100
,
1000
0010
0100
0001
,
1000
0100
0010
0001
,
1000
0010
0001
0010
,
1000
0100
0010
0001
,
0100
0000
0010
0000
,
1000
0000
0100
0000
,
0010
0000
0001
0000
,
0100
0000
0010
0000
,
1000
0100
0001
0100
,
1000
0010
0001
0010
,
1000
0000
0001
0000
,
0020
0000
0030
0100
,
0000
1000
0001
2000
,
0000
3001
0000
1000
,
0000
0010
0100
0020
,
0000
0130
0000
0010
,
0000
0100
0001
0010
,
0000
0100
1000
0010
,
0000
0100
0001
2000
,
0000
3001
0000
1000
,
0000
0010
0100
0002
,
0000
0013
0000
0100
,
0000
1000
0001
0020
,
0000
0031
0000
0100
,
0000
0010
1000
0100
,
0000
0010
0001
0100
,
0100
0100
0010
0010
,
0010
1000
1000
1001
,
0000
0000
0000
0110
,
0000
0000
0000
1001
,
0000
0000
0000
0110
,
0000
1001
0000
0110
;

//---------------dance-single - ----------------
#NOTES:
     dance-single:
     :
     Medium:
     6:
     0.534,0.572,0.293,0.176,0.023:
1001
0000
0000
1000
0000
0000
0010
0000
,
0100
0001
0010
0001
,
0100
0010
1000
0001
,
1000
1000
0001
0001
,
0100
0000
0010
0100
0010
0000
0100
0000
,
0010
0000
1000
0100
1000
0000
0001
0000
,
0100
0000
0001
0010
0001
0000
0100
0000
,
0210
0000
0010
0310
,
0100
1001
0000
1001
,
1000
0010
0001
0010
,
1000
0100
0001
0100
,
1000
1000
0001
0001
,
1000
0000
0010
0100
0010
0000
1000
0000
,
0001
0000
0010
0100
0010
0000
0001
0000
,
1000
0000
0001
0100
0001
0000
1000
0000
,
0020
0100
0130
0000
,
1000
0001
0000
0000
1000
0001
0000
0000
,
0010
0100
0000
0000
0010
0100
0000
0000
,
1000
0000
0000
0010
0000
0000
0100
0000
,
0001
0000
1001
0000
,
1000
0000
0000
0010
0000
0000
0100
0000
,
0002
0000
0013
0100
,
2100
3000
0102
0003
,
1000
0000
0001
0010
0001
0000
1000
0000
,
1020
0030
0102
0003
,
0100
0000
0010
0000
1000
0000
0002
0000
0000
1003
0000
0000
,
0001
0000
0000
0100
0000
0000
0010
0000
,
1000
0100
0001
0100
,
1000
0000
0000
0010
0000
0000
0001
0000
,
0020
0000
1030
0010
,
0100
0000
0001
0100
0001
0000
1000
0000
,
0001
0000
0010
0001
0010
0000
0001
0000
,
0200
0010
0310
0110
,
0010
0000
1000
0000
0001
0000
0200
0000
0000
0300
0000
0000
,
0010
0000
1000
0000
0001
0100
0001
0000
,
0010
0000
0100
0000
1000
0001
1000
0000
,
0020
0000
0130
0000
0010
0000
0100
0001
,
0100
0001
0000
0010
0001
0010
0001
0000
,
1001
0000
1000
0000
0010
0100
0010
0000
,
0100
0000
0001
0000
0010
0001
0010
0000
,
0002
0000
1003
0000
0001
0000
0100
0010
,
0100
0010
0000
1000
0010
1000
0010
0000
,
1000
0100
0001
0100
,
1000
0010
0001
0010
,
1000
0100
0001
0100
,
1000
0010
0001
0010
,
1000
1000
0001
0001
,
0100
0100
0010
0010
,
1000
0000
0000
0100
0000
0000
0010
0000
,
0002
0000
0003
1000
,
0010
0100
0010
1000
,
0100
0010
0011
0001
,
0100
0010
1000
0100
,
0001
0100
1100
1000
,
0010
0100
0001
1000
,
0100
0010
0001
0011
,
0000
0101
0000
0110
,
0000
1010
1010
1000
,
0010
0100
0001
1000
,
0100
0010
0011
0001
,
0100
0010
1000
0100
,
0001
0100
1100
1000
,
0010
0100
0001
2001
,
0001
3001
1001
1000
,
0010
1000
0010
0000
0100
0000
0001
0100
,
0001
1000
1001
0110
,
0000
1000
0000
0000
0010
0000
0100
0000
,
0001
0010
0001
0100
,
0010
1000
0001
1000
,
1000
0001
0001
1001
;
