#TITLE:BRILLIANT 2U (AKBK MIX);
#SUBTITLE:;
#ARTIST:NAOKI Remixed by DJ Command;
#TITLETRANSLIT:;
#SUBTITLETRANSLIT:;
#ARTISTTRANSLIT:;
#CREDIT:;
#BANNER:BRILLIANT 2U (AKBK MIX).png;
#BACKGROUND:BRILLIANT 2U (AKBK MIX)-bg.png;
#LYRICSPATH:;
#CDTITLE:;
#MUSIC:BRILLIANT 2U (AKBK MIX).mp3;
#OFFSET:-0.060;
#SAMPLESTART:37.045;
#SAMPLELENGTH:14.820;
#SELECTABLE:YES;
#BPMS:0.000=162.010;
#STOPS:;
#BGCHANGES:;

//---------------dance-single - ----------------
#NOTES:
     dance-single:
     :
     Hard:
     9:
     0.740,0.696,0.419,0.117,0.580: // measure 1
0000
0000
0000
0000
,  // measure 2
0000
0000
0000
0000
,  // measure 3
0000
0000
0000
0000
,  // measure 4
0000
0000
0000
0000
,  // measure 5
1000
0000
0000
0001
0000
0000
0100
0000
0000
0001
0000
0000
1000
0000
0010
0100
,  // measure 6
0010
0000
0000
1000
0000
0000
0100
0000
0000
0001
0000
0000
0100
0000
1000
0010
,  // measure 7
1000
0000
0000
0010
0000
0000
0100
0000
0000
0001
0000
0000
0010
0000
0100
1000
,  // measure 8
0001
0000
0000
0100
0000
0000
0010
0000
0000
1000
0000
0000
0100
0000
0010
0000
,  // measure 9
1001
0000
0000
0000
0000
0000
0000
0000
0000
0000
0000
0000
1000
0001
1000
0001
,  // measure 10
1000
0000
0010
0000
0100
0000
0001
0000
1000
0100
0000
1000
0000
0001
0010
0000
,  // measure 11
0001
0000
0100
0000
0010
1000
0000
0010
0100
0000
0100
0000
0001
0000
0001
0000
,  // measure 12
1000
0000
0100
0000
0010
0001
0000
0010
0000
0100
0000
1000
0010
0000
0100
0000
,  // measure 13
0001
0100
0001
0100
0001
0000
1000
0000
0001
0000
0001
0000
1001
0000
0000
0000
,  // measure 14
1010
0000
1000
0000
0001
0000
0100
0000
0001
1000
0000
0001
0000
0010
0001
0000
,  // measure 15
0100
0000
0010
0000
1000
0100
0000
0010
0001
0000
0001
0000
1000
0000
1000
0000
,  // measure 16
0001
0010
0001
0000
0100
0000
0010
0000
1000
0000
0001
0010
0000
0001
0100
0000
,  // measure 17
0010
0000
1000
0000
0001
0100
0000
0010
0000
1000
0100
0000
0010
0000
0001
0000
,  // measure 18
1001
0000
0000
0100
0000
0000
0010
0000
0000
1000
0000
0000
0100
0000
0100
0000
,  // measure 19
0010
0000
0000
0000
1001
0000
0000
0000
1000
0000
0010
0000
0100
0001
0100
0000
,  // measure 20
0101
0000
1010
0000
1100
0010
0001
0000
,  // measure 21
1000
0000
0010
0000
0100
0000
0001
0000
1000
0100
1000
0100
0000
0000
0010
0000
,  // measure 22
0001
0000
0000
0100
0000
0000
0010
0000
0000
1000
0000
0000
0001
0000
0001
0000
,  // measure 23
1000
0000
0100
0000
0010
0000
0001
0000
1000
0001
0000
1000
0001
0000
0000
0000
,  // measure 24
1100
0000
0011
0000
0101
0000
1000
0010
,  // measure 25
0100
0001
0100
0000
0001
0000
0010
0000
0001
0000
1000
0000
0100
1000
0010
1000
,  // measure 26
0100
0000
1000
0010
0000
0000
1000
0000
0100
0010
0000
0000
0001
0000
0100
0000
,  // measure 27
0110
0000
1010
0000
1001
0000
0001
0010
,  // measure 28
0100
0000
1000
0001
0000
0000
0010
0000
0001
1000
0000
0000
0010
0000
1000
0000
,  // measure 29
1100
0000
0011
0000
0101
0000
0010
1000
,  // measure 30
0100
0000
0010
0001
0000
0000
0100
0000
0010
1000
0000
0000
0001
0000
0010
0000
,  // measure 31
0011
0000
0110
0000
1100
0000
1000
0010
,  // measure 32
0100
0000
0001
1000
0000
0000
0010
0000
1000
0100
0000
0000
0010
0000
0001
0000
,  // measure 33
1000
0100
1000
0000
0001
0000
0010
0000
0100
0000
0100
0000
0010
0000
0010
0000
,  // measure 34
0001
0000
0010
0000
0100
1000
0000
0100
0000
0010
0000
0001
0100
0000
0010
0000
,  // measure 35
1000
1010
0000
0101
0000
0011
0000
1100
,  // measure 36
1000
0000
0001
0000
0010
0001
0000
0100
0000
0010
0000
1000
0100
0000
0010
0000
,  // measure 37
0001
0011
0000
0110
0000
1100
0002
0003
,  // measure 38
1000
0000
0010
0000
0100
0001
0000
0010
0000
0001
0000
0100
0010
0000
1000
0000
,  // measure 39
0001
1100
0000
0011
0000
0101
0000
1010
,  // measure 40
1000
0000
0001
0000
0010
0001
0000
0100
0000
0010
0000
1000
0100
0000
0010
0000
,  // measure 41
0001
0000
0001
0000
1000
0000
1000
0000
0010
0000
0010
0000
0100
0001
0010
0001
,  // measure 42
0100
0000
0000
0010
0000
0000
1000
0000
0001
0000
0020
0000
0000
0000
0031
0000
,  // measure 43
0100
0000
0000
0010
0000
0000
1000
0000
0100
0000
0001
0000
0101
0000
0000
0000
,  // measure 44
0100
0000
0000
1000
0000
0000
0010
0000
0100
0000
0002
0000
0000
0000
1003
0000
,  // measure 45
0001
0000
0100
0001
0100
0000
0010
0000
1000
0000
0100
1000
0100
0000
0010
0000
,  // measure 46
0001
0000
0000
1000
0000
0000
0010
0000
0100
0000
0002
0000
0000
0000
0103
0000
,  // measure 47
0010
0000
0000
1000
0000
0000
0100
0000
0010
0000
0001
0000
1001
0000
0000
0000
,  // measure 48
1000
0000
0000
0010
0000
0000
0100
0000
0001
0000
0020
0000
0000
0000
0031
0000
,  // measure 49
0010
0001
0010
0000
0001
0000
0100
0000
0010
1000
0010
0000
1000
0000
0001
0000
,  // measure 50
0010
0000
0000
0100
0000
0000
1000
0000
0001
0000
0020
0000
0000
0000
0031
0000
,  // measure 51
0100
0000
0000
0010
0000
0000
1000
0000
0100
0000
0001
0000
0101
0000
0000
0000
,  // measure 52
0100
0000
0000
1000
0000
0000
0010
0000
0100
0000
0002
0000
0000
0000
1003
0000
,  // measure 53
0001
0000
0100
0001
0100
0000
0010
0000
1000
0000
0100
1000
0100
0000
0010
0000
,  // measure 54
0001
0000
0000
1000
0000
0000
0010
0000
0100
0000
0002
0000
0000
0000
0103
0000
,  // measure 55
0010
0000
0000
1000
0000
0000
0100
0000
0010
0000
0001
0000
1001
0000
0000
0000
,  // measure 56
1000
0000
0000
0010
0000
0000
0100
0000
0001
0000
0020
0000
0000
0000
0031
0000
,  // measure 57
0010
0001
0010
0000
0001
0000
0100
0000
0110
0000
0000
1010
0000
0000
1001
0000
,  // measure 58
2000
0000
0000
0000
0010
0000
0000
0000
3100
0000
0000
0000
0001
1000
0001
1000
,  // measure 59
0001
0000
0100
0000
0010
0000
1000
0000
0001
0010
0000
0001
0000
1000
0100
0000
,  // measure 60
1000
0000
0010
0000
0100
0001
0000
0100
0010
0000
0010
0000
1000
0000
1000
0000
,  // measure 61
0001
0000
0010
0000
0100
1000
0000
0100
0000
0010
0000
0001
0100
0000
0010
0000
,  // measure 62
1000
0010
1000
0010
1000
0000
0001
0000
1000
0000
1000
0000
1001
0000
0000
0000
,  // measure 63
0101
0000
0001
0000
1000
0000
0010
0000
1000
0001
0000
1000
0000
0100
1000
0000
,  // measure 64
0010
0000
0100
0000
0001
0010
0000
0100
1000
0000
1000
0000
0001
0000
0001
0000
,  // measure 65
1000
0100
1000
0000
0010
0000
0100
0000
0001
0000
1000
0100
0000
1000
0010
0000
,  // measure 66
0100
0000
0001
0000
1000
0010
0000
0100
0000
0001
0010
0000
0100
0000
1000
0000
,  // measure 67
0001
0000
0010
0000
0100
0000
0010
0000
0001
0000
1001
0000
0000
1010
0000
0000
,  // measure 68
0220
0000
0000
0000
,  // measure 69
0330
0000
0000
0000
;

//---------------dance-single - ----------------
#NOTES:
     dance-single:
     :
     Beginner:
     2:
     0.124,0.131,0.010,0.000,0.000:
0000
0000
0000
0000
,
0000
0000
0000
0000
,
0000
0000
0000
0000
,
0000
0000
0000
0000
,
1000
0000
0000
0000
,
0001
0000
0000
0000
,
0010
0000
0000
0000
,
0100
0000
0100
0000
,
0100
0000
0000
0000
,
1000
0000
0000
0000
,
0001
0000
0001
0000
,
0001
0000
0000
0000
,
0010
0000
0010
0000
,
0010
0000
0000
0000
,
0100
0000
0100
0000
,
0100
0000
0000
0000
,
1000
0000
1000
0000
,
1000
0000
0000
0000
,
0001
0000
0000
0000
,
0010
0000
0000
0000
,
0100
0000
0100
0000
,
0100
0000
0000
0000
,
1000
0000
0000
0000
,
0010
0000
0000
0000
,
0100
0000
0100
0000
,
0100
0000
0000
0000
,
0001
0000
0001
0000
,
0001
0000
0000
0000
,
1000
0000
1000
0000
,
1000
0000
0000
0000
,
0010
0000
0010
0000
,
0010
0000
0000
0000
,
0100
0000
0100
0000
,
0100
0000
0000
0000
,
0001
0000
0001
0000
,
0001
0000
0000
0000
,
0010
0000
0010
0000
,
0010
0000
0000
0000
,
0100
0000
0100
0000
,
0100
0000
0000
0000
,
1000
0000
1000
0000
,
1000
0000
0000
0000
,
0010
0000
0000
0000
,
0100
0000
0000
0000
,
0001
0000
0001
0000
,
0001
0000
0000
0000
,
0010
0000
0000
0000
,
0100
0000
0000
0000
,
1000
0000
1000
0000
,
1000
0000
0000
0000
,
0001
0000
0001
0000
,
0001
0000
0000
0000
,
0010
0000
0010
0000
,
0010
0000
0000
0000
,
0100
0000
0100
0000
,
0100
0000
0000
0000
,
1000
0000
1000
0000
,
1000
0000
0000
0000
,
0001
0000
0000
0000
,
0010
0000
0000
0000
,
0100
0000
0000
0000
,
1000
0000
1000
0000
,
1000
0000
0000
0000
,
0010
0000
0000
0000
,
0100
0000
0000
0000
,
0001
0000
0001
0000
,
1000
0000
1000
0000
,
1001
0000
0000
0000
;

//---------------dance-single - ----------------
#NOTES:
     dance-single:
     :
     Easy:
     4:
     0.340,0.326,0.078,0.010,0.000:
0000
0000
0000
0000
,
0000
0000
0000
0000
,
0000
0000
0000
0000
,
0000
0000
0000
0000
,
1000
0100
1000
1000
,
0001
0100
0001
0001
,
1000
0010
1000
1000
,
0001
0010
0001
0001
,
1001
0000
0000
0000
,
1000
0010
0100
0010
,
1000
0100
0010
0100
,
1000
0001
0010
0001
,
0100
0010
0100
0001
,
0010
0100
1000
0100
,
0010
0001
1000
0001
,
0010
0100
1000
0010
,
1000
0100
0010
0001
,
1001
1000
0001
0001
,
0100
0000
0010
0000
,
1000
1000
0001
0001
,
0010
0000
0001
0000
,
0100
0100
0010
0010
,
1000
0000
0001
0000
,
1000
1000
0100
0100
,
0010
0000
0001
0000
,
0100
0010
1000
0001
,
1000
1000
1000
1000
,
0001
0010
0100
1000
,
0001
0001
0001
0001
,
1000
0010
0100
0001
,
0010
0010
0010
0010
,
0100
1000
0001
0010
,
0100
0100
0100
0100
,
1000
0010
0100
0010
,
1000
0000
1001
0000
,
0001
0010
0100
0010
,
0001
0000
0101
0000
,
0001
0100
0010
1000
,
0100
0000
1100
0000
,
1000
0100
0010
0001
,
1000
1000
0001
0001
,
0100
0010
0100
0001
,
0010
0100
1000
1000
,
0001
0010
1000
0010
,
0001
0001
1000
1000
,
0001
0100
0010
1000
,
0100
1000
0001
0001
,
0010
0100
1000
0010
,
0100
0001
1000
0001
,
1001
1000
0010
0010
,
1000
0001
0100
0100
,
0001
0010
0100
1000
,
0001
0001
1000
1000
,
0010
0100
0001
0001
,
0010
0100
1000
1000
,
0010
0100
0001
1000
,
0001
0010
0001
1000
,
2001
0000
0001
3001
,
1000
0010
0100
0010
,
1000
0100
0010
0100
,
1000
0001
0010
0001
,
0100
0010
1000
0010
,
0100
0001
0010
0100
,
1000
0001
0010
0001
,
0100
0010
1000
0100
,
0010
0001
1000
0001
,
0100
0100
0010
0010
,
1001
0000
0000
0000
;

//---------------dance-single - ----------------
#NOTES:
     dance-single:
     :
     Medium:
     7:
     0.515,0.555,0.555,0.010,0.039:
0000
0000
0000
0000
,
0000
0000
0000
0000
,
0000
0000
0000
0000
,
0000
0000
0000
0000
,
0000
0000
0000
0000
,
0000
0000
0000
0000
,
1000
0000
1000
0000
0001
0100
0001
0000
,
1000
0000
1000
0000
0010
0100
0010
0000
,
1001
0000
0000
0000
,
1000
0100
1000
0000
0100
0010
0100
0000
,
0010
0001
0010
0000
0001
0000
0101
0000
,
0100
0010
0100
0000
0010
1000
0010
0000
,
1000
0001
1000
0000
0001
0000
0101
0000
,
0100
0010
1000
0000
0100
0010
0001
0000
,
1000
0001
0100
0000
0010
0000
1010
0000
,
1000
0100
0010
0000
0001
0100
0010
0000
,
1000
0001
0010
0000
0001
0000
1001
0000
,
1000
0000
0010
0000
0100
0100
0100
0000
,
0110
0000
1001
0000
1000
0100
0001
0000
,
0101
0000
1100
0000
0100
1000
0010
0000
,
0100
0001
0010
0000
0100
1000
0001
0000
,
1001
0000
0110
0000
1100
0101
1001
0000
,
1000
1000
0001
0000
0011
0000
0110
0000
,
0100
0000
1000
0000
0010
0000
0100
0001
,
1000
0000
0001
0000
0010
0001
0100
0000
,
0010
1000
1000
1000
,
0101
1100
0101
1100
,
0001
0010
1000
0010
,
0011
1010
0011
1010
,
0010
0001
0100
0010
,
1010
0101
1010
0101
,
0001
0010
0100
1000
,
0001
0001
1000
1000
,
0001
0000
0100
0000
0010
1000
0001
0000
1000
0000
0000
0000
1000
0000
0000
0000
,
0100
0000
0010
0000
0001
0100
0010
0000
1000
0000
0000
0000
1000
0000
0000
0000
,
0001
0000
0010
0000
0100
1000
0001
0000
0010
0000
0000
0000
0010
0000
0000
0000
,
0001
0000
0100
0000
0010
1000
0001
0000
0100
0000
0000
0000
0100
0000
0000
0000
,
0010
0000
1000
0000
0100
1000
0001
0000
0010
0000
0000
0000
0010
0000
0000
0000
,
0001
0000
0100
0000
0010
1000
0001
0000
0100
0000
0000
0000
0100
0000
0000
0000
,
0001
0000
0010
0000
0100
1000
0001
0000
0010
0000
0000
0000
0010
0000
0000
0000
,
0001
0100
1000
0010
0001
0100
1000
0010
,
0001
0000
1000
0000
0100
0100
0100
0000
,
1100
0000
0011
0000
0001
0100
0010
0000
,
1000
0000
0001
0000
1000
0100
0010
0000
,
0001
0100
0010
0000
1000
0001
0010
0000
,
0011
0000
1100
0000
0101
1100
0101
0000
,
0001
0100
0010
0000
0110
0000
1010
0000
,
1100
0000
1001
0000
0011
0000
0001
1000
,
0001
0001
1000
1000
,
0010
1000
0100
1000
,
0001
0000
0101
0000
1100
0000
0001
0100
,
1000
1100
0101
1100
,
0001
0000
0011
0000
1010
0000
0001
0010
,
1000
1010
0011
0101
,
0100
0010
1000
1001
,
1000
0100
0001
0010
,
1000
0100
0001
0010
,
2001
0000
0100
3100
,
0001
0010
0001
0000
0010
0100
0010
0000
,
0100
1000
0100
0000
1000
0000
1010
0000
,
0010
0100
0010
0000
0100
0001
0100
0000
,
0001
1000
0001
0000
1000
0000
1010
0000
,
0010
0100
0001
0000
0010
0100
1000
0000
,
0001
1000
0010
0000
0100
0000
0101
0000
,
0001
0010
0100
0000
1000
0010
0100
0000
,
0001
1000
0100
0000
1000
0000
1001
0000
,
0001
0000
0000
0000
1000
0000
0000
0000
0100
0000
0010
0000
0000
0010
0000
0000
,
1001
0000
0000
0000
;
