#TITLE:AGEHA;
#SUBTITLE:;
#ARTIST:Ryu☆;
#TITLETRANSLIT:;
#SUBTITLETRANSLIT:;
#ARTISTTRANSLIT:Ryu*;
#CREDIT:;
#BANNER:AGEHA.png;
#BACKGROUND:AGEHA-bg.png;
#LYRICSPATH:;
#CDTITLE:;
#MUSIC:AGEHA.mp3;
#OFFSET:-1.745;
#SAMPLESTART:1.705;
#SAMPLELENGTH:15.620;
#SELECTABLE:YES;
#BPMS:0.000=180.000,36.000=90.000,52.000=180.000,196.000=90.000,224.000=180.000;
#STOPS:;
#BGCHANGES:;

//---------------dance-single - ----------------
#NOTES:
     dance-single:
     :
     Hard:
     8:
     0.636,0.635,0.652,0.234,0.042: // measure 1
1100
0000
0011
0000
0001
0100
0000
0020
,  // measure 2
0000
1000
0000
0130
0101
0000
1010
0000
,  // measure 3
1000
0100
0001
0100
1000
0000
0001
0100
,  // measure 4
1000
0100
0001
0000
1000
0010
0001
0000
,  // measure 5
1010
0000
0101
0000
0001
0010
0000
0200
,  // measure 6
0000
1000
0000
0310
0011
0000
0101
0000
,  // measure 7
0100
0010
1000
0010
0100
0000
0001
0010
,  // measure 8
0100
0010
0001
0000
1000
0010
0100
0000
,  // measure 9
2002
0000
0000
3003
,  // measure 10
2000
0000
0000
0000
3000
0010
0100
0001
0200
0000
0000
0000
0320
0000
0000
0000
,  // measure 11
1030
0001
0000
0100
0020
0000
2030
0000
,  // measure 12
3200
0000
0000
0000
0310
0001
0010
0100
2000
0000
0000
0000
3001
0000
0000
0000
,  // measure 13
0200
0320
2030
3002
,  // measure 14
1003
0000
0101
0000
0001
0010
1100
0000
,  // measure 15
0010
0000
0101
0000
0001
0010
1100
0000
,  // measure 16
1000
0010
0100
0010
1000
0000
0100
0010
,  // measure 17
0100
1000
0010
0000
1001
0000
0110
0000
,  // measure 18
0100
0000
0101
0000
0010
0100
1010
0000
,  // measure 19
0100
0000
1001
0000
0010
0001
0101
0000
,  // measure 20
0001
0100
0010
1000
0010
0000
0100
0001
,  // measure 21
0010
0100
1000
0000
0010
0100
0001
0000
,  // measure 22
1001
0000
1100
0000
1000
0100
0000
0020
,  // measure 23
0000
0001
0000
0130
1001
0000
0110
0000
,  // measure 24
1000
0010
0001
0010
1000
0000
0001
0010
,  // measure 25
1000
0010
0001
0000
1000
0100
0001
0000
,  // measure 26
1001
0000
1010
0000
0010
0100
0000
0002
,  // measure 27
0000
0010
0000
1003
1001
0000
1010
0000
,  // measure 28
1000
0010
0100
0010
1000
0000
0100
1000
,  // measure 29
0001
0010
0001
0000
0100
0010
1000
0000
,  // measure 30
2002
0000
0000
3003
,  // measure 31
1100
0011
0101
1010
,  // measure 32
0001
0000
1100
0000
0010
0100
0101
0000
,  // measure 33
0010
0000
1001
0000
1000
0100
0011
0000
,  // measure 34
0001
0000
0101
0000
0100
0010
1010
0000
,  // measure 35
1000
0011
1001
1001
,  // measure 36
1000
0000
0101
0000
0001
0010
1100
0000
,  // measure 37
1000
0000
0110
0000
0001
0010
1100
0000
,  // measure 38
1000
0000
0101
0000
0010
0100
1001
0000
,  // measure 39
1000
0010
0100
0001
1000
0000
1001
0000
,  // measure 40
0001
0010
0100
0010
0001
0100
0010
0000
,  // measure 41
0100
0001
0010
1000
0010
0001
0100
0000
,  // measure 42
0010
1000
0100
1000
0010
0100
0001
0000
,  // measure 43
0010
0001
1000
0100
1100
0000
0011
0000
,  // measure 44
0001
0100
0010
1000
0010
0100
0001
0000
,  // measure 45
0010
0100
1000
0100
0010
0001
1000
0000
,  // measure 46
0010
0100
1000
0100
0010
0001
0100
0010
,  // measure 47
1000
0001
0010
0001
0100
0010
1000
0000
,  // measure 48
2002
0000
0000
0000
,  // measure 49
3003
0000
2000
3000
,  // measure 50
0001
0000
0100
0000
0010
0000
1000
0001
1000
0000
0001
0000
0101
0000
0000
0000
,  // measure 51
0100
0000
0010
0000
1000
0000
0100
0010
0100
0000
0010
0000
0011
0000
0000
0000
,  // measure 52
0001
0000
0100
0000
0010
0000
1000
0001
1000
0000
0100
0000
1100
0000
0000
0000
,  // measure 53
1000
0000
0100
0000
0010
0000
0001
0010
0001
0000
0100
0000
0101
0000
0000
0000
,  // measure 54
0100
0000
0010
0000
1010
0000
0010
0100
0010
0000
0100
0000
0101
0000
0000
0000
,  // measure 55
0001
0000
0010
0000
0110
0000
0100
1000
0100
0000
1000
0000
1010
0000
0000
0000
,  // measure 56
0202
0303
2020
3030
,  // measure 57
1000
0100
0001
0100
1000
0000
0001
0010
,  // measure 58
1000
0010
0001
0000
0100
0010
1000
0000
,  // measure 59
1001
0000
0011
0000
0001
0010
0000
0200
,  // measure 60
0000
1000
0000
0310
1001
0000
0110
0000
,  // measure 61
1000
0010
0100
0010
1000
0000
0100
0010
,  // measure 62
0001
0010
0100
0000
1000
0010
0001
0000
,  // measure 63
1001
0000
1010
0000
0010
0100
0000
0002
,  // measure 64
0000
0010
0000
1003
1001
0000
1010
0000
,  // measure 65
1000
0010
0100
0010
1000
0000
0100
0010
,  // measure 66
0001
0010
0100
0000
1000
0001
0010
0000
,  // measure 67
0001
0000
0101
0000
1000
0100
1100
0000
,  // measure 68
0001
0000
0011
0000
1000
0010
1010
0000
,  // measure 69
1000
0010
0100
0010
1000
0000
0100
0010
,  // measure 70
0001
0010
0100
0000
1000
0001
0010
0000
,  // measure 71
0001
0000
0101
0000
1000
0010
1010
0000
,  // measure 72
1000
0000
1100
0000
0001
0010
0011
0000
,  // measure 73
0001
0010
1000
0100
0001
0000
1000
0010
,  // measure 74
0001
0100
1000
0000
0010
1000
0100
1000
,  // measure 75
0010
0001
0100
1000
0010
0000
1000
0100
,  // measure 76
0001
0010
1000
0000
0100
0010
0001
0000
,  // measure 77
1001
0000
0000
0000
;

//---------------dance-single - ----------------
#NOTES:
     dance-single:
     :
     Beginner:
     2:
     0.136,0.222,0.008,0.000,0.000: // measure 1
1000
0000
0000
0000
,  // measure 2
0001
0000
0000
0000
,  // measure 3
0010
0000
0000
0000
,  // measure 4
0100
0000
0100
0000
,  // measure 5
0100
0000
0000
0000
,  // measure 6
1000
0000
0000
0000
,  // measure 7
0010
0000
0000
0000
,  // measure 8
0100
0000
0100
0000
,  // measure 9
0100
0000
0000
0000
,  // measure 10
0001
0000
0010
0000
,  // measure 11
0100
0000
1000
0000
,  // measure 12
0010
0000
0100
0000
,  // measure 13
0001
0000
1000
0000
,  // measure 14
0001
0000
0000
0000
,  // measure 15
0010
0000
0000
0000
,  // measure 16
0100
0000
0000
0000
,  // measure 17
1000
0000
1000
0000
,  // measure 18
1000
0000
0000
0000
,  // measure 19
0001
0000
0000
0000
,  // measure 20
0010
0000
0010
0000
,  // measure 21
0001
0000
0001
0000
,  // measure 22
0100
0000
0000
0000
,  // measure 23
0010
0000
0000
0000
,  // measure 24
1000
0000
0000
0000
,  // measure 25
0001
0000
0001
0000
,  // measure 26
0001
0000
0000
0000
,  // measure 27
1000
0000
0000
0000
,  // measure 28
0100
0000
0000
0000
,  // measure 29
0010
0000
0010
0000
,  // measure 30
0010
0000
0000
0000
,  // measure 31
0001
0000
0001
0000
,  // measure 32
0001
0000
0000
0000
,  // measure 33
0100
0000
0100
0000
,  // measure 34
0100
0000
0000
0000
,  // measure 35
0010
0000
0010
0000
,  // measure 36
0010
0000
0000
0000
,  // measure 37
1000
0000
1000
0000
,  // measure 38
1000
0000
0000
0000
,  // measure 39
0100
0000
0100
0000
,  // measure 40
0100
0000
0000
0000
,  // measure 41
0010
0000
0010
0000
,  // measure 42
0010
0000
0000
0000
,  // measure 43
0001
0000
0001
0000
,  // measure 44
0001
0000
0000
0000
,  // measure 45
0100
0000
0100
0000
,  // measure 46
0100
0000
0000
0000
,  // measure 47
0010
0000
0010
0000
,  // measure 48
0010
0000
0000
0000
,  // measure 49
0000
0000
0000
0000
,  // measure 50
1000
0000
0100
0000
,  // measure 51
0010
0000
0001
0000
,  // measure 52
1000
0000
0010
0000
,  // measure 53
0100
0000
0001
0000
,  // measure 54
1000
0000
0100
0000
,  // measure 55
0010
0000
0001
0000
,  // measure 56
1000
1000
0001
0001
,  // measure 57
1000
0000
0000
0000
,  // measure 58
0010
0000
0000
0000
,  // measure 59
0100
0000
0000
0000
,  // measure 60
0001
0000
0001
0000
,  // measure 61
0001
0000
0000
0000
,  // measure 62
0010
0000
0000
0000
,  // measure 63
0100
0000
0000
0000
,  // measure 64
1000
0000
1000
0000
,  // measure 65
1000
0000
0000
0000
,  // measure 66
0001
0000
0001
0000
,  // measure 67
0001
0000
0000
0000
,  // measure 68
0010
0000
0010
0000
,  // measure 69
0010
0000
0000
0000
,  // measure 70
0100
0000
0100
0000
,  // measure 71
0100
0000
0000
0000
,  // measure 72
1000
0000
1000
0000
,  // measure 73
1000
0000
0000
0000
,  // measure 74
0010
0000
0010
0000
,  // measure 75
0010
0000
0000
0000
,  // measure 76
0100
0000
0100
0000
,  // measure 77
1001
0000
0000
0000
;

//---------------dance-single - ----------------
#NOTES:
     dance-single:
     :
     Easy:
     4:
     0.364,0.381,0.067,0.050,0.000: // measure 1
1000
0100
0010
0001
,  // measure 2
1000
0010
0100
0001
,  // measure 3
1000
1000
1000
0001
,  // measure 4
0001
0001
0010
0010
,  // measure 5
0100
1000
0010
1000
,  // measure 6
0100
0010
0001
0010
,  // measure 7
0100
0100
0100
1000
,  // measure 8
1000
1000
0001
0010
,  // measure 9
2002
0000
0000
3003
,  // measure 10
1000
0010
0100
0010
,  // measure 11
1000
0100
0010
0100
,  // measure 12
1000
0001
0010
0001
,  // measure 13
1000
0010
0100
0010
,  // measure 14
1000
1000
0001
0001
,  // measure 15
0010
0010
0001
0001
,  // measure 16
0100
0100
0100
0010
,  // measure 17
0010
0010
1001
1001
,  // measure 18
1000
1000
0100
0100
,  // measure 19
0010
0010
0001
0001
,  // measure 20
1000
1000
1000
0001
,  // measure 21
0001
0001
1001
0110
,  // measure 22
1001
1000
0010
0100
,  // measure 23
0010
1000
0100
0010
,  // measure 24
0001
0001
0001
0100
,  // measure 25
0100
0100
0010
0010
,  // measure 26
1000
0100
0010
0001
,  // measure 27
1000
0010
0100
0001
,  // measure 28
1000
1000
1000
0001
,  // measure 29
0001
0001
0010
0010
,  // measure 30
0200
0000
0000
0000
,  // measure 31
1000
1000
1000
1300
,  // measure 32
1000
0010
0100
0001
,  // measure 33
1000
0100
0010
0001
,  // measure 34
1000
0010
0001
0010
,  // measure 35
1000
0100
0001
0100
,  // measure 36
1000
0010
0100
0001
,  // measure 37
1000
0100
0010
0001
,  // measure 38
1000
0010
0100
0001
,  // measure 39
0010
0001
0100
0010
,  // measure 40
1000
0100
0010
0001
,  // measure 41
1000
0010
0100
0001
,  // measure 42
1000
0100
0010
0001
,  // measure 43
1000
0001
0010
0001
,  // measure 44
0100
0010
1000
0100
,  // measure 45
0010
0001
1000
0010
,  // measure 46
0100
0001
0010
0100
,  // measure 47
1000
0001
0010
0001
,  // measure 48
2000
0000
0000
0000
,  // measure 49
3000
0000
0001
0000
,  // measure 50
1000
0010
0100
0010
,  // measure 51
1000
0100
0010
0100
,  // measure 52
1000
0001
0010
0001
,  // measure 53
0100
0010
1000
0010
,  // measure 54
0100
0001
0010
0001
,  // measure 55
0100
0010
1000
0001
,  // measure 56
2000
3000
0002
0003
,  // measure 57
1000
1000
1000
0010
,  // measure 58
0010
0010
0100
0100
,  // measure 59
0101
0001
0010
0100
,  // measure 60
0010
0001
0100
0010
,  // measure 61
0100
0100
0100
0001
,  // measure 62
0001
0001
1000
1000
,  // measure 63
0010
1000
0100
1000
,  // measure 64
0001
0010
0001
0100
,  // measure 65
0010
0010
0010
1000
,  // measure 66
1000
1000
0001
0001
,  // measure 67
1000
0010
0100
0001
,  // measure 68
1000
0100
0010
0001
,  // measure 69
1000
1000
1000
0001
,  // measure 70
0001
0001
0100
0100
,  // measure 71
0010
1000
0100
1000
,  // measure 72
0001
0010
0001
0100
,  // measure 73
0010
0010
0010
1000
,  // measure 74
1000
1000
0100
0100
,  // measure 75
0010
0010
0010
0001
,  // measure 76
0001
0001
1000
1000
,  // measure 77
1001
0000
0000
0000
;

//---------------dance-single - ----------------
#NOTES:
     dance-single:
     :
     Medium:
     6:
     0.513,0.508,0.359,0.075,0.000: // measure 1
1001
0000
0001
0000
0100
0010
0000
1000
,  // measure 2
0000
0010
0000
0100
0001
0000
1001
0000
,  // measure 3
1000
0100
1000
0000
0001
0000
0100
0001
,  // measure 4
0100
0000
0010
0000
1000
0001
1000
0000
,  // measure 5
1001
0000
1000
0000
0010
0100
0000
0010
,  // measure 6
0000
1000
0000
0100
0010
0000
0011
0000
,  // measure 7
0001
0100
0001
0000
1000
0000
0010
1000
,  // measure 8
0010
0000
0100
0000
0001
1000
0001
0000
,  // measure 9
2002
0000
0000
3003
,  // measure 10
1000
0010
0100
0010
,  // measure 11
1000
0001
0000
0001
2000
0000
3001
0000
,  // measure 12
1000
0000
0010
0100
0002
0000
1003
0000
,  // measure 13
1001
0110
1001
0110
,  // measure 14
1000
0000
0010
0000
0100
0010
1000
0000
,  // measure 15
0010
0000
0100
0000
0001
0010
0100
0000
,  // measure 16
1000
0001
1000
0000
0010
0000
0100
0001
,  // measure 17
0100
0010
1010
0101
,  // measure 18
1001
0000
1000
0000
0010
0100
0010
0000
,  // measure 19
0100
0000
0001
0000
0010
0100
0010
0000
,  // measure 20
0001
0100
0001
0000
1000
0000
0100
1000
,  // measure 21
0100
0000
0010
0000
0001
1000
0001
0000
,  // measure 22
1001
0000
1000
0000
0010
0100
0000
0010
,  // measure 23
0000
1000
0000
0100
0010
0000
0011
0000
,  // measure 24
0001
0100
0010
0000
1000
0000
0100
0010
,  // measure 25
0001
0000
1000
0000
0010
0100
0001
0000
,  // measure 26
1001
0000
1000
0000
0010
1000
0000
0100
,  // measure 27
0000
0010
0000
0001
1000
0000
1001
0000
,  // measure 28
1000
0010
0100
0000
0001
0000
0010
0100
,  // measure 29
1000
0000
0001
0000
0100
0010
1000
0000
,  // measure 30
2002
0000
0000
3003
,  // measure 31
1000
1100
0001
0101
,  // measure 32
1000
0000
0001
0000
1000
0010
0100
0000
,  // measure 33
0001
0000
0010
0000
0100
1000
0001
0000
,  // measure 34
0010
0000
0001
0000
0100
0010
1000
0000
,  // measure 35
0010
0100
0101
1010
,  // measure 36
1000
0000
0100
0000
0010
0001
0100
0000
,  // measure 37
0010
0000
1000
0000
0100
1000
0001
0000
,  // measure 38
0010
0000
0001
0000
0100
0010
1000
0000
,  // measure 39
0001
1000
1100
0101
,  // measure 40
1000
0010
1000
0000
0001
0010
0001
0000
,  // measure 41
1000
0100
1000
0000
0001
0000
0101
0000
,  // measure 42
0100
0010
0100
0000
0010
1000
0010
0000
,  // measure 43
1000
0100
1000
0000
0001
0000
1001
0000
,  // measure 44
1000
0010
1000
0000
0010
0100
0010
0000
,  // measure 45
0100
0001
0100
0000
0001
0000
0011
0000
,  // measure 46
0010
0100
0010
0000
0100
1000
0100
0000
,  // measure 47
1000
0010
1000
0000
1001
0000
0110
0000
,  // measure 48
1001
0000
0000
0000
,  // measure 49
0000
0000
2000
0000
,  // measure 50
3001
0100
0010
0100
0001
0010
0100
0000
,  // measure 51
0001
0100
0010
1000
0010
0100
0001
0000
,  // measure 52
1000
0100
0010
0001
0100
0010
1000
0000
,  // measure 53
0001
0010
0100
1000
0001
0010
0001
0000
,  // measure 54
0100
0100
0010
0010
1000
1000
0001
0001
,  // measure 55
0010
0010
0100
0100
1000
1000
0010
0010
,  // measure 56
0200
0000
0000
0300
0002
0000
0000
0003
,  // measure 57
1000
0010
1000
0000
0001
0000
0010
0001
,  // measure 58
0010
0000
0001
0000
0100
0010
0100
0000
,  // measure 59
1001
0000
0001
0000
0100
0010
0000
1000
,  // measure 60
0000
0010
0000
0100
0001
0000
1001
0000
,  // measure 61
1000
0100
1000
0000
0001
0000
0100
0001
,  // measure 62
0100
0000
0010
0000
1000
0001
1000
0000
,  // measure 63
1001
0000
1000
0000
0010
0100
0000
0010
,  // measure 64
0000
1000
0000
0100
0010
0000
0011
0000
,  // measure 65
0001
0100
0001
0000
1000
0000
0010
1000
,  // measure 66
0010
0000
0100
0000
0001
1000
0001
0000
,  // measure 67
1000
1100
0001
0101
,  // measure 68
1000
1010
0001
0011
,  // measure 69
1000
0100
0010
0000
0001
0000
0100
0010
,  // measure 70
1000
0000
0001
0000
0010
0100
1000
0000
,  // measure 71
0001
0101
1000
1100
,  // measure 72
0001
0011
1000
1010
,  // measure 73
0001
1000
0001
1000
0001
0000
1000
0001
,  // measure 74
1000
0001
1000
0000
0001
0000
1001
0000
,  // measure 75
0010
0100
0010
0100
0010
0000
0100
0010
,  // measure 76
0100
0010
0100
0000
0010
0000
0001
0000
,  // measure 77
1001
0000
0000
0000
;
