
//----- mcode: arou -----
#TITLE:The World Around Me;
#ARTIST:DJ Micro;
#BANNER:The World Around Me.png;
#BACKGROUND:The World Around Me-bg.png;
#CDTITLE:./CDTitles/DDR SuperNOVA2 PS2 US.png;
#MUSIC:The World Around Me.ogg;
#SAMPLESTART:64.891;
#SAMPLELENGTH:15;
#BPMS:0=138;

//---------------dance-single - ----------------
#NOTES:
     dance-single:
     :
     Beginner:
     1:
     :
0000
0000
0000
0000
,
0000
0000
0000
0000
,
1000
0000
0000
0000
,
0001
0000
0000
0000
,
1000
0000
0000
0000
,
0001
0000
1000
0000
,
0010
0010
0000
0000
,
0100
0100
0000
0000
,
1000
0000
0001
0000
,
1000
0000
0100
0000
,
0010
0010
0000
0000
,
0001
0001
0000
0000
,
1000
0000
0001
0000
,
1000
0000
0001
0000
,
0100
0000
0000
0000
,
0000
0100
0000
0000
,
0020
0000
0000
0030
,
0000
0000
0000
0000
,
1000
0000
0000
0000
,
0001
0000
0000
0000
,
0200
0000
0000
0300
,
0000
0000
0000
0000
,
1000
0000
0000
0000
,
0001
0000
0000
0000
,
0100
0000
0000
0000
,
0010
0000
0000
0000
,
1000
0000
0000
0000
,
0001
0000
0000
0000
,
0010
0000
0010
0000
,
0010
0000
0010
0000
,
0100
0000
0000
0000
,
0001
0000
0000
0000
,
1000
0000
0000
0000
,
0010
0000
0000
0000
,
0100
0000
0000
0000
,
1000
0000
0000
0000
,
0001
0000
0001
0000
,
1000
0000
1000
0000
,
1001
0000
0000
0000
,
0010
0000
0010
0000
,
1001
0000
0000
0000
,
0100
0000
0100
0000
,
0110
0000
0000
0000
,
1000
0000
1000
0000
,
0110
0000
0000
0000
,
0001
0000
0001
0000
,
1000
0000
0100
0000
,
0001
0000
0100
0000
,
1000
0000
0000
0000
,
0001
0000
0000
0000
,
1000
0000
0010
0000
,
0001
0000
0010
0000
,
1000
0000
0000
0000
,
0001
0000
0000
0000
,
0100
0000
0100
0000
,
0010
0000
0000
0000
,
0100
0000
0100
0000
,
0001
0000
1000
0000
,
0001
0000
0000
0000
;

//---------------dance-single - ----------------
#NOTES:
     dance-single:
     :
     Easy:
     3:
     :
0000
0000
0000
0000
,
0000
0000
0000
0000
,
1000
0100
1000
0000
,
0001
0100
0001
0000
,
1000
0010
1000
0000
,
0001
0010
0001
0100
,
1000
0000
1000
0000
,
0010
0100
0001
0010
,
0001
0000
0001
0000
,
0200
0300
2000
3000
,
0010
0000
0010
0000
,
1000
0100
1000
0010
,
0100
0000
0100
0000
,
0001
1000
0001
0100
,
0100
0010
0000
1000
,
0000
0100
0000
0010
,
0000
0100
0000
1000
,
0000
0100
0000
0001
,
0010
0100
0000
1000
,
0000
0001
0000
0100
,
0000
0010
0000
0001
,
1000
0100
0001
0000
,
0110
0000
0000
0000
,
0010
0100
0001
0010
,
0001
0000
0000
0000
,
0100
0000
1000
0010
,
0002
0000
0003
0000
,
2000
0000
3000
0000
,
0001
0000
0010
0000
,
0100
0000
1000
0000
,
0010
0010
0100
0000
,
0010
0000
1000
0000
,
0100
0100
0001
0000
,
0010
0000
0001
0000
,
2000
0000
3000
0000
,
0002
0000
0003
0000
,
2000
3000
0002
0003
,
1000
0001
1000
0001
,
1001
0000
0100
0000
,
1001
0000
0010
0000
,
1001
0000
0100
0000
,
1001
0000
0010
1000
,
0100
0010
0000
0001
,
0010
1000
0000
0010
,
0001
1000
0001
0100
,
1000
0000
0001
1000
,
1001
0000
0100
0000
,
1001
0000
0010
0000
,
0010
0100
0010
1000
,
0100
0010
0100
0001
,
0010
0001
0000
1000
,
0100
1000
0000
0010
,
0100
0001
0010
0100
,
1000
0000
0001
0000
,
1000
0100
1000
0000
,
0000
0000
0001
0010
,
0100
0000
0000
0000
,
1000
0001
0100
0010
,
0100
0000
0000
0000
;

//---------------dance-single - ----------------
#NOTES:
     dance-single:
     :
     Medium:
     4:
     :
0000
0000
0000
0000
,
0000
0000
0000
0000
,
1000
0100
1000
0100
,
0001
0010
0001
0010
,
0100
1000
0001
0010
,
0200
0000
0300
0000
,
1000
0001
0001
0100
,
0010
1000
0100
0001
,
0100
0001
0100
0000
1000
0000
0010
0000
,
0001
0000
0000
0000
,
1000
0010
0010
0100
,
0001
0100
0010
1000
,
0001
0000
0010
0100
,
0001
0000
0000
1000
,
0100
0001
1000
0001
,
0100
1000
0010
0100
,
0001
1000
0100
0000
0010
0000
0100
0000
,
0010
0000
0000
0000
,
0001
0100
0100
0010
,
1000
0010
0100
0001
,
1000
0000
0010
0000
,
0100
0100
0000
0100
,
1001
0000
1000
0100
,
0001
0000
0010
0001
,
0100
0001
1000
0100
,
0010
1000
0001
0100
,
0110
0000
1000
0010
,
0001
0000
1000
0010
,
0100
0001
0010
0100
,
0010
0001
0010
0000
0100
1000
0100
0000
,
1001
0000
1000
0010
,
1010
0000
0001
0100
,
1000
0010
0001
0100
,
1000
0000
0010
1000
,
0002
0003
0100
0010
,
0002
0003
1000
0010
,
1000
0100
0001
1000
,
0010
0000
1000
0001
,
1001
0000
0010
0010
,
2000
0000
3010
0100
,
0110
0000
0001
0001
,
0020
0030
0100
1000
,
0001
1000
0100
0010
,
0001
0100
0001
0010
,
1000
0100
1000
0001
,
1000
0000
0010
0100
,
1001
0000
0100
0010
,
1100
0000
0010
0100
,
0002
0003
1000
0010
,
1000
0100
1000
0010
,
0001
0100
0010
0001
,
1001
0000
0010
0100
,
0002
0003
1000
0001
,
0010
0000
0100
1000
,
1000
0000
0010
0000
1000
0100
0010
0000
,
0001
0000
0100
0010
,
0100
0000
0001
0000
0100
0001
0010
0000
,
1000
0000
0001
1000
,
0010
0000
0000
0000
;

//---------------dance-single - ----------------
#NOTES:
     dance-single:
     :
     Hard:
     6:
     :
0000
0000
0000
0000
,
0000
0000
0000
0000
,
0010
0000
0001
1000
0000
0000
0100
0000
,
0001
0000
1000
0010
0000
0000
0100
0000
,
0010
0000
1000
0001
0000
0000
0010
0000
,
0100
0000
0001
1000
0000
0000
0010
0000
,
0001
0100
1000
0010
,
0001
1000
0010
0001
,
0010
0000
0100
0002
0000
0000
1003
0200
,
0000
0000
1300
0020
0000
0000
0130
0001
,
0100
1000
0100
0001
,
0010
1000
0100
0001
,
0001
0000
1000
0200
0000
0000
1300
0020
,
0000
0000
0130
0001
0000
0010
0100
1000
,
0010
0001
0100
0010
,
0100
0000
1000
0100
1000
0000
0100
0000
,
0010
0000
0001
0100
0000
0000
1000
0100
,
0000
0000
0001
0100
0000
0010
1000
0100
,
0001
0010
0100
1000
,
0001
0000
0100
0000
0010
0100
1000
0100
,
0000
0000
0001
0100
0000
0000
1000
0100
,
0000
0000
0000
0000
1000
0000
0000
0000
0001
0000
0000
0100
0000
0000
1000
0000
,
0010
1000
0100
1000
,
0001
0100
0001
0010
,
0200
0000
1000
1300
,
0020
0000
0001
0031
,
1000
0100
0001
0010
,
1000
0100
0001
1000
,
0020
0000
0100
0031
,
1000
0000
0010
0000
0010
0000
0100
0001
,
0010
0100
1000
1100
,
1000
0001
0100
0010
,
1000
0000
0001
0000
0010
0000
0100
1000
,
0010
0000
0100
0000
0001
0000
1000
0001
,
0100
0000
0001
0000
0010
0000
0100
1000
,
0001
0000
1000
0000
0001
0000
1000
0100
,
0010
0100
1000
0010
,
0100
1000
0001
1001
,
0110
1010
1000
0100
,
0001
0000
1000
0001
0000
0001
0010
0000
,
1000
0000
0010
0100
0000
0100
0001
0000
,
0010
0001
1000
1001
,
0110
0101
0001
0010
,
1000
0000
0010
0100
0000
0100
0001
0000
,
0010
0000
1000
0001
0000
0001
0100
0000
,
0010
0000
0001
0000
0100
0000
0010
1000
,
0100
1000
0010
1000
0100
0010
0001
0000
,
1000
0000
0010
0100
0000
0100
0001
0010
,
0001
0100
0010
1000
0001
1000
0001
0000
,
1000
0000
0100
0010
0000
0010
0001
0000
,
0010
0001
0100
0001
0010
0100
1000
0000
,
0001
0000
0010
0100
0000
0100
1000
0010
,
1000
0100
0010
0001
1000
0001
1000
0000
,
1001
0101
1100
1001
,
0110
0000
0001
0000
0000
1000
0010
0000
,
0100
0000
0000
0001
0000
0010
0001
0000
,
1000
0000
0000
0010
0000
0001
1000
0000
,
0010
0000
0000
0100
0000
1000
0001
0000
,
0110
0000
0000
0000
;

//---------------dance-double - ----------------
#NOTES:
     dance-double:
     :
     Easy:
     2:
     :
00000000
00000000
00000000
00000000
,
00000000
00000000
00000000
00000000
,
00000100
00000000
00000000
00000000
,
00000010
00000000
00000000
00000000
,
00000001
00000000
00000000
00000000
,
00001000
00000000
00000000
00000000
,
00000100
00000000
00000010
00000000
,
00010000
00000000
00001000
00000000
,
01000000
00000000
00010000
00000000
,
00100000
00000000
10000000
00000000
,
00010000
00000000
00100000
00000000
,
10000000
00000000
00010000
00000000
,
00100000
00000000
00001000
00000000
,
00010000
00000000
00000100
00000000
,
00000010
00000000
00000000
00000000
,
00001000
00000000
00000000
00000000
,
00000001
00000000
00000010
00000000
,
00000001
00000000
00000100
00000000
,
00010000
00000000
00000000
00000000
,
01000000
00000000
00000000
00000000
,
00100000
00000000
00010000
00000000
,
10000000
00000000
01000000
00100000
,
01000000
00000000
00000000
00000000
,
00010000
00000000
00000000
00000000
,
01000000
00000000
00000000
00000000
,
00001000
00000000
00010000
00001000
,
00010000
00000000
00000000
00000000
,
00000100
00000000
00000000
00000000
,
00000010
00000000
00000000
00000000
,
00001000
00000000
00000001
00001000
,
00000001
00000000
00000100
00000000
,
00000010
00000000
00000001
00000000
,
00000100
00000000
00000010
00000000
,
00010000
00000000
00100000
00000000
,
01000000
00000000
00010000
00000000
,
10000000
00000000
01000000
00000000
,
00010000
00000000
00100000
00000000
,
00001000
00000000
00000000
00000000
,
00010000
00000000
00001000
00000000
,
00000100
00000000
00000010
00000000
,
00000001
00000000
00001000
00000000
,
00000010
00000000
00000000
00000000
,
00000001
00000000
00000100
00000000
,
00000010
00000000
00010000
00000000
,
00001000
00000000
00010000
00000000
,
00001000
00000000
00000000
00000000
,
00010000
00000000
01000000
00000000
,
00100000
00000000
00000000
00000000
,
10000000
00000000
00100000
00000000
,
00010000
00000000
00000000
00000000
,
10000000
00000000
00010000
00000000
,
00100000
00000000
00000000
00000000
,
00001000
00000000
00000100
00000000
,
00000001
00000000
00000000
00000000
,
00000001
00000000
00000010
00000000
,
00000100
00000000
00000010
00000000
,
00000001
00000000
00000100
00000000
,
00001000
00000000
00010000
00000000
,
00100000
00000000
00000000
00000000
;

//---------------dance-double - ----------------
#NOTES:
     dance-double:
     :
     Medium:
     5:
     :
00000000
00000000
00000000
00000000
,
00000000
00000000
00000000
00000000
,
00200000
10300000
02000000
03010000
,
00002000
00003100
00000002
00000013
,
00000200
00000300
00020000
00030000
,
00002000
00003000
02000000
03000000
,
00200000
10000000
00000000
01300000
,
00002000
00100000
00000000
00013000
,
00000200
00000010
00000000
00001300
,
00000002
00000010
00000000
00001003
,
00000200
00000010
00010000
00000310
,
00020000
00001000
00000100
00031000
,
02000000
00010000
00100000
03010000
,
20000000
00100000
01000000
30100000
,
01000000
01000000
00001000
00011000
,
00010000
00010000
00000100
00001100
,
00001000
00001000
00000010
00000110
,
00000010
00000010
00000100
00000101
,
00000001
00000010
00000100
00000000
00000000
00000000
00010100
00000000
,
00010000
00001000
00010000
00000000
00000000
00000000
00110000
00000000
,
00010000
01000000
00010000
00000000
00000000
00000000
11000000
00000000
,
01000000
00100000
00010000
00000000
00000000
00000000
00110000
00000000
,
00001000
00010000
00000000
00010000
00000000
00001000
00000000
00001000
,
00000000
00000100
00000000
00000010
00000000
00000001
00000000
00001000
,
00000000
00000001
00000000
00000001
00000000
00000100
00000000
00000100
,
00000000
00001000
00000000
01000000
00000000
00100000
00000000
10000000
,
00010000
01000000
00000000
01000000
00000000
00010000
00000000
00010000
,
00000000
00100000
00000000
00001000
00000000
00000100
00000000
00000001
,
00000000
00000010
00000000
00000010
00000000
00000001
00000000
00000001
,
00000000
00001000
00000100
00010000
00000000
00001000
00000000
00100000
,
00020000
00000000
20030000
00000000
,
32000000
00000000
03100000
00001000
,
00010000
00001000
00000100
00000001
,
00000010
00000000
00000100
00000000
,
00000010
00000010
00000001
00000001
,
00000100
00000100
00001000
00010000
,
00001000
00010000
01000000
10000000
,
00100000
00000000
01000000
00000000
00010000
10000000
00010000
10000000
,
00010000
00000000
00000000
00100000
00000000
00000000
00001000
00010000
,
00001000
00000000
00000000
00000100
00000000
00000000
00000010
00000100
,
00000010
00000000
00000000
00000100
00000000
00000000
00000001
00001000
,
00000001
00000000
00000000
00000100
00000000
00000000
00010000
00000100
,
00010000
00000000
00000000
00001000
00000000
00000000
01000000
00100000
,
01000000
00000000
00000000
00010000
00000000
00000000
10000000
00100000
,
10000000
00000000
00000000
01000000
00000000
00000000
00100000
00001000
,
00100000
00000000
00000000
00010000
00000000
00000000
00000010
00000100
,
00000010
00001000
00000001
00000010
,
00000100
00010000
00002000
00003000
,
00010000
00000010
00001000
00000100
,
00010000
00001000
00200000
00300000
,
00010000
10000000
00100000
01000000
,
00001000
00010000
00002000
00003000
,
00010000
00000010
00001000
00000100
,
00000010
00000001
00002000
00003000
,
00000100
00000000
00010000
00000000
00001000
00000000
00100000
00010000
,
01000000
00000000
00001000
00000000
00010000
00000000
00001000
00100000
,
00010000
00000000
01000000
00000000
00100000
00000000
10000000
01000000
,
00100000
00000000
00001000
00000000
01000000
00000000
00001000
00010000
,
00001000
00000000
00000000
00000000
;

//---------------dance-double - ----------------
#NOTES:
     dance-double:
     :
     Hard:
     6:
     :
00000000
00000000
00000000
00000000
,
00000000
00000000
00000000
00000000
,
10000000
00000000
00100000
01000000
00000000
00000000
00010000
00000000
,
10000000
00000000
00010000
01000000
00000000
00000000
00010000
00000000
,
00100000
00000000
00001000
00010000
00000000
00000000
00001000
00000000
,
00000100
00000000
00000010
00001000
00000000
00000000
00000100
00000000
,
00000001
00000010
00001000
00000010
,
00000100
00010000
01000000
00100000
,
10000000
00000000
00010000
00200000
00000000
00000000
00301000
00020000
,
00000000
00000000
00031000
00000200
00000000
00000000
00000310
00001000
,
00000100
00000010
00000001
00000100
,
00001000
00010000
01000000
10000000
,
00010000
00000000
00100000
00002000
00000000
00000000
00013000
00000200
,
00000000
00000000
00001300
00000001
00000000
00000010
00000001
00000100
,
00000001
00000010
00001000
00000100
,
00010000
00000000
01000000
10000000
00010000
00000000
01000000
00000000
,
00100000
00000000
00010000
01000000
00000000
00000000
01000000
00100000
,
00000000
00000000
00001000
00010000
00000000
00001000
00000100
00001000
,
00000100
00000001
00000100
00000010
,
00001000
00000000
00000100
00000000
00010000
00001000
00010000
01000000
,
00000000
00000000
00100000
00010000
00000000
00000000
01000000
10000000
,
00000000
00000000
00000000
00000000
00010000
00000000
00000000
00000000
10000000
00000000
00000000
01000000
00000000
00000000
00010000
00000000
,
01000000
00010000
00001000
00000100
,
00000010
00001000
00000001
00001000
,
00000001
00000000
00000000
00000000
00000100
00000000
00010000
01000000
,
00020000
00000000
10000000
01030000
,
00010000
00100000
00001000
00000100
,
00000010
00001000
00000100
00000010
,
00000002
00000000
00001000
00000013
,
00000100
00000000
00010000
00000000
00010000
00000000
01000000
00100000
,
10000000
01000000
00100000
01100000
,
00010000
00001000
00000010
00000100
,
00001000
00000000
00000001
00000000
00000100
00000000
00000010
00001000
,
00000100
00000000
00010000
00000000
01000000
00000000
00100000
00010000
,
01000000
00000000
00100000
00000000
10000000
00000000
01000000
00010000
,
00001000
00000000
00000010
00000000
00000001
00000000
00001000
00000010
,
00000100
00000001
00000100
00010000
,
01000000
00010000
00100000
00110000
,
10100000
01010000
00100000
00001000
,
00010000
00000000
00001000
00000100
00000000
00000100
00000010
00000000
,
00000001
00000000
00000010
00000001
00000000
00000001
00000100
00000000
,
00001000
00100000
01000000
10010000
,
11000000
01010000
00100000
00001000
,
00010000
00000000
00000100
00001000
00000000
00001000
00000010
00000000
,
00000100
00000000
00000001
00000010
00000000
00000010
00000100
00000000
,
00001000
00000000
00000010
00000000
00010000
00000000
00001000
00010000
,
01000000
00100000
00010000
01000000
10000000
01000000
00100000
00000000
,
10000000
00000000
01000000
00100000
00000000
00010000
00100000
00010000
,
01000000
00001000
00010000
00001000
00000100
00000010
00000100
00000000
,
00000001
00000000
00000010
00000100
00000000
00000100
00001000
00000000
,
00000001
00000100
00001000
00000100
00010000
01000000
00100000
00000000
,
10000000
00000000
01000000
10000000
00000000
10000000
00100000
01000000
,
00010000
00100000
00001000
00010000
00001000
00010000
00001000
00000000
,
00011000
00001100
00001001
00000011
,
00000110
00000000
00001000
00000000
00000000
00000100
00010000
00000000
,
00001000
00000000
00000000
00100000
00000000
00010000
10000000
00000000
,
01000000
00000000
00000000
10000000
00000000
00100000
01000000
00000000
,
00010000
00000000
00000000
00100000
00000000
00010000
00000000
00000000
,
00110000
00000000
00000000
00000000
;
