
//----- mcode: sudd -----
#TITLE:Suddenly I See;
#ARTIST:KT Tunstall;
#BANNER:Suddenly I See.png;
#BACKGROUND:Suddenly I See-bg.png;
#CDTITLE:./CDTitles/DDR SuperNOVA2 PS2 US.png;
#MUSIC:Suddenly I See.ogg;
#SAMPLESTART:32.349;
#SAMPLELENGTH:15;
#DISPLAYBPM:101;
#BPMS:0=100.4,4=100.44;

//---------------dance-single - ----------------
#NOTES:
     dance-single:
     :
     Beginner:
     1:
     :
0000
0000
0000
0000
,
0000
0000
0000
0000
,
0000
0000
0000
0000
,
1000
0000
0010
0000
,
0100
0000
0000
0000
,
0001
0000
1000
0000
,
0010
0000
0000
0000
,
0100
0100
0100
0000
,
0010
0000
1000
0000
,
0001
0001
0001
0000
,
1000
0000
0100
0000
,
0010
0000
0000
0000
,
0001
0000
1000
0000
,
1001
0000
0000
0000
,
0010
0000
0100
0000
,
0010
0010
0010
0000
,
1000
0000
0001
0000
,
1000
1000
1000
0000
,
0100
0000
0001
0000
,
1000
1000
1000
0000
,
0010
0000
1000
0000
,
0001
0001
0001
0000
,
0100
0000
0010
0000
,
0100
0000
0010
0000
,
1000
0000
0100
0000
,
0010
0000
0001
0000
,
1000
1000
0000
0000
,
0001
0001
0000
0000
,
0100
0100
0000
0000
,
0100
0100
0000
0000
,
0010
0000
0100
0000
,
0010
0010
0010
0000
,
0001
0000
1000
0000
,
0001
0001
0001
0000
,
0100
0000
1000
0000
,
0010
0010
0010
0000
,
0100
0000
0001
0000
,
0010
0010
0010
0000
,
1001
0000
0000
0000
;

//---------------dance-single - ----------------
#NOTES:
     dance-single:
     :
     Easy:
     3:
     :
0000
0000
0000
0000
,
0000
0000
0000
0000
,
0000
0000
0000
0000
,
1000
0010
0001
0000
,
0100
1000
0100
0000
,
0001
0010
1000
0000
,
0001
0100
0001
0001
,
2000
3000
0010
0000
,
0100
0001
0100
0000
,
0002
0003
0010
0100
,
1000
0001
1000
0001
,
0100
0100
0100
0000
,
0010
1000
0001
0100
,
0100
0000
0000
0100
,
0010
0010
2000
0000
,
3001
1000
0100
1000
,
0010
0010
0002
0000
,
0103
1000
0100
1000
,
0010
0010
0002
0000
,
0103
1000
0001
0010
,
0100
0100
2000
0000
,
3001
0100
0010
1000
,
0001
0000
1000
0000
,
0001
0100
1000
0100
,
0001
0000
1000
0000
,
1000
1000
0001
0010
,
0100
0000
1000
0010
,
0100
0000
0001
0010
,
0001
0000
1000
0100
,
0010
0000
0001
0100
,
0010
0010
2000
0000
,
3001
1000
0001
0100
,
0010
0010
0200
0000
,
0301
0100
0010
1000
,
0010
0010
2000
0000
,
3100
1000
0001
0100
,
0010
0010
0200
0000
,
0301
0010
0100
1000
,
0020
0000
0000
0030
;

//---------------dance-single - ----------------
#NOTES:
     dance-single:
     :
     Medium:
     5:
     :
0000
0000
0000
0000
,
0000
0000
0000
0000
,
0000
0000
0000
0000
,
0010
0000
1000
0000
0100
1000
0010
0000
,
0100
0000
0001
0000
1000
1000
1000
0000
,
0010
0000
0001
0000
0100
0001
0010
0000
,
0001
0000
1000
0000
0100
0100
0100
0000
,
1000
0010
0001
1000
,
0001
0100
1000
0000
1000
0100
0001
0000
,
0001
0010
1000
0001
,
1000
0100
1000
0000
1000
0100
1000
0100
,
0010
0001
0100
0010
,
1000
0000
1000
0000
0001
1000
0001
0000
,
0100
0000
0100
0000
0100
0000
0100
1000
,
0010
0000
0100
0000
0001
0010
0001
0000
,
1000
0000
0001
0000
1000
0001
1000
0000
,
0100
0000
1000
0000
0010
0100
0010
0000
,
1001
0000
0110
0000
1001
0000
0100
0001
,
0010
0000
1000
0000
0001
0100
1000
0000
,
0100
0000
0001
0000
0010
0100
1000
0000
,
1000
0000
0001
0000
1000
0100
1000
0000
,
0010
0000
0010
0000
0100
0001
0100
0000
,
0020
0030
2000
3000
,
0001
0000
1000
0000
0100
0100
0001
0000
,
0020
0030
0200
0300
,
1000
0000
0010
0000
0100
0100
0001
0000
,
1000
0000
1000
0000
0001
0100
0001
0000
,
1000
0000
0010
0000
0100
0100
0100
0000
,
0001
0000
0001
0000
1000
0100
1000
0000
,
0001
0000
0010
0000
0100
0100
0100
1000
,
0001
0000
1000
0000
0010
1000
0100
0000
,
1000
0001
1000
1010
,
1000
0000
0001
0000
0100
0010
1000
0000
,
0001
0010
0100
1100
,
0100
0000
0010
0000
0001
0100
0010
0000
,
1000
0000
0001
0000
1000
0001
1000
0000
,
0010
0000
0100
0000
0001
0100
1000
0000
,
0010
0000
0010
0000
1000
0100
0010
0000
,
0220
0000
0000
0330
;

//---------------dance-single - ----------------
#NOTES:
     dance-single:
     :
     Hard:
     7:
     :
0000
0000
0000
0000
,
0000
0000
0000
0000
,
0000
0000
0000
0000
,
0001
0000
1000
0000
0100
0000
0100
1000
,
0010
0000
0000
0000
0100
0000
0000
0001
0000
0010
0000
0001
0100
0000
0010
0000
,
1000
0000
0100
0000
0010
0000
0010
0001
,
1000
0000
0000
0000
0010
0000
0000
0100
0000
0001
0000
0100
0010
0000
1000
0000
,
0001
0001
1000
1000
0010
0010
0100
0001
,
0100
0100
0010
0010
1000
1000
0100
0010
,
0001
0001
1000
1000
0100
0100
0010
1000
,
0001
0001
0100
0100
0001
0001
0100
1000
,
0110
0000
1010
0000
0011
0000
1001
0010
,
1001
0000
0101
0000
1100
0000
0100
1000
,
0010
0000
0000
0100
0010
0000
1000
0000
0100
0000
0010
0000
0001
0000
0100
0000
,
0010
0000
0001
0010
0001
0100
0101
0000
,
1000
0010
0001
0100
,
1000
0000
0010
0100
0010
1000
1100
0000
,
0020
0000
0031
1000
0020
0000
1030
0001
,
0010
0000
0001
0100
1000
0100
0010
1000
,
0200
1300
0020
0031
,
1000
0000
0010
0001
1000
0100
0010
0001
,
1000
0000
0110
0000
0100
0001
1000
0010
,
0100
0000
0001
0000
1000
0001
1000
0010
,
0100
0000
0001
0000
0010
0100
1000
0000
,
0010
0000
1000
0000
0001
1000
0001
0010
,
0100
0000
0000
0000
0001
0000
0000
0100
0000
1000
0000
0100
0010
0000
1000
0000
,
0001
0010
1000
0010
0000
0001
0000
1000
,
0000
0110
0000
1100
0000
0001
1000
0100
,
0010
1000
0001
0010
0000
0100
0000
0001
,
0000
1010
0000
0110
0000
0100
0001
0010
,
1000
0000
1000
0100
1000
0010
1010
0000
,
0001
0100
1000
0010
,
0001
0000
0100
0010
0100
0001
0011
0000
,
0200
0000
1300
0001
0200
0000
0301
1000
,
0100
0000
1000
0010
0001
0010
0100
0001
,
0020
0031
0200
1300
,
0001
0000
0100
1000
0001
0010
0100
1000
,
0001
0000
0110
0000
0010
1000
0001
0100
,
0020
0000
0000
0030
;

//---------------dance-double - ----------------
#NOTES:
     dance-double:
     :
     Easy:
     2:
     :
00000000
00000000
00000000
00000000
,
00000000
00000000
00000000
00000000
,
00000000
00000000
00000000
00000000
,
00000010
00000000
00010000
00000000
,
00000020
00000000
00001030
00001000
,
00000100
00000000
00010000
00010000
,
00001000
00010000
01000000
01000000
,
10000000
00000000
00100000
00000000
,
00010000
00000000
00100000
00000000
,
00001000
00000000
00000100
00000000
,
00000100
00000000
00000001
00000000
,
00000010
00000001
00001000
00000100
,
00010000
00000000
00001000
00000000
,
00010000
00000000
00000000
00000000
,
00011000
00000000
00100000
00000000
,
00010000
01000000
00100000
00000000
,
10010000
00000000
01000000
00000000
,
00001000
00000000
00010000
00001000
,
00011000
00000000
00000100
00000000
,
00000010
00000000
00000100
00000000
,
00001001
00000000
00000100
00000000
,
00010000
00000000
00001000
00010000
,
02000000
00000000
03000000
00000000
,
00100000
00000000
00000000
10000000
,
02000000
00000000
03000000
00000000
,
00100000
00000000
00001000
00010000
,
00000100
00000000
00001000
00000000
,
00000001
00000000
00001000
00000010
,
00000001
00000000
00001000
00000000
,
00000100
00000000
00010000
00001000
,
00011000
00000000
00100000
00000000
,
00010000
00000000
10000000
00000000
,
10010000
00000000
00100000
00000000
,
00001000
00000000
00010000
00001000
,
00011000
00000000
00001000
00000100
,
00000001
00000000
00000010
00000100
,
00000110
00000000
00000100
00010000
,
00001000
00000000
00010000
00001000
,
00100000
00000000
00000000
00000000
;

//---------------dance-double - ----------------
#NOTES:
     dance-double:
     :
     Medium:
     5:
     :
00000000
00000000
00000000
00000000
,
00000000
00000000
00000000
00000000
,
00000000
00000000
00000000
00000000
,
00001000
00000000
00000001
00000000
00000010
00000001
00000100
00000000
,
00001000
00000000
00000101
00000000
00001000
00000100
00010000
00000000
,
00001000
00000000
00010000
00000000
00001000
00010000
01000000
00000000
,
00100000
00000000
11000000
00000000
01000000
10000000
00100000
00000000
,
20000000
30020000
00230000
00302000
,
00013000
00001000
00010000
00000000
00000010
00001000
00000010
00000000
,
00000200
00000302
00002003
00003020
,
00001030
00000100
00010000
00000000
00001000
00010000
00001000
00100000
,
00010000
01000000
01100000
10010000
,
10000000
01000000
00010000
00000000
00001000
00000010
00000001
00000000
,
00001000
00000000
00000001
00000000
00001010
00000000
00000010
00010000
,
00001000
00000000
01000000
00000000
00100000
10000000
01000000
00000000
,
00200000
00000000
00320000
00000000
00130000
00001000
00010000
00000000
,
00001000
00000000
00010000
00000000
00000100
00000010
00000100
00000000
,
00001000
00000000
00000001
00000000
00000110
00000000
00001100
00000100
,
00010000
00000000
00001000
00000000
00010000
00001000
00100000
00000000
,
00020000
00000000
02030000
00000000
03010000
10000000
00010000
00000000
,
00100000
00000000
00010000
00000000
00100000
00001000
00010000
00000000
,
00001000
00000100
00000010
00000000
00000010
00001000
00000001
00000000
,
00002001
00000100
00000100
00003100
,
00010000
00000000
00001000
00000000
01000000
01000000
00100000
00000000
,
01200000
10000000
10000000
10300000
,
01000000
00000000
00100000
00000000
00001000
00001000
00010000
00000100
,
00002000
00003001
00000002
00000103
,
00000020
00000000
00001030
00000000
00000100
00010000
00000100
00000000
,
00020000
00031000
00002000
00103000
,
00200000
00000000
00310000
00000000
10000000
00010000
10000000
00010000
,
10010000
00000000
01000000
00000000
00010000
00100000
00001000
00000000
,
00020000
00032000
00013000
00011000
,
00001100
00000000
00000001
00000000
00000010
00000100
00001000
00000000
,
00000010
00000000
00000100
00000000
00001000
00000000
01000000
00100000
,
10000000
00000000
00010000
00000000
00100000
00010000
01000000
00000000
,
00002000
00000000
00023000
00000000
00031000
00010000
00000100
00000000
,
00001000
00000000
00000001
00000000
00000001
00000100
00010000
00000000
,
01000000
00000000
01010000
00000000
10000000
00010000
10000000
00000000
,
20020000
00000000
00000000
30030000
;

//---------------dance-double - ----------------
#NOTES:
     dance-double:
     :
     Hard:
     7:
     :
00000000
00000000
00000000
00000000
,
00000000
00000000
00000000
00000000
,
00000000
00000000
00000000
00000000
,
00000010
00000000
00000001
00000000
00000100
00000000
00000100
00000010
,
00001000
00000000
00000000
00000000
00000001
00000000
00000000
00000100
00000000
00001000
00000000
00010000
00001000
00000000
00010000
00000000
,
01000000
00000000
00100000
00000000
00010000
00000000
00010000
10000000
,
00100000
00000000
00000000
00000000
01000000
00000000
00000000
10000000
00000000
01000000
00000000
10000000
00100000
00000000
01000000
00000000
,
00010000
00010000
00100000
00100000
00001000
00001000
00000100
00000010
,
00001000
00001000
00000001
00000001
00000100
00000100
00000010
00000100
,
00001000
00001000
00010000
00010000
00100000
00100000
01000000
00010000
,
00100000
00100000
01000000
01000000
10000000
10000000
00100000
01000000
,
10100000
00000000
00110000
00000000
00011000
00000000
00010000
00001000
,
00000110
00000000
00000101
00000000
00000011
00000000
00000001
00001000
,
00000100
00000000
00000000
00000010
00000100
00000000
00010000
00000000
00001000
00000000
01000000
00000000
00100000
00000000
10000000
00000000
,
01000000
00000000
01000000
10000000
00100000
01000000
01100000
00000000
,
00001000
00010000
00000100
00000010
,
00000001
00000000
00000001
00000100
00000010
00001000
00001010
00000000
,
00000200
00000000
00010300
00001000
00200000
00000000
00310000
01000000
,
00010000
00000000
10000000
01000000
00010000
00001000
00000100
00000001
,
00002000
00003010
00000200
00001300
,
00000010
00000000
00000010
00000100
00001000
00010000
01000000
00100000
,
00010000
00000000
00110000
00000000
00100000
01000000
10000000
00010000
,
01000000
00000000
10000000
00000000
00010000
00100000
00001000
00000100
,
00000010
00000000
00000100
00000000
00000001
00001000
00000100
00000000
,
00100000
00000000
00010000
00000000
01000000
10000000
01000000
00010000
,
00100000
00000000
00000000
00000000
00001000
00000000
00000000
00010000
00000000
00001000
00000000
00000100
00000010
00000000
00000100
00000000
,
00000001
00000100
00001000
00000100
00000000
00000010
00000000
00010000
,
00000000
00011000
00000000
00110000
00000000
00100000
01000000
10000000
,
00010000
01000000
00100000
10000000
00000000
00010000
00000000
00100000
,
00000000
00011000
00000000
00001010
00000000
00000010
00000100
00000001
,
00000010
00000000
00000010
00000001
00001000
00000010
00001010
00000000
,
00010000
00001000
00100000
01000000
,
11000000
00000000
01000000
10000000
00100000
01000000
01010000
00000000
,
00002000
00000000
00013000
00000100
00000020
00000000
00000031
00000100
,
00001000
00000000
00010000
00100000
10000000
01000000
00100000
01000000
,
00200000
10300000
00020000
00130000
,
00001000
00000000
00001000
00000100
00000010
00001000
00000100
00000010
,
00000001
00000000
00001100
00000000
00000100
00010000
00001000
01000000
,
00200000
00000000
00000000
00300000
;
