
//----- mcode: sayg -----
#TITLE:Say Goodbye;
#ARTIST:Chris Brown;
#BANNER:Say Goodbye.png;
#BACKGROUND:Say Goodbye-bg.png;
#CDTITLE:./CDTitles/DDR SuperNOVA2 PS2 US.png;
#MUSIC:Say Goodbye.ogg;
#SAMPLESTART:51.659;
#SAMPLELENGTH:15;
#DISPLAYBPM:115;
#BPMS:0=114.7,4=115;

//---------------dance-single - ----------------
#NOTES:
     dance-single:
     :
     Beginner:
     1:
     :
0000
0000
0000
0000
,
0000
0000
0000
0000
,
0010
0000
0000
0000
,
1000
0000
0000
0000
,
0001
0000
0000
0000
,
0100
0000
0000
0000
,
0010
0000
0000
0000
,
1000
0000
0000
0000
,
0001
0000
0000
0000
,
1001
0000
0000
0000
,
0010
0000
0000
0000
,
0001
0000
1000
0000
,
0100
0000
0000
0000
,
0001
0000
0000
0000
,
0100
0000
0000
0000
,
1000
0000
0010
0000
,
1000
0000
0000
0000
,
0010
0000
0100
0000
,
1000
0000
0000
0000
,
0001
0000
0010
0000
,
0100
0000
0000
0000
,
0100
0000
0001
0000
,
1000
0000
0000
0000
,
0010
0000
0000
0000
,
0100
0000
0010
0000
,
0110
0000
0000
0000
,
1001
0000
0000
0000
,
1000
0000
0001
0000
,
0100
0000
0000
0000
,
0010
0000
0000
0000
,
0010
0000
1000
0000
,
0001
0000
0000
0000
,
0100
0000
0000
0000
,
0110
0000
0000
0000
,
1001
0000
0000
0000
,
0001
0000
1000
0000
,
0010
0000
0000
0000
,
0100
0000
0000
0000
,
0100
0000
0001
0000
,
1000
0000
0000
0000
,
0010
0000
0000
0000
,
1001
0000
0000
0000
,
1000
0000
0000
0000
,
0100
0000
0000
0000
,
0010
0000
0000
0000
,
0001
0000
0000
0000
,
1001
0000
0000
0000
;

//---------------dance-single - ----------------
#NOTES:
     dance-single:
     :
     Easy:
     2:
     :
0000
0000
0000
0000
,
0000
0000
0000
0000
,
0001
0000
0000
0000
,
0100
0000
0000
0000
,
0001
0000
1000
0000
,
0010
0000
0000
0000
,
0010
0000
0000
0000
,
0100
0000
1000
0000
,
0001
0000
0001
0000
,
1000
0000
0100
0000
,
0010
0000
0100
0000
,
0001
0000
0010
0000
,
0100
0000
0000
0000
,
1000
0000
0100
0000
,
0001
0000
0100
0000
,
0001
0000
0100
0000
,
1000
0000
0000
0000
,
0010
0000
0100
0000
,
0001
0000
1000
0000
,
0100
0000
1000
0000
,
0010
0000
0001
0000
,
0100
0000
0001
0000
,
0010
0000
0100
0000
,
1000
0000
1000
0000
,
0001
0000
0001
0000
,
0110
0000
0000
0000
,
1000
0000
0001
0000
,
0100
0000
0010
0000
,
0001
0000
1000
0000
,
0010
0000
0100
0000
,
0001
0000
0010
0000
,
1000
0000
0001
0000
,
1000
0000
1000
0000
,
0010
0000
1000
0000
,
0001
0000
0100
0000
,
0010
0000
0001
0000
,
1000
0000
0100
0000
,
0001
0000
0010
0000
,
0100
0000
1000
0000
,
0010
0000
0100
0000
,
0001
0000
1000
0000
,
1001
0000
0000
0000
,
1000
0000
0000
0000
,
0010
0000
0100
0000
,
0001
0000
0000
0000
,
1000
0000
0100
0000
,
0010
0000
0000
0000
;

//---------------dance-single - ----------------
#NOTES:
     dance-single:
     :
     Medium:
     4:
     :
0000
0000
0000
0000
,
0000
0000
0000
0000
,
0000
0000
0000
0000
,
0001
0000
1000
0000
,
0010
0000
0000
0000
0100
0000
0000
1000
,
0010
0000
0100
0000
,
0001
0000
0000
0010
1000
0100
0000
0000
,
0001
0000
0000
0010
1000
0000
0000
0100
,
0000
0001
0010
0000
1000
0000
0001
0000
,
0001
0000
0100
0000
,
0010
0001
1000
0000
,
0100
0000
0010
0000
,
1000
0001
0001
0100
,
1000
0000
0101
0000
,
0001
0000
1010
0000
,
0001
0000
0010
0001
,
0100
1000
0001
0000
0100
0000
0100
0000
,
0020
0000
1030
0000
,
0002
0000
0013
0000
,
0200
0000
1300
0000
,
0002
0000
0013
1000
,
2000
0000
3001
0000
,
0020
0000
0130
0000
,
2000
0000
3010
0000
,
0000
0100
0200
0000
0301
0000
0000
0000
,
0001
0010
0100
0000
,
1000
0100
0010
0000
0101
0000
0000
0000
,
0200
1300
0020
0031
,
0001
1000
0010
0100
,
1000
0001
0010
0000
0100
0000
1000
0000
,
0001
0000
0001
0000
0010
0001
1000
0100
,
0000
0010
0001
0010
0000
0100
1000
0100
,
0000
0010
0010
0000
0002
0000
0003
0000
,
1000
0100
0010
0000
,
0001
0010
0100
0000
1000
0000
0000
0000
,
0010
0000
1000
0010
0100
0000
0000
0000
,
0200
0000
0002
0303
,
0010
0000
1000
0000
,
0101
0000
0000
0000
1000
0100
0010
0000
,
0001
0000
1000
0000
,
0010
1000
0100
0000
0010
0000
0001
0000
,
2002
0000
0000
3003
,
1000
0000
0001
0000
,
0010
0000
0100
0100
,
1000
0000
0010
0010
,
0001
0000
0100
0000
;

//---------------dance-single - ----------------
#NOTES:
     dance-single:
     :
     Hard:
     6:
     :
0000
0000
0000
0000
,
0000
0000
0000
0000
,
0000
0000
0000
0000
,
1000
0000
0000
1000
0001
0000
0000
0001
,
0010
0000
0001
0100
1000
0000
1000
0100
,
0010
0000
0000
0010
1000
0000
0000
1000
,
0100
0000
0000
0010
0001
0010
0000
0000
,
0100
0000
0000
1000
1001
0000
0000
1000
,
0001
0100
0100
0000
0101
0000
1100
0000
,
1002
0000
0000
0010
0013
0000
0100
1000
,
0001
0000
0100
0001
0010
0000
0100
1000
,
0002
0000
0000
0100
0103
0000
0010
1000
,
0001
0000
0100
0001
1000
0000
0100
1000
,
0002
0000
0000
0010
0013
0000
0100
1000
,
0001
0000
0010
0100
1000
0000
0010
1000
,
0001
0000
0100
1000
0100
0001
1000
0000
,
0001
0010
0100
0001
0100
1000
0001
0100
,
0000
0010
1000
0100
1000
0000
1100
0010
,
0000
0010
0001
0100
0001
0000
0101
0010
,
0000
0010
1000
0001
0010
0000
0011
0001
,
0200
0000
0310
0000
1000
0100
0020
0000
,
0031
0100
0110
1000
,
1001
0000
0010
0001
1000
0001
0200
0000
,
0310
0000
0100
0010
1000
0001
1000
0000
,
0100
0010
0001
1000
0001
0000
1001
0000
,
0100
1000
0010
0200
0000
0001
0000
0310
,
1000
0001
0100
0000
0101
1000
0010
1000
,
0100
0000
0010
0000
0001
0000
1000
0000
0100
0000
0000
0100
0000
0000
0100
0000
,
1000
0001
0010
0000
0100
0000
1001
0000
,
0100
0001
0010
0000
0100
1000
0010
0000
,
1000
0100
0010
0001
0001
1000
1000
0010
,
0000
0100
0100
0001
1000
0100
0010
0001
,
1000
0001
1020
0130
,
0001
0100
0010
2000
0000
0100
0000
3010
,
0100
0001
0010
0000
1001
1000
0100
1000
,
0000
0001
0100
0001
0000
1000
0010
0100
,
0002
0000
2003
0000
,
3100
0000
0010
0100
1000
0000
0001
0100
,
1000
0000
0100
0000
0001
0000
0010
0100
,
1000
0010
0100
0002
0000
2003
0000
3000
,
1010
0110
0101
1100
,
1002
0000
0000
0100
0103
0000
0010
0100
,
0001
0000
0010
0100
1000
0000
0010
1000
,
0100
0000
0000
0010
0000
0000
0001
0000
1000
0000
0000
0000
1000
0000
0000
0000
,
0010
0000
0000
0100
0000
0000
0001
0000
1000
0000
0000
0000
0100
0000
0010
0000
,
0001
0000
0100
0010
1000
0001
0010
0200
,
0000
0000
0000
0300
0000
0000
0000
0000
;

//---------------dance-double - ----------------
#NOTES:
     dance-double:
     :
     Easy:
     1:
     :
00000000
00000000
00000000
00000000
,
00000000
00000000
00000000
00000000
,
00000000
00000000
00000000
00000000
,
00000100
00000000
00000000
00000000
,
00000010
00000000
00000000
00000000
,
00001000
00000000
00000000
00000000
,
00010000
00000000
00000000
00000000
,
01000000
00000000
00000000
00000000
,
00100000
00000000
10000000
00000000
,
01000000
00000000
00000000
00000000
,
00010000
00000000
00000000
00000000
,
00001000
00000000
00000000
00000000
,
00000100
00000000
00000001
00000000
,
00000010
00000000
00000000
00000000
,
00000001
00000000
00000000
00000000
,
00000100
00000000
00000000
00000000
,
00001000
00000000
00010000
00000000
,
00100000
00000000
00000000
00000000
,
10000000
00000000
00000000
00000000
,
00100000
00000000
00000000
00000000
,
01000000
00000000
10000000
00000000
,
00010000
00000000
00000000
00000000
,
00001000
00000000
00000000
00000000
,
00000010
00000000
00000000
00000000
,
00000100
00000000
00000001
00000000
,
00000110
00000000
00000000
00000000
,
00001000
00000000
00000000
00000000
,
00010000
00000000
00000000
00000000
,
00100000
00000000
10000000
00000000
,
00100000
00000000
00000000
00000000
,
01000000
00000000
00000000
00000000
,
00010000
00000000
00000000
00000000
,
00001000
00000000
00000010
00000000
,
00001001
00000000
00000000
00000000
,
00000100
00000000
00000000
00000000
,
00001000
00000000
00000000
00000000
,
00010000
00000000
00100000
00000000
,
10000000
00000000
00000000
00000000
,
01000000
00000000
00000000
00000000
,
00010000
00000000
00000000
00000000
,
00001000
00000000
00000010
00000000
,
00000110
00000000
00000000
00000000
,
00000001
00000000
00000000
00000000
,
00000010
00000000
00000000
00000000
,
00000100
00000000
00010000
00000000
,
00001000
00000000
00000000
00000000
,
00011000
00000000
00000000
00000000
;

//---------------dance-double - ----------------
#NOTES:
     dance-double:
     :
     Medium:
     4:
     :
00000000
00000000
00000000
00000000
,
00000000
00000000
00000000
00000000
,
00000000
00000000
00000000
00000000
,
00020000
00000000
00000000
00030000
,
00000010
00000000
00000000
00001000
00000100
00000000
00000010
00000000
,
00000001
00000000
00000100
00000000
,
00001000
00000000
00000000
00010000
00001000
00000000
00100000
00000000
,
01000000
00000000
10000000
00000000
,
00100000
01000000
00100000
00000000
,
10000000
01000000
00010000
00000000
00001000
00000000
00000000
00000000
,
00000100
00000000
00000000
00000000
00000001
00000000
00001000
00000002
,
00000000
00000003
00000010
00000000
,
00000100
00001000
00000001
00000000
00000100
00000010
00001000
00000000
,
00000100
00010000
00001000
00000000
,
01000000
00010000
00100000
00000000
,
02000000
03000000
20000000
30000000
,
00100000
00000000
01000000
00000000
00010000
00100000
00001000
00000000
,
00022000
00033000
00000100
00000000
,
00000001
00000000
00000000
00000000
00001000
00000000
00000100
00001000
,
00000020
00000000
00000130
00000000
,
00001000
00010000
02000000
00000000
,
03100000
00010000
01000000
00000000
,
10000000
00000000
00000000
00000000
01000000
00010000
00100000
00000000
,
00001000
00000000
00010000
00000000
00000010
00000000
00000000
00000100
,
00000001
00001000
00000010
00000000
,
00000101
00000000
00001000
00000000
,
00000010
00010000
00001000
00000000
01000000
00000000
00010000
00000000
,
00100000
00010000
10000000
00000000
00100000
00000000
01000000
00000000
,
00200000
00000000
10300000
00000000
,
10000000
01000000
00010000
00000000
00001000
00000000
00010000
00000000
,
00000100
00001000
00000010
00000100
,
00000000
00000010
00001000
00000000
00000001
00000100
00000010
00000000
,
00002000
00000000
00003100
00000000
,
00011000
00000000
01000000
00000000
,
00100000
10000000
00010000
00000000
10000000
00000000
01000000
00000000
,
00100000
00010000
01000000
00001000
,
00020000
00000000
00031000
00000000
,
00000100
00000000
00000010
00000000
00000100
00000001
00001000
00000000
,
00000100
00001000
00000001
00000000
00000010
00000000
00001000
00000000
,
00020000
00000000
00130000
00000000
,
02000000
00000000
00000000
00000000
13000000
00010000
01000000
00000000
,
00200000
00000000
00000000
00300000
,
02200000
00000000
00000000
03300000
,
00010000
00000000
00100000
00001000
,
00010000
00000000
00000000
00000000
00000100
00001000
00000001
00000000
,
00000100
00000000
00001000
00000000
,
00010000
00000000
00000000
00000000
;

//---------------dance-double - ----------------
#NOTES:
     dance-double:
     :
     Hard:
     6:
     :
00000000
00000000
00000000
00000000
,
00000000
00000000
00000000
00000000
,
00000000
00000000
00000000
00000000
,
00001000
00000000
00000000
00010000
01000000
00000000
00000000
10000000
,
01000000
00000000
00100000
00010000
01000000
00000000
00100000
10000000
,
00010000
00000000
00000000
00100000
00001000
00000000
00000000
00010000
,
00000100
00000000
00001000
00000010
00000100
00000010
00000000
00000100
,
00000001
00000000
00000001
00000000
00001100
00000000
00000000
00010100
,
00000000
00001000
00010000
00000000
00011000
00000000
01001000
00000000
,
01020000
00000000
00000000
10000000
10030000
00000000
01000000
10000000
,
00010000
00000000
00100000
01000000
10000000
00000000
00100000
01000000
,
00002000
00000000
00000000
00010000
00013000
00000000
00000100
00001000
,
00000010
00000000
00000100
00000001
00001000
00000000
00000100
00000010
,
00000002
00000000
00000000
00000100
00000103
00000000
00000010
00000100
,
00000001
00000000
00000010
00000001
00001000
00000000
00000100
00010000
,
00001000
00000000
00100000
00001000
00100000
00010000
01000000
00000000
,
00100000
10000000
00100000
01000000
00010000
00100000
01000000
10000000
,
00000000
00100000
10000000
01000000
00010000
00000000
00010000
00001000
,
00000000
00000010
00000001
00000100
00001000
00000000
00001000
00010000
,
00000000
00100000
00010000
00001000
00000010
00000000
00001000
00020000
,
00000100
00000000
00031000
00000000
01000000
00002000
00010000
00000000
,
01003000
00010000
00110000
01000000
,
11000000
00000000
01000000
10000000
00010000
10000000
01000000
00000000
,
00100000
00000000
00010000
01000000
00100000
00010000
00001000
00000000
,
00010000
00001000
00000100
00000010
00002000
00000000
00003002
00000000
,
00000013
00000100
00001000
00000010
00000000
00000100
00000000
00000001
,
00000100
00001000
00010000
00000000
00011000
00000000
00100000
00010000
,
01000000
00000000
00100000
00000000
01000000
00000000
00010000
00000000
10000000
00000000
00000000
10000000
00000000
00000000
10000000
00000000
,
01000000
00100000
01000000
00000000
10000000
00000000
01010000
00000000
,
00010000
01000000
00100000
00000000
00010000
00001000
00100000
00000000
,
00010000
00100000
00001000
00010000
00001000
00000100
00001000
00001000
,
00000000
00010000
00010000
01000000
00010000
00001000
00000010
00000002
,
00000000
00001003
00000001
00000110
,
00000100
00000010
00001000
00000100
00000000
00000010
00000000
00000001
,
00000010
00001000
00010000
00000000
00011000
00100000
00001000
00010000
,
00000000
00000100
00010000
00001000
00000000
01000000
00010000
10000000
,
00200000
00000000
02300000
00000000
,
03010000
00000000
10000000
01000000
00100000
00000000
00010000
01000000
,
00100000
00000000
00010000
00000000
00001000
00000000
00000100
00000010
,
00000100
00000001
00001000
00000100
00000000
00000100
00000000
00000010
,
00000002
00000203
00002300
00013000
,
00022000
00000000
00000000
00000000
00033000
00000000
00001000
00010000
,
01000000
00000000
00010000
01000000
10000000
00000000
00100000
10000000
,
00010000
00000000
00000000
00100000
00000000
00000000
00001000
00000000
00020000
00000000
00000000
00000000
00032000
00000000
00000000
00000000
,
00013000
00000000
00000000
00000010
00000000
00000000
00000100
00000000
00000001
00000000
00000000
00000000
00001000
00000000
00000001
00000000
,
00001000
00000000
00000100
00000010
00000001
00000100
00001000
00020000
,
00000000
00000000
00000000
00030000
00000000
00000000
00000000
00000000
;
