
//----- mcode: ryou -----
#TITLE:Rock Your Body;
#ARTIST:Justin Timberlake;
#BANNER:Rock Your Body.png;
#BACKGROUND:Rock Your Body-bg.png;
#CDTITLE:./CDTitles/DDR SuperNOVA2 PS2 US.png;
#MUSIC:Rock Your Body.ogg;
#SAMPLESTART:11.584;
#SAMPLELENGTH:15;
#BPMS:0=101;

//---------------dance-single - ----------------
#NOTES:
     dance-single:
     :
     Beginner:
     1:
     :
0000
0000
0000
0000
,
0000
0000
0000
0000
,
0000
0000
0000
0000
,
0000
0000
0000
0000
,
0000
0000
0000
0000
,
0010
0000
0000
0000
,
0010
0000
0000
0000
,
1000
0000
0000
0000
,
0001
0000
0000
0000
,
0100
0000
0000
0000
,
0100
0000
0000
0000
,
0010
0000
0000
0000
,
1000
0000
0000
0000
,
0100
0000
0100
0000
,
0001
0000
0001
0000
,
0010
0000
0000
0000
,
0001
0000
0000
0000
,
0100
0000
0100
0000
,
1000
0000
1000
0000
,
0100
0000
0000
0000
,
0100
0000
0000
0000
,
0010
0000
0000
0000
,
0100
0000
0000
0000
,
1000
0000
0000
0000
,
1000
0000
0000
0000
,
0110
0000
0000
0000
,
0001
0000
1000
0000
,
1001
0000
0000
0000
,
1001
0000
0000
0000
,
0100
0000
0000
0000
,
0010
0000
0000
0000
,
1000
0000
0000
0000
,
0001
0000
0000
0000
,
0100
0000
0100
0000
,
0001
0000
0000
0000
,
0010
0000
0010
0000
,
1000
0000
0000
0000
,
1000
0000
1000
0000
,
1001
0000
0000
0000
,
0010
0000
0010
0000
,
0110
0000
0000
0000
,
0110
0000
0000
0000
;

//---------------dance-single - ----------------
#NOTES:
     dance-single:
     :
     Easy:
     3:
     :
0000
0000
0000
0000
,
0000
0000
0000
0000
,
0000
0000
0000
0000
,
0000
0000
0000
0000
,
0000
0000
0000
0000
,
0010
1000
0010
0000
,
0000
0000
0110
0000
,
0010
0001
0010
0000
,
0010
0000
0110
0000
,
1000
0001
1000
0000
,
0010
0000
0110
0000
,
1000
0001
0000
0001
,
1000
0000
0010
0010
,
1000
0000
1000
0000
,
0200
0000
0000
0300
,
0010
0100
0010
0100
,
0000
0001
0000
0000
,
0010
0001
0010
0001
,
2000
0000
0000
3000
,
0100
1000
0100
1000
,
0020
0000
0000
0030
,
1000
1000
1000
0000
,
0001
0001
0001
0000
,
0010
0100
0010
0000
,
0001
1000
1000
0010
,
0010
0100
0010
0000
,
1000
0000
0110
0000
,
1000
0001
1000
0000
,
0001
0000
1001
0000
,
0010
1000
0010
0000
,
0010
0000
1001
0000
,
0010
0001
0010
0000
,
0100
0000
1001
0000
,
0100
1000
0100
0000
,
0100
0001
0100
0000
,
0010
0010
0010
0000
,
0100
0100
0100
0000
,
1000
0001
1000
0001
,
0100
0000
0110
0000
,
0010
0100
0010
0100
,
1000
0000
1001
0000
,
0001
1000
0001
1000
,
0010
0000
0000
0000
;

//---------------dance-single - ----------------
#NOTES:
     dance-single:
     :
     Medium:
     5:
     :
0000
0000
0000
0000
,
0000
0000
0000
0000
,
0000
0000
0000
0000
,
0000
0000
0000
0000
,
0000
0000
0000
0000
,
0010
1000
0010
1000
,
0100
0000
1000
0000
0010
1000
0010
0000
,
1000
0000
0001
0000
1000
0001
1000
0000
,
0001
0000
1000
0000
0001
1000
0001
0000
,
0110
0000
0100
0000
0010
0100
0010
0000
,
0110
0000
0200
0000
0300
0010
0010
0000
,
0001
0100
1000
0100
,
0001
0000
0010
0000
1000
0010
0001
0000
,
0010
0000
1000
0000
0001
0000
0100
1000
,
0200
0000
0000
0000
0300
0001
0001
0000
,
1000
0010
0100
0001
,
0001
0000
0010
0000
0100
0010
0100
0000
,
1000
0000
0001
0000
0010
0001
1000
0000
,
0001
0000
1000
0000
0010
1000
0001
0000
,
0100
0000
0010
0000
1000
0001
0010
0000
,
0100
0000
0010
0000
0001
1000
0100
0000
,
1000
0000
0010
0000
0100
0010
0001
0000
,
0100
0010
0100
1001
,
0001
0000
0010
0000
0100
0010
1000
0000
,
1000
1000
0001
0001
,
1000
0001
0100
0000
0100
0000
1100
0000
,
1000
0001
0100
0000
0100
0000
0101
0000
,
1000
0000
0001
0000
1000
0001
1000
0000
,
0001
0000
1000
0000
0001
1000
0001
0000
,
0001
0011
0100
1100
,
1000
0000
0100
0000
0010
0001
0001
0000
,
1000
1010
0100
0101
,
0001
0000
0010
0000
0100
1000
1000
0000
,
1000
0100
0001
0011
,
0010
0000
0100
0000
1000
0010
0010
0000
,
0001
0100
1000
1010
,
0010
1000
0100
0000
0100
0000
0110
0000
,
1000
0001
0010
0000
0010
0000
0101
0000
,
0001
1000
0100
0000
0100
0010
0010
0000
,
1000
0000
0100
0000
0010
0001
0010
0000
,
0001
0000
0100
0000
1000
0010
1000
0000
,
1001
0000
0000
0000
;

//---------------dance-single - ----------------
#NOTES:
     dance-single:
     :
     Hard:
     7:
     :
0000
0000
0000
0000
,
0000
0000
0000
0000
,
0000
0000
0000
0000
,
0000
0000
0000
0000
,
0000
0000
0000
0000
,
0010
1000
0100
1000
0020
0000
0130
0000
,
0010
0000
1001
0000
0010
0100
0001
0000
,
0010
0001
0100
0001
0020
0000
0130
0000
,
0010
0000
1001
0000
1000
0001
0100
0000
,
1000
0100
0001
0100
1000
0000
0010
0000
,
2002
0000
3003
0000
0100
0001
1000
0000
,
0010
2000
0000
3000
0100
0000
0010
0000
,
0001
0000
0010
0000
0100
1000
0010
0000
,
0101
1100
0011
1010
,
0202
0000
0000
0003
0302
0103
0101
0000
,
0020
1000
0100
0031
,
0200
0000
0001
0000
0310
0100
0010
0000
,
1000
0000
0100
0000
0001
0010
0001
0000
,
0010
0000
1000
0000
0100
1000
0100
0000
,
1000
1010
0001
0011
,
0100
0000
1000
0000
0001
0100
0010
0000
,
0010
1000
0100
1000
0010
1000
0100
0000
,
0001
0010
0001
0100
0010
1000
0100
0000
,
0010
0000
1001
0000
0010
1000
0100
0000
,
0001
0100
1000
0000
1000
0100
0001
0000
,
0010
0001
0100
0001
0020
0000
0130
0000
,
0010
0000
1001
0000
0010
0100
1000
0000
,
0010
1000
0100
1000
0020
0000
0130
0000
,
0010
0000
1001
0000
0001
1000
0100
0000
,
0001
0100
1000
0100
0001
0000
0010
0000
,
2002
0000
3003
0000
0100
1000
0001
0000
,
0010
0002
0000
0003
0100
0000
0010
0000
,
1000
0000
0010
0000
0001
0100
0010
0000
,
1000
1100
0001
0011
,
0100
0000
1000
0000
0010
0100
0100
0000
,
0010
1010
0100
0101
,
0010
0000
1000
0000
0100
0010
0010
0000
,
0010
0001
0100
0001
0010
0000
0100
1000
,
0010
0000
1001
0000
0000
0100
0100
0000
,
0001
0100
1000
0100
0001
0000
1000
0100
,
0001
0000
0110
0000
0000
1000
1000
0000
,
0010
1000
0100
1000
0010
0000
1010
0000
,
0101
0000
0000
0000
;

//---------------dance-double - ----------------
#NOTES:
     dance-double:
     :
     Easy:
     3:
     :
00000000
00000000
00000000
00000000
,
00000000
00000000
00000000
00000000
,
00000000
00000000
00000000
00000000
,
00000000
00000000
00000000
00000000
,
00000000
00000000
00000000
00000000
,
00000001
00001000
00000001
00000000
,
00000110
00000000
00001000
00010000
,
01000000
10000000
01000000
00000000
,
01100000
00000000
01000000
00000000
,
00010000
00001000
00010000
00000000
,
00000010
00001000
00001000
00000000
,
00000220
00000000
00000000
00000330
,
00000001
00000100
00001000
00000000
,
00020000
00030000
00200000
00300000
,
20000000
00000000
00000000
30000000
,
01000000
01000000
00100000
00000000
,
00010000
00001000
00001000
00000000
,
00000100
00000010
00000010
00000000
,
00001000
00000001
00000001
00000000
,
00000100
00000000
00001000
00000000
,
00010000
00000000
00100000
00000000
,
10000000
10000000
01000000
01000000
,
00100000
00000000
01100000
00000000
,
00010000
00000000
00001000
00000000
,
00010000
00010000
00001000
00001000
,
00000010
00000010
00000100
00000000
,
00000001
00001000
00000001
00000000
,
00000110
00000000
00001000
00010000
,
00100000
10000000
00100000
00000000
,
01100000
00000000
00100000
00000000
,
00010000
00001000
00010000
00000000
,
00000100
00001000
00001000
00000000
,
00000220
00000000
00000000
00000330
,
00000001
00000010
00001000
00000000
,
00010000
00010000
00010000
00000000
,
00100000
00100000
10000000
00000000
,
01000000
01000000
01000000
00000000
,
00010000
00001000
00000100
00000000
,
00000001
00000001
00000001
00000000
,
00000010
00000010
00001000
00000000
,
00010000
00010000
00010000
00000000
,
00011000
00000000
00000000
00000000
;

//---------------dance-double - ----------------
#NOTES:
     dance-double:
     :
     Medium:
     5:
     :
00000000
00000000
00000000
00000000
,
00000000
00000000
00000000
00000000
,
00000000
00000000
00000000
00000000
,
00000000
00000000
00000000
00000000
,
00000000
00000000
00000000
00000000
,
00000100
00001000
00000010
00010000
,
00001000
00010000
00001000
00011000
,
00100000
00010000
00000000
01000000
,
10000000
00000000
00000000
00000000
10000000
01000000
00100000
00000000
,
01000000
00100000
00001000
00010000
,
00001000
00000000
00010000
00000000
00001000
00010000
00001000
00000000
,
00000010
00000100
00001000
00000001
,
00000010
00000000
00000100
00000010
00000100
00000000
00000110
00000000
,
00001000
00000100
00001000
00010000
,
00010000
00000000
00000000
00000000
00000000
00100000
01000000
00000000
,
00000000
10000000
01000000
00000000
01000000
00000000
00100000
00000000
,
00010000
00001000
00010000
00000000
,
00010000
00000000
00000000
00000000
00001000
00010000
00001000
00000000
,
00000100
00000000
00000000
00000000
00000100
00000010
00000100
00000000
,
00001000
00000000
00000000
00000000
00001000
00010000
00001000
00000000
,
00010000
00000000
00000000
00000000
01000000
00010000
01000000
00000000
,
10000000
00000000
01000000
00000000
00100000
00100000
00010000
00000000
,
00010000
00000000
00001000
00000000
00010000
00010000
00001000
00000000
,
00000100
00000010
00000001
00000110
,
00001000
00010000
00001000
00000100
,
00001000
00000000
00010000
00000000
00001000
00010000
00001000
00000000
,
00010000
00000000
01000000
00000000
00100000
01000000
00100000
00000000
,
10000000
00000000
00010000
00000000
10000000
00010000
10000000
00000000
,
01000000
00000000
00100000
00000000
00010000
00001000
00010000
00000000
,
00001000
00000100
00000010
00000001
00000000
00000000
00000110
00000000
,
00000010
00000000
00001000
00000000
00000100
00000010
00000100
00000000
,
00001000
00010000
00001000
01000000
,
00010000
00000000
00010000
00000000
00100000
01000000
00100000
00000000
,
10000000
10000000
01000000
00010000
,
00001000
00000000
00010000
00000000
00010000
00001000
00010000
00000000
,
00001000
00000100
00000001
00000010
,
00000100
00000000
00000100
00000000
00000000
00000010
00000010
00000000
,
00000100
00000010
00001000
00000000
00000100
00000000
00000010
00000000
,
00010000
00001000
00010000
00000000
00000000
00100000
00100000
00000000
,
01000000
10000000
01000000
00000000
00100000
00000000
00010000
00000000
,
00100000
01000000
00010000
00000000
00000000
00001000
00001000
00000000
;

//---------------dance-double - ----------------
#NOTES:
     dance-double:
     :
     Hard:
     7:
     :
00000000
00000000
00000000
00000000
,
00000000
00000000
00000000
00000000
,
00000000
00000000
00000000
00000000
,
00000000
00000000
00000000
00000000
,
00000000
00000000
00000000
00000000
,
10000000
00100000
01000000
00010000
10000000
00000000
01000000
00000000
,
00010000
00000000
00001000
00000000
00010000
00001000
00010000
00000000
,
00000010
00000010
00001000
00001000
00000001
00000000
00000100
00000000
,
00001000
00000000
00010000
00000000
00001000
00010000
00001000
00000000
,
00100000
00010000
10000000
01000000
10000000
00000000
00010000
00000000
,
01000000
00000000
00001000
00000000
00010000
00001000
00010000
00000000
,
00000100
00000100
00001000
00000000
00000001
00000000
00000100
00001000
,
00010000
00000000
00001000
00000000
00010000
00001000
00010000
00000000
,
00020000
00000000
00032000
00000000
02003000
00000000
03010000
00200000
,
02000000
00000000
03300000
10010000
,
00100000
00000000
00010000
00000000
00001000
00000000
00000010
00000001
,
00001000
00000000
00000010
00000000
00000100
00001000
00020000
00000000
,
00031000
00000000
00010000
00000000
00001000
00100000
00010000
00000000
,
00100000
00000000
01000000
00000000
10000000
00010000
01000000
00000000
,
00001000
00000000
00010000
00000000
00000100
00001000
00000001
00000000
,
00000010
00000000
00001000
00000000
00010000
00001000
00100000
00000000
,
00001000
00001000
00100000
00000000
00010000
00010000
01000000
00000000
,
00001000
00000000
00010000
00000000
00000010
00001000
00000100
00000000
,
00010000
00010100
00001000
00101000
,
00100000
00010000
01000000
00100000
00010000
00001000
00000100
00000000
,
00000001
00000001
00001000
00001000
00000100
00000000
00000010
00000000
,
00000001
00000000
00000100
00000000
00001000
00010000
00001000
00000000
,
00010000
00001000
00100000
01000000
10000000
00000000
10000000
01000000
,
00010000
00000000
00001000
00000000
00010000
00001000
00010000
00000000
,
00001000
00001000
00000100
00000100
00000001
00000000
00001000
00000100
,
00010000
00000000
00001000
00000000
00010000
00001000
00010000
00000000
,
00101000
00010000
00000000
00000000
01000000
00000000
00100000
00000000
,
10000000
00000000
01000000
00000000
00010000
00001000
00011000
00000000
,
00010010
00001010
00001001
00000200
,
00000010
00000000
00000001
00000000
00001300
00000100
00010000
00000000
,
01001000
01010000
10010000
00200000
,
00010000
00000000
01000000
00000000
10300000
00010000
01000000
00000000
,
00100000
00100000
10000000
10000000
01000000
00000000
00020000
00000000
,
00031000
00000000
00011000
00000000
00010010
00001000
00001000
00000000
,
00000001
00000100
00001000
00010000
00000000
00000000
01000000
00000000
,
11000000
00000000
10000000
00000000
10100000
01000000
01000000
00000000
,
00010000
10000000
01000000
00010000
00001000
00000000
00010000
00000000
,
00011000
00000000
00000000
00000000
;
