
//----- mcode: tobe -----
#TITLE:Got To Be Real;
#ARTIST:Cheryl Lynn;
#BANNER:Got To Be Real.png;
#BACKGROUND:Got To Be Real-bg.png;
#CDTITLE:./CDTitles/DDR SuperNOVA2 PS2 US.png;
#MUSIC:Got To Be Real.ogg;
#SAMPLESTART:15.818;
#SAMPLELENGTH:15;
#DISPLAYBPM:115;
#BPMS:0=115.756,4=111.801,8=118.421,12=116.883,16=115.942,24=116.129,32=115.477,48=115.663,64=114.833,72=115.942,80=115.756,92=114.286,96=114.65,100=115.756,116=115.385,132=115.942,148=115.016,156=115.942,172=114.467,180=116.694;

//---------------dance-single - ----------------
#NOTES:
     dance-single:
     :
     Beginner:
     1:
     :
0000
0000
0000
0000
,
0000
0000
0000
0000
,
0000
0000
0000
0000
,
0000
0000
0000
0000
,
0001
0000
0001
0000
,
0001
0000
0000
0000
,
1000
0000
1000
0000
,
1000
0000
0000
0000
,
0200
0000
0000
0300
,
0100
0000
0000
0000
,
0020
0000
0000
0030
,
0010
0000
0000
0000
,
0001
0001
0001
0000
,
1000
0000
1000
0000
,
1001
0000
0000
0000
,
0110
0000
0000
0000
,
1000
0000
1000
0000
,
0001
0000
0001
0000
,
0100
0000
0100
0000
,
0010
0000
0010
0000
,
1000
1000
0000
1000
,
0000
0001
0000
0001
,
0001
0000
0100
0000
,
0010
0000
0100
0000
,
0000
0000
0000
0000
,
1000
1000
1000
0000
,
0001
0000
0001
0000
,
0100
0100
0100
0000
,
0010
0000
0010
0000
,
0001
0001
0001
0000
,
1000
0000
1000
0000
,
0010
0010
0010
0000
,
0100
0000
0100
0000
,
0001
0000
0001
0001
,
0001
0000
1000
0000
,
1000
0000
0100
0000
,
0100
0100
0100
0000
,
0010
0000
0010
0000
,
0001
0001
0001
0000
,
1000
0000
1000
0000
,
0001
0001
0001
0000
,
1000
0000
1000
0000
,
0020
0000
0000
0030
,
0010
0000
0010
0000
,
0001
0000
1001
0000
,
0100
0000
0110
0000
;

//---------------dance-single - ----------------
#NOTES:
     dance-single:
     :
     Easy:
     3:
     :
0000
0000
0000
0000
,
0000
0000
0000
0000
,
0000
0000
0000
0000
,
0000
0000
0000
0000
,
0001
0000
1000
0000
,
0010
0001
0100
0000
,
0010
0000
0100
0000
,
0010
1000
0100
0000
,
2002
0000
0000
3003
,
0010
1000
0001
0000
,
1000
0000
0001
0000
,
0100
0001
1000
0000
,
0220
0000
0000
0330
,
0010
1000
0100
0001
,
1000
0000
0001
0000
,
0010
0100
0110
0000
,
2000
3000
0002
0003
,
0020
0030
0200
0300
,
1000
1000
0010
0010
,
0100
0100
0001
0001
,
0200
0300
0020
0030
,
0200
0300
0002
0003
,
2000
3000
0001
1000
,
1001
1001
1001
1001
,
0000
0000
0000
0000
,
0010
0001
1000
0010
,
1000
1000
0002
0003
,
0100
0001
1000
0100
,
0010
0010
0100
0100
,
0001
1000
0010
1000
,
0001
0001
0002
0003
,
0110
0000
1000
0000
,
0001
1000
1001
0000
,
1000
0001
1000
1000
,
0010
0100
0020
0030
,
0100
0010
1000
1000
,
0001
0100
0002
0003
,
0001
0010
0001
0001
,
1000
0001
1000
0000
,
0100
0010
0100
0100
,
0001
1000
0001
0000
,
0110
0000
1001
0000
,
0001
0100
0001
0100
,
0001
0100
0001
0000
,
0010
0000
0000
1001
,
0010
0000
0100
0000
;

//---------------dance-single - ----------------
#NOTES:
     dance-single:
     :
     Medium:
     5:
     :
0000
0000
0000
0000
,
0000
0000
0000
0000
,
0000
0000
0000
0000
,
0000
0000
0000
0000
,
0010
1000
0001
1000
,
0010
0001
0100
0000
,
0010
0001
1000
0001
,
0010
1000
0100
0000
,
1001
0010
0100
0000
,
0100
0010
1001
0000
,
0010
1000
1100
0000
,
0010
0001
0101
0000
,
0110
1000
0001
0000
,
0001
1000
0110
0000
,
1001
0001
0110
0000
,
0110
1001
0110
0000
,
0020
0000
0030
1000
1000
0000
0000
0000
,
0200
0000
0300
0010
0010
0000
0000
0000
,
0020
0000
0030
0001
0001
0000
0000
0000
,
0200
0000
0300
1000
1000
0000
0000
0000
,
0010
0000
1000
0100
1000
0000
0001
0000
,
0100
0000
0001
0010
0001
0000
0010
0000
,
1000
0000
0001
1000
0001
0000
0100
0000
,
0110
0000
1001
0000
0010
0001
0100
0002
,
2000
3003
0000
0000
,
0010
0001
0100
1000
,
0010
1001
0110
0000
,
0001
0010
1000
0100
,
0001
0110
1001
0000
,
1000
0100
1000
0010
,
0001
0100
1001
0000
,
0110
0000
0000
0001
1000
0000
0100
0000
,
0001
0010
1000
0100
,
1000
0000
0001
0010
0010
0000
1000
0000
,
0010
0000
0100
0001
0100
0000
0000
0000
,
1000
0000
0010
1000
1000
0000
0001
0000
,
1000
0000
0100
0010
0100
0000
0000
0000
,
0010
0000
0001
0010
0010
0000
0100
0000
,
1000
0000
0001
0100
0001
0000
0000
0000
,
0010
0000
1000
0100
0100
0000
1000
0000
,
0010
0000
0001
0100
0001
0000
0000
0000
,
1001
0000
0000
0010
0100
0000
1000
0000
,
0110
0000
1001
0000
0001
0000
1000
0100
,
1000
0000
0001
0100
0001
0000
0010
0000
,
1001
0000
0000
0110
0000
0000
1001
0000
,
0110
0000
0000
0001
1000
0000
0000
0000
;

//---------------dance-single - ----------------
#NOTES:
     dance-single:
     :
     Hard:
     7:
     :
0000
0000
0000
0000
,
0000
0000
0000
0000
,
0000
0000
0000
0000
,
0000
0000
0000
0000
,
1001
0000
0000
0010
1000
0000
0000
0100
,
0000
0000
0010
0000
0000
0001
0000
0000
0100
0000
0000
0000
0010
0000
0000
0000
,
0100
0000
0000
0001
1000
0000
0000
0100
,
0000
0000
0010
0000
0000
1000
0000
0000
0100
0000
0000
0000
0010
0000
0001
0000
,
0100
0000
0010
0100
0001
0000
1000
1100
,
0000
0000
0010
0000
0000
0001
0000
0000
1000
0000
0000
0000
0001
0000
0100
0000
,
0010
0000
0100
0010
1000
0000
0001
0011
,
0000
0000
0100
0000
0000
1000
0000
0000
0001
0000
0000
0000
1000
0000
0100
0000
,
0010
0000
0001
0100
0100
0000
0010
0110
,
0000
0000
1000
0000
0000
0001
0000
0000
0100
0000
0000
0000
0010
0000
0000
0000
,
1001
0000
0000
0000
0100
0000
1000
0000
0010
0000
0000
1000
0000
0000
0001
0000
,
0000
0000
0010
0000
0000
1000
0000
0000
0100
0000
0000
0000
0001
0000
0000
0000
,
0110
0000
1000
0010
1000
0000
0001
0000
,
0100
0000
0001
0010
0001
0000
1000
0100
,
0010
0000
0001
0100
1000
0000
0001
1000
,
1000
0000
0100
0010
0010
0000
1001
0000
,
0010
0000
0000
1000
0000
0000
1000
0000
0100
0000
0000
0010
0000
0000
0000
0000
,
0010
0000
0000
0001
0000
0000
0001
0000
0100
0000
0000
0010
0000
0000
0000
0000
,
0010
0000
1000
0100
0010
0000
0001
0000
,
0100
0010
1000
0010
0100
0001
0010
0100
,
0100
2000
0000
0000
3001
0000
0000
0000
0000
0000
0000
0000
0000
0000
0000
0000
,
1001
0000
0001
0100
0010
0000
1000
0010
,
0000
0000
1001
0000
0000
0010
0000
0000
1001
0000
0000
0000
0010
0000
0001
0000
,
0100
0000
1001
1000
0100
0000
0010
0100
,
0000
0000
1001
0000
0000
0010
0000
0000
1001
0000
0000
0000
0010
0000
0001
0000
,
0100
0000
0010
1000
0100
0000
0001
1000
,
0000
0000
1001
0000
0000
0100
0000
0000
1001
0000
0000
0000
0010
0000
1000
0000
,
0100
0000
0001
0100
0010
0000
1000
0010
,
0000
0000
1010
0000
0000
0100
0000
0000
0101
0000
0000
0000
0010
0000
0000
0000
,
1010
0000
0001
0010
0100
0000
1000
0000
,
0001
0000
0100
0001
1000
0100
0010
0000
,
0110
0000
0001
0100
0010
0000
1000
0000
,
0010
0000
0100
0001
1000
0010
0100
0001
,
1000
0000
0100
0010
0100
0000
1001
0000
,
0100
0000
0000
0010
0100
0000
0001
0000
1000
0000
0001
0000
0100
0000
0000
0000
,
0110
0000
0010
0100
0010
0000
0110
0000
,
0001
0000
0000
1000
0100
0000
1000
0000
0001
0000
1000
0000
0100
0000
0000
0000
,
0001
1000
0001
0100
,
0010
0010
1001
1001
,
0100
0000
0100
0000
1000
0001
1000
0000
,
0001
0010
0001
0010
0000
0000
0100
1000
0100
1000
0000
0000
0010
0000
0000
0000
,
0100
0001
0100
0001
0000
0000
1000
0010
0000
0000
0000
0000
0000
0000
0000
0000
;

//---------------dance-double - ----------------
#NOTES:
     dance-double:
     :
     Easy:
     3:
     :
00000000
00000000
00000000
00000000
,
00000000
00000000
00000000
00000000
,
00000000
00000000
00000000
00000000
,
00000000
00000000
00000000
00000000
,
00001000
00000000
00010000
00000000
,
00000010
00001000
00000001
00000000
,
00000100
00000000
00001000
00000000
,
00010000
00001000
00100000
00000000
,
00020000
00030000
10000000
00000000
,
00100000
10000000
01000000
00000000
,
00020000
00030000
00001000
00000000
,
00000100
00000010
00000100
00000000
,
00002000
00003000
00000010
00000000
,
00000001
00000100
00001000
00000000
,
00020000
00030000
00001000
00000000
,
00100000
00100000
01000000
00000000
,
20000000
30000000
00020000
00030000
,
00002000
00003000
00000002
00000003
,
00001000
00001000
00000020
00000030
,
00000100
00000100
00000002
00000003
,
00000200
00000300
00002000
00003000
,
00020000
00030000
02000000
03000000
,
10000000
10000000
00010000
00010000
,
10000000
01000000
00010000
00011000
,
00000000
00000000
00000000
00000000
,
00001000
00010000
00000010
00001000
,
00000010
00000010
00000100
00000000
,
00000001
00000100
00001000
00010000
,
00001000
00001000
00010000
00000000
,
00100000
00010000
10000000
01000000
,
00100000
00100000
00010000
00000000
,
01100000
00000000
10000000
00000000
,
00100000
00010000
00011000
00000000
,
00000010
00000100
00000001
00000001
,
00001000
00000100
00001000
00000000
,
00000010
00000001
00000100
00000100
,
00001000
00010000
00001000
00000000
,
00100000
00010000
01000000
01000000
,
00100000
10000000
00010000
00000000
,
00100000
10000000
01000000
00010000
,
00001000
00001000
00010000
00000000
,
00011000
00000000
00000110
00000000
,
00000001
00000100
00001000
00010000
,
01000000
10000000
00100000
00000000
,
10010000
00000000
00000000
00010000
,
00001000
00000000
00010000
00000000
;

//---------------dance-double - ----------------
#NOTES:
     dance-double:
     :
     Medium:
     5:
     :
00000000
00000000
00000000
00000000
,
00000000
00000000
00000000
00000000
,
00000000
00000000
00000000
00000000
,
00000000
00000000
00000000
00000000
,
00000010
00001000
00000001
00000100
,
00001000
00010000
00001000
00000000
,
00100000
00010000
10000000
01000000
,
00100000
00010000
01000000
00000000
,
00011000
00000000
00000000
00010000
00001000
00000000
00000000
00000000
,
00000010
00000100
00001001
00000000
,
00000110
00000000
00000000
00000001
00000100
00000000
00000000
00000000
,
00001000
00010000
00011000
00000000
,
01100000
00000000
00000000
01000000
10000000
00000000
00000000
00000000
,
00100000
00010000
00011000
00000000
,
00000110
00001000
00000110
00000000
,
00000001
00001000
00001001
00000000
,
00000200
00000000
00000300
00001000
00001000
00000000
00000000
00000000
,
00020000
00000000
00030000
00100000
00100000
00000000
00000000
00000000
,
20000000
00000000
30000000
01000000
01000000
00000000
00000000
00000000
,
00020000
00000000
00030000
00001000
00001000
00000000
00000000
00000000
,
00010000
00000000
00001000
00000100
00000001
00000000
00000100
00000000
,
00001000
00000000
00010000
01000000
10000000
00000000
00100000
00000000
,
10000000
00000000
01000000
00010000
00001000
00000000
00010000
00000000
,
00011000
00000000
00000110
00000000
00000010
00001000
00000010
00000200
,
00000020
00000330
00000000
00000000
,
00000010
00000001
00000100
00001000
,
00010000
00001000
00011000
00000000
,
00010000
00100000
10000000
01000000
,
00010000
00001000
00011000
00000000
,
00010000
00000100
00001000
00000001
,
00000010
00000100
00001001
00000000
,
00000110
00000000
00000000
00000100
00001000
00000000
00010000
00000000
,
00001000
00010000
00100000
10000000
,
00010000
00000000
10000000
00100000
00100000
00000000
10000000
00000000
,
01000000
00000000
00010000
00001000
00001000
00000000
00000000
00000000
,
00010000
00000000
00000010
00001000
00001000
00000000
00000001
00000000
,
00000100
00000000
00001000
00010000
00010000
00000000
00000000
00000000
,
00001000
00000000
00010000
00100000
00100000
00000000
10000000
00000000
,
01000000
00000000
00100000
01000000
00100000
00000000
00000000
00000000
,
00010000
00000000
00001000
00000100
00000100
00000000
00000001
00000000
,
00000010
00000000
00000100
00000010
00000100
00000000
00000000
00000000
,
00001001
00000000
00000000
00000010
00001000
00000000
00010000
00000000
,
00011000
00000000
00010000
00000000
00011000
00000000
00100000
00010000
,
00100000
00000000
00010000
01000000
00010000
00000000
10000000
00000000
,
10010000
00000000
00000000
01000000
00000000
00000000
00010000
00000000
,
00011000
00000000
00000000
00001000
00010000
00000000
00000000
00000000
;

//---------------dance-double - ----------------
#NOTES:
     dance-double:
     :
     Hard:
     7:
     :
00000000
00000000
00000000
00000000
,
00000000
00000000
00000000
00000000
,
00000000
00000000
00000000
00000000
,
00000000
00000000
00000000
00000000
,
10000000
00000000
00000000
00000000
10100000
00000000
00000000
00000000
01000000
00000000
00000000
00001000
00000000
00000000
00010000
00000000
,
00000000
00000010
00000100
00000000
00000001
00000000
00000010
00000000
,
00000100
00000000
00000000
00000000
00001100
00000000
00000000
00000000
00000010
00000000
00000000
00000001
00000000
00000000
00000100
00000000
,
00000000
00001000
00010000
00000000
00001000
00000000
00100000
00000000
,
01000000
00000000
10000000
00100000
10000000
00000000
01000000
00000000
,
00010000
00011000
00001000
00000100
,
00000001
00000000
00000010
00000100
00000010
00000000
00000001
00000000
,
00000100
00000110
00000010
00010000
,
00001000
00000000
00000100
00000001
00000010
00000000
00000100
00000000
,
00010000
00011000
00001000
01000000
,
00100000
00000000
10000000
01000000
00010000
00000000
00001000
00000000
,
01000000
01100000
00100000
10000000
,
00010000
00000000
10000000
00100000
00010000
00000000
00001000
00000000
,
01000000
00000000
00001000
00010000
00000100
00000000
00000010
00000000
,
00000001
00000000
00000100
00000010
00010000
00000000
00001000
00000000
,
00100000
00000000
01000000
10000000
00100000
00000000
00010000
00000000
,
00001000
00000000
00000000
00100000
00000000
00000000
01000000
00000000
10000000
00000000
00000000
00010000
00000000
00000000
00000000
00000000
,
01000000
00000000
00000000
00001000
00000000
00000000
00010000
00000000
00000100
00000000
00000000
00000010
00000000
00000000
00000000
00000000
,
00000001
00000000
00000000
00000100
00000000
00000000
00000010
00000000
00010000
00000000
00000000
00000000
00001000
00000000
00000000
00000000
,
00000200
00000000
00000300
00000000
00000010
00000100
00000010
00000100
,
00000001
00001000
00000000
00000000
00000000
00000000
00000000
00000000
00000000
00000000
00000000
00000000
00000000
00000000
00000000
00000000
,
00000100
00000010
00000100
00010000
00001000
00000000
01000000
00000000
,
00200000
10000000
00010000
10300000
,
01000000
00100000
01000000
10000000
00010000
00000000
00100000
00000000
,
00002000
00000010
00010000
00003010
,
00000001
00001000
00000001
00000100
00000010
00000000
00010000
00000000
,
00001000
00000000
00000100
00000000
00000001
00000010
00000100
00010000
,
00001000
00010100
00010000
01001000
,
00001000
00000000
00100000
00000000
01000000
10000000
00100000
01000000
,
00010000
01001000
00001000
00010100
,
00010000
00000000
00001000
00000000
00000100
00000001
00000010
00000100
,
00001000
00010010
00010000
00101000
,
00001000
00000000
00010000
00000000
00100000
10000000
01000000
00100000
,
00010000
00101000
00001000
00010010
,
00010000
00000000
00000100
00000000
00000010
00000001
00001000
00000010
,
00000100
00000101
00000010
00001010
,
00000100
00000000
00000001
00000000
00000010
00000100
00010000
00001000
,
00100000
00110000
01000000
11000000
,
00100000
00000000
00010000
00000000
10000000
01000000
00100000
00001000
,
00010000
00011000
00011000
00011000
,
00000100
00000010
00000100
00000010
00000000
00000000
00000001
00001000
00000001
00001000
00000000
00000000
00000010
00000000
00000000
00000000
,
00000100
00001000
00000100
00001000
00000000
00000000
00010000
00001000
00000000
00000000
00000000
00000000
00000000
00000000
00000000
00000000
;
