
//----- mcode: feva -----
#TITLE:Fevah;
#ARTIST:Nightriders;
#BANNER:Fevah.png;
#BACKGROUND:Fevah-bg.png;
#CDTITLE:./CDTitles/DDR SuperNOVA2 PS2 US.png;
#MUSIC:Fevah.ogg;
#SAMPLESTART:23.622;
#SAMPLELENGTH:15;
#BPMS:0=127;

//---------------dance-single - ----------------
#NOTES:
     dance-single:
     :
     Beginner:
     1:
     :
0000
0000
0000
0000
,
0000
0000
0000
0000
,
0000
0000
0000
0000
,
0000
0000
0000
0000
,
0000
0000
1000
0000
,
0000
0000
0100
0000
,
0000
0000
0001
0000
,
0000
0000
0010
0000
,
0000
0000
1000
0000
,
1000
0000
0001
0000
,
0001
0000
0010
0000
,
0010
0000
0100
0000
,
0000
0000
0010
0010
,
0000
0000
1000
1000
,
0000
0000
0100
0100
,
0000
0000
0001
0000
,
0001
0000
0010
0010
,
0000
0000
1000
1000
,
0000
0000
0001
0001
,
0000
0000
0100
0100
,
0000
0000
0001
0000
,
0000
0000
0010
0000
,
0000
0000
1000
0000
,
0000
0000
0010
0000
,
0000
0000
1000
0000
,
1000
0000
0100
0000
,
0100
0000
0001
0000
,
0001
0000
0100
0000
,
0100
0000
1000
0000
,
0001
0000
0010
0000
,
1000
0000
0001
0000
,
0100
0000
1000
0000
,
0010
0000
0100
0100
,
0000
0000
0001
0001
,
0000
0000
0010
0010
,
0000
0000
1000
1000
,
0000
0000
0010
0000
,
1000
0000
0100
0000
,
0001
0000
0010
0000
,
0001
0000
1000
0000
,
0010
0000
0100
0000
,
0001
0000
0100
0000
,
1000
0000
0010
0000
,
0001
0000
1000
0000
,
0100
0000
0001
0001
,
0001
0000
0100
0100
,
0100
0000
1000
1000
,
1000
0000
0010
0010
,
0010
0010
0000
0000
;

//---------------dance-single - ----------------
#NOTES:
     dance-single:
     :
     Easy:
     3:
     :
0000
0000
0000
0000
,
0000
0000
0000
0000
,
0000
0000
0000
0000
,
0000
0000
0000
0000
,
0000
0000
1000
0001
,
0010
0000
0100
0001
,
0010
0000
0001
1000
,
0100
0000
1000
0001
,
0010
0100
1000
0100
,
0001
0000
0100
0001
,
0100
0000
1000
0010
,
0001
0000
0010
0100
,
1001
0000
0010
1000
,
0100
0001
0100
0010
,
0100
0000
1000
0010
,
0001
1000
0100
0001
,
0010
0000
0010
0001
,
0100
1000
0100
0010
,
1000
0000
0100
0010
,
0100
1000
0100
0010
,
0001
0000
1000
0000
,
0001
0000
0100
0000
,
0010
0000
0001
0000
,
0010
0000
1000
0000
,
0100
0000
0001
0001
,
0010
0000
0100
0100
,
1000
0000
0001
0000
,
1000
0000
0100
0010
,
0100
0000
0001
0010
,
1000
0110
1000
0001
,
0100
0000
0100
1000
,
0001
0110
0001
0100
,
1000
0000
0001
0100
,
0010
1001
0100
0010
,
1000
0000
0100
0001
,
1000
0110
1000
0100
,
0001
0000
0100
0001
,
0100
1000
0001
0010
,
0100
1000
0100
0100
,
1000
0010
0100
1000
,
0010
0001
0100
0001
,
0100
0010
0100
1000
,
0001
0010
0100
0010
,
0001
1000
0100
0010
,
0100
1001
0010
0100
,
0002
0003
0100
0001
,
2000
3000
0001
0010
,
0200
0300
0010
0001
,
1000
0010
0000
0000
;

//---------------dance-single - ----------------
#NOTES:
     dance-single:
     :
     Medium:
     4:
     :
0000
0000
0000
0000
,
0000
0000
0000
0000
,
0000
0000
0000
0000
,
0000
0000
0000
0000
,
0000
0000
0001
1000
,
0100
0100
0010
1000
,
0100
0010
1000
0001
,
0010
0010
0001
1000
,
0100
0101
0010
0001
,
1000
1000
0010
1000
,
0010
0100
0001
0100
,
1000
1000
0100
0010
,
1001
0000
0100
0001
,
0010
1100
0010
0100
,
0010
1000
0001
0100
,
1000
0101
0010
1000
,
0100
0001
0100
1000
,
0010
1001
0010
0100
,
0001
1000
0010
0100
,
0010
0001
0010
0100
,
1000
0010
0002
0000
,
0000
0003
0020
0000
,
0000
0030
2000
0000
,
0000
3000
0002
0000
,
0000
0003
1000
1000
,
0100
0000
0010
0010
,
0001
0000
1000
0100
,
0001
0100
0010
0100
,
0010
1001
0010
0100
,
1001
0110
0001
1000
,
0010
0001
0010
0100
,
1010
0101
1000
0010
,
0001
0110
1000
0010
,
1100
0101
0010
0100
,
0001
0100
0010
1000
,
0011
1010
0100
0010
,
1000
0001
0110
1001
,
0010
0001
1100
0101
,
0010
0001
0010
0010
,
0101
1100
0010
0001
,
0100
1000
0011
1100
,
0010
0100
0010
0001
,
1000
0100
1010
0101
,
1000
0001
0010
0100
,
0010
1001
0100
0010
,
2000
3000
0010
1000
,
0002
0003
1000
0100
,
0020
0030
0100
1000
,
0001
0100
0000
0000
;

//---------------dance-single - ----------------
#NOTES:
     dance-single:
     :
     Hard:
     6:
     :
0000
0000
0000
0000
,
0000
0000
0000
0000
,
0000
0000
0000
0000
,
0000
0000
0000
0000
,
0000
0000
0000
0000
1000
0100
0001
0000
,
0100
0000
1000
0000
0010
1000
0001
0000
,
0100
0000
0010
0000
0001
0010
1000
0000
,
0010
0100
1000
0001
,
0100
0000
0010
0000
0100
0001
0010
0000
,
0001
0000
1000
0000
0010
0100
0001
0000
,
0010
0000
0001
0000
1000
0010
0100
0000
,
0001
0010
0100
0010
,
2002
0000
3003
0000
0100
0001
1000
0000
,
0010
0000
0101
0000
0010
1000
0100
0000
,
0010
0000
0001
0000
1000
0010
0100
0000
,
0001
1100
0010
0001
,
0100
0000
1000
0000
0100
0010
1000
0000
,
0100
0000
1001
0000
0010
0001
0100
0000
,
1000
0001
0010
0101
,
0010
1100
0010
0100
,
0001
0010
2000
0000
,
3002
0000
0023
0000
,
0230
0000
0302
0000
,
0203
0000
2300
0000
,
3020
0030
0001
0001
,
0100
0100
0010
0010
,
1000
1000
0001
0100
,
1000
0000
0100
0000
0010
1000
0100
0000
,
0010
0000
1001
0000
0010
0001
0100
0000
,
1001
0000
0110
0000
1000
0100
0001
0000
,
0010
0000
1000
0000
0010
1000
0100
0000
,
0011
1100
0001
0010
,
1000
0000
0100
0000
0001
1000
0010
0000
,
0101
0000
1100
0000
0010
0001
0100
0000
,
1000
0000
0100
0000
0010
0100
0001
0000
,
1010
0011
0100
0010
,
0001
1000
0110
1001
,
0010
0001
1000
0000
0101
0000
1100
0000
,
0010
0000
1000
0000
0010
0001
0010
0000
,
1100
0101
0010
1000
,
0100
0001
1010
0101
,
0010
0001
0100
0000
0010
0000
1000
0000
,
0001
1000
0100
0000
0011
0000
1100
0000
,
0001
0100
1000
0000
0010
0000
0100
0000
,
0010
0000
1001
0000
0100
1000
0010
0000
,
0002
0003
1010
0101
,
2000
0000
3000
0000
0010
0001
1000
0000
,
0020
0030
0100
0001
,
1000
0000
0100
0001
0000
0000
0000
0000
;

//---------------dance-double - ----------------
#NOTES:
     dance-double:
     :
     Easy:
     3:
     :
00000000
00000000
00000000
00000000
,
00000000
00000000
00000000
00000000
,
00000000
00000000
00000000
00000000
,
00000000
00000000
00000000
00000000
,
00000000
00000000
00000001
00001000
,
00000100
00000000
00001000
00000001
,
00000100
00000000
00001000
00010000
,
00001000
00000000
00010000
00100000
,
10000000
01000000
00100000
01000000
,
10000000
00000000
00100000
01000000
,
00010000
00000000
00001000
00000100
,
00000001
00000000
00000100
00000010
,
00001001
00000000
00000100
00000001
,
00000010
00001000
00010000
00001000
,
00010000
00000000
01000000
10000000
,
00010000
01000000
00100000
01000000
,
00010000
00000000
00100000
00010000
,
00001000
00000100
00000010
00000100
,
00000001
00000000
00000010
00001000
,
00000100
00000001
00000100
00001000
,
00010000
00000000
01000000
00000000
,
10000000
00000000
00100000
00000000
,
01000000
00000000
00010000
00000000
,
00001000
00000000
00000010
00000000
,
00000001
00000000
00001000
00001000
,
00000100
00000000
00000010
00000010
,
00000001
00000000
00000100
00000000
,
00001000
00000000
00010000
00001000
,
00010000
00000000
00100000
10000000
,
00010000
01000000
00100000
10000000
,
01000000
00000000
00010000
00001000
,
00000010
00000001
00001000
00000010
,
00000100
00000000
00001000
00010000
,
00001000
00000100
00000001
00000010
,
00001000
00000000
00010000
00100000
,
10000000
00100000
01000000
00010000
,
00100000
00000000
01000000
00010000
,
00001000
00001000
00000010
00000001
,
00001000
00000010
00000100
00000001
,
00000010
00000010
00001000
00010000
,
01000000
10000000
00100000
10000000
,
00010000
00010000
00100000
01000000
,
00010000
00001000
00000010
00000100
,
00001000
00001000
00000001
00000100
,
00000010
00001001
00000100
00000010
,
00000002
00000003
00000100
00001000
,
00020000
00030000
01000000
10000000
,
00200000
00300000
10000000
00010000
,
10000000
01000000
00000000
00000000
;

//---------------dance-double - ----------------
#NOTES:
     dance-double:
     :
     Medium:
     4:
     :
00000000
00000000
00000000
00000000
,
00000000
00000000
00000000
00000000
,
00000000
00000000
00000000
00000000
,
00000000
00000000
00000000
00000000
,
00000000
00000000
10000000
00010000
,
01000000
01000000
00100000
00010000
,
00001000
00000010
00000001
00001000
,
00000010
00000010
00010000
00001000
,
00000100
00001001
00000010
00001000
,
00010000
00010000
00100000
10000000
,
00100000
01000000
00100000
00010000
,
00001000
00001000
00000010
00000001
,
00001100
00000000
00000001
00001000
,
00000010
00000101
00001000
00010000
,
00100000
10000000
01000000
00100000
,
00010000
11000000
00100000
00001000
,
01000000
00010000
00001000
00000010
,
00000100
00001001
00000010
00000100
,
00001000
00000001
00000100
00000100
,
00001000
00001000
00010000
00010000
,
01000000
01000000
20000000
00000000
,
00000000
30000000
00200000
00000000
,
00000000
00300000
00020000
00000000
,
00000000
00030000
00002000
00000000
,
00000000
00003000
00000010
00000001
,
00000010
00000000
00000001
00000100
,
00000001
00000000
00000100
00001000
,
00010000
01000000
00100000
01000000
,
10010000
00000000
00100000
01000000
,
10010000
01100000
10000000
00100000
,
00010000
00001000
00000010
00000100
,
00000011
00001100
00000010
00000100
,
00001000
00011000
00100000
10000000
,
01010000
11000000
00100000
01000000
,
10000000
00100000
00010000
00001000
,
00001010
00000101
00000010
00000100
,
00001001
00000000
00001100
00011000
,
00100000
10000000
01010000
11000000
,
00100000
10000000
00100000
00010000
,
00001000
00000010
00000100
00001001
,
00000010
00001001
00000110
00001100
,
00010000
01000000
00110000
11000000
,
00010000
01000000
00100000
10000000
,
01000000
00010000
00001000
00000100
,
00000001
00001010
00000100
00000010
,
00000002
00000003
00000100
00001000
,
00020000
00030000
00100000
01000000
,
00020000
00030000
10000000
01000000
,
00010000
00001000
00000000
00000000
;

//---------------dance-double - ----------------
#NOTES:
     dance-double:
     :
     Hard:
     6:
     :
00000000
00000000
00000000
00000000
,
00000000
00000000
00000000
00000000
,
00000000
00000000
00000000
00000000
,
00000000
00000000
00000000
00000000
,
00000000
00000000
00000001
00001000
,
00000010
00001000
00000001
00000000
00000100
00000000
00001000
00000000
,
00010000
01000000
10000000
00000000
00100000
00000000
10000000
00000000
,
00010000
00000000
01000000
00000000
00100000
00010000
00001000
00000000
,
00000010
00001001
00000010
00000100
,
00001000
00000001
00000100
00000000
00001000
00000000
00010000
00000000
,
00100000
10000000
01000000
00000000
00100000
00000000
00010000
00000000
,
10000000
00000000
00100000
00000000
00010000
00001000
00000100
00000000
,
00001001
00000000
00000000
00000000
00000010
00000001
00001000
00000000
,
00000100
00011000
00100000
10000000
,
00010000
00000000
01000000
00000000
00100000
01000000
00010000
00000000
,
00001000
00001010
00000100
00001000
,
00000010
00000000
00000001
00000000
00000010
00000100
00000001
00000000
,
00000010
00001100
00010000
01000000
,
10000000
00100000
10000000
01000000
,
00100000
01000000
00010000
00010000
,
00001000
00001000
00000100
00000100
,
00000202
00000303
00000010
00000010
,
00002020
00003030
00010000
00010000
,
00220000
00330000
10000000
10000000
,
22000000
33000000
00010000
00010000
,
00001000
00001000
00000100
00000100
,
00000001
00000001
00001000
00000010
,
00000001
00000000
00000010
00000000
00000100
00001000
00010000
00000000
,
00110000
00000000
00000000
00000000
01000000
10000000
00100000
00000000
,
01010000
11000000
00010000
00001000
,
00000100
00000000
00000001
00000000
00000010
00000001
00001000
00000000
,
00000110
00001001
00000010
00001000
,
00010000
00000000
00100000
00000000
10000000
00010000
01000000
00000000
,
10100000
00110000
10000000
01000000
,
00010000
00000000
00001000
00000000
00000100
00000010
00001000
00000000
,
00000101
00001100
00000010
00000100
,
00001000
00000000
00000001
00000000
00000010
00000001
00000100
00000000
,
00001000
00011000
00100000
01000000
,
00010000
00100000
01000000
00000000
00010000
01000000
10000000
00000000
,
00100000
00110000
00001000
00000110
,
00000001
00000000
00000110
00000000
00001000
00000001
00000100
00000000
,
00000010
00001100
00000001
00000010
,
00001000
00010000
01000000
00000000
20000000
00000000
30000000
00000000
,
00200000
00000000
00300000
00000000
00010000
00001000
00010000
00000000
,
00000100
00000000
00001001
00000000
00000010
00000001
00000100
00000000
,
00002000
00000000
00003000
00000000
00000001
00001000
00000010
00000000
,
00000002
00000000
00000003
00000000
00000100
00001000
00010000
00000000
,
02000000
03000000
00100000
00010000
,
10000000
00000000
00100000
00010000
00000000
00000000
00000000
00000000
;
